osu file format v14

[General]
AudioFilename: Last Time(t+pazolite Remix).mp3
AudioLeadIn: 0
PreviewTime: 39529
Countdown: 0
SampleSet: Normal
StackLeniency: 0.7
Mode: 1
LetterboxInBreaks: 0
WidescreenStoryboard: 0

[Editor]
DistanceSpacing: 0.5
BeatDivisor: 4
GridSize: 8
TimelineZoom: 3.999998

[Metadata]
Title:Last Time(t pazolite Remix)
TitleUnicode:Last Time(t pazolite Remix)
Artist:Nomiya Ayumi
ArtistUnicode:野宮あゆみ
Creator:Konpaku Sariel
Version:Last taiko
Source:
Tags:
BeatmapID:346903
BeatmapSetID:138937

[Difficulty]
HPDrainRate:3
CircleSize:5
OverallDifficulty:5
ApproachRate:5
SliderMultiplier:1.4
SliderTickRate:2

[Events]
//Background and Video events
0,0,"d0010203_4d3db08549fc2.jpg",0,0
//Break Periods
//Storyboard Layer 0 (Background)
//Storyboard Layer 1 (Fail)
//Storyboard Layer 2 (Pass)
//Storyboard Layer 3 (Foreground)
//Storyboard Sound Samples

[TimingPoints]
1145.86699507389,300,4,1,0,100,1,0
20345,-100,4,1,0,100,0,1
39545,-100,4,1,0,100,0,0
85145,300,4,1,0,100,1,0
87545,300,4,1,0,100,1,0
91145,300,4,1,0,100,1,1
110345,-100,4,1,0,100,0,0
187145,-100,4,1,0,100,0,1
225545,-100,4,1,0,100,0,0

[HitObjects]
256,192,1145,5,0,0:0:0:0:
256,192,1183,1,0,0:0:0:0:
256,192,1220,1,0,0:0:0:0:
256,192,1295,1,8,0:0:0:0:
256,192,1370,1,0,0:0:0:0:
256,192,1445,1,0,0:0:0:0:
256,192,1483,1,0,0:0:0:0:
256,192,1520,1,0,0:0:0:0:
256,192,1595,1,8,0:0:0:0:
256,192,1670,1,0,0:0:0:0:
256,192,1745,1,0,0:0:0:0:
256,192,1783,1,0,0:0:0:0:
256,192,1820,1,0,0:0:0:0:
256,192,1895,1,8,0:0:0:0:
256,192,1970,1,0,0:0:0:0:
256,192,2045,1,0,0:0:0:0:
256,192,2083,1,0,0:0:0:0:
256,192,2120,1,0,0:0:0:0:
256,192,2195,1,8,0:0:0:0:
256,192,2270,1,0,0:0:0:0:
256,192,2345,1,8,0:0:0:0:
256,192,2383,1,8,0:0:0:0:
256,192,2420,1,0,0:0:0:0:
256,192,2495,1,0,0:0:0:0:
256,192,2570,1,0,0:0:0:0:
256,192,2645,1,8,0:0:0:0:
256,192,2683,1,8,0:0:0:0:
256,192,2720,1,0,0:0:0:0:
256,192,2795,1,0,0:0:0:0:
256,192,2870,1,0,0:0:0:0:
256,192,2945,1,8,0:0:0:0:
256,192,2983,1,8,0:0:0:0:
256,192,3020,1,0,0:0:0:0:
256,192,3095,1,0,0:0:0:0:
256,192,3170,1,0,0:0:0:0:
256,192,3245,1,8,0:0:0:0:
256,192,3283,1,8,0:0:0:0:
256,192,3320,1,0,0:0:0:0:
256,192,3395,1,0,0:0:0:0:
256,192,3470,1,0,0:0:0:0:
256,192,3545,1,0,0:0:0:0:
256,192,3583,1,0,0:0:0:0:
256,192,3620,1,0,0:0:0:0:
256,192,3695,1,8,0:0:0:0:
256,192,3770,1,0,0:0:0:0:
256,192,3845,1,0,0:0:0:0:
256,192,3883,1,0,0:0:0:0:
256,192,3920,1,0,0:0:0:0:
256,192,3995,1,8,0:0:0:0:
256,192,4070,1,0,0:0:0:0:
256,192,4145,1,0,0:0:0:0:
256,192,4183,1,0,0:0:0:0:
256,192,4220,1,0,0:0:0:0:
256,192,4295,1,8,0:0:0:0:
256,192,4370,1,0,0:0:0:0:
256,192,4445,1,0,0:0:0:0:
256,192,4483,1,0,0:0:0:0:
256,192,4520,1,0,0:0:0:0:
256,192,4595,1,8,0:0:0:0:
256,192,4670,1,0,0:0:0:0:
256,192,4745,1,0,0:0:0:0:
256,192,4783,1,0,0:0:0:0:
256,192,4820,1,0,0:0:0:0:
256,192,4895,1,8,0:0:0:0:
256,192,4970,1,0,0:0:0:0:
256,192,5045,1,0,0:0:0:0:
256,192,5083,1,0,0:0:0:0:
256,192,5120,1,0,0:0:0:0:
256,192,5195,1,8,0:0:0:0:
256,192,5270,1,0,0:0:0:0:
256,192,5345,1,8,0:0:0:0:
256,192,5383,1,8,0:0:0:0:
256,192,5420,1,8,0:0:0:0:
256,192,5495,1,0,0:0:0:0:
256,192,5570,1,0,0:0:0:0:
256,192,5645,1,8,0:0:0:0:
256,192,5683,1,8,0:0:0:0:
256,192,5720,1,8,0:0:0:0:
256,192,5758,1,8,0:0:0:0:
256,192,5795,1,0,0:0:0:0:
256,192,5870,1,8,0:0:0:0:
256,192,5945,5,0,0:0:0:0:
256,192,5983,1,0,0:0:0:0:
256,192,6020,1,0,0:0:0:0:
256,192,6095,1,8,0:0:0:0:
256,192,6170,1,0,0:0:0:0:
256,192,6245,1,0,0:0:0:0:
256,192,6283,1,0,0:0:0:0:
256,192,6320,1,0,0:0:0:0:
256,192,6395,1,8,0:0:0:0:
256,192,6470,1,0,0:0:0:0:
256,192,6545,1,0,0:0:0:0:
256,192,6583,1,0,0:0:0:0:
256,192,6620,1,0,0:0:0:0:
256,192,6695,1,8,0:0:0:0:
256,192,6770,1,0,0:0:0:0:
256,192,6845,1,0,0:0:0:0:
256,192,6883,1,0,0:0:0:0:
256,192,6920,1,0,0:0:0:0:
256,192,6995,1,8,0:0:0:0:
256,192,7070,1,0,0:0:0:0:
256,192,7145,1,8,0:0:0:0:
256,192,7183,1,8,0:0:0:0:
256,192,7220,1,8,0:0:0:0:
256,192,7258,1,8,0:0:0:0:
256,192,7295,1,0,0:0:0:0:
256,192,7370,1,0,0:0:0:0:
256,192,7445,1,8,0:0:0:0:
256,192,7483,1,8,0:0:0:0:
256,192,7520,1,8,0:0:0:0:
256,192,7558,1,8,0:0:0:0:
256,192,7595,1,0,0:0:0:0:
256,192,7670,1,0,0:0:0:0:
256,192,7745,1,8,0:0:0:0:
256,192,7783,1,8,0:0:0:0:
256,192,7820,1,8,0:0:0:0:
256,192,7858,1,8,0:0:0:0:
256,192,7895,1,0,0:0:0:0:
256,192,7970,1,0,0:0:0:0:
256,192,8045,1,8,0:0:0:0:
256,192,8083,1,8,0:0:0:0:
256,192,8120,1,8,0:0:0:0:
256,192,8158,1,8,0:0:0:0:
256,192,8195,1,0,0:0:0:0:
256,192,8270,1,0,0:0:0:0:
256,192,8345,1,0,0:0:0:0:
256,192,8383,1,0,0:0:0:0:
256,192,8420,1,0,0:0:0:0:
256,192,8495,1,8,0:0:0:0:
256,192,8570,1,0,0:0:0:0:
256,192,8645,1,0,0:0:0:0:
256,192,8683,1,0,0:0:0:0:
256,192,8720,1,0,0:0:0:0:
256,192,8795,1,8,0:0:0:0:
256,192,8870,1,0,0:0:0:0:
256,192,8945,1,0,0:0:0:0:
256,192,8983,1,0,0:0:0:0:
256,192,9020,1,0,0:0:0:0:
256,192,9095,1,8,0:0:0:0:
256,192,9170,1,0,0:0:0:0:
256,192,9245,1,0,0:0:0:0:
256,192,9283,1,0,0:0:0:0:
256,192,9320,1,0,0:0:0:0:
256,192,9395,1,8,0:0:0:0:
256,192,9470,1,0,0:0:0:0:
256,192,9545,1,8,0:0:0:0:
256,192,9583,1,8,0:0:0:0:
256,192,9620,1,8,0:0:0:0:
256,192,9695,1,8,0:0:0:0:
256,192,9733,1,8,0:0:0:0:
256,192,9770,1,8,0:0:0:0:
256,192,9845,1,8,0:0:0:0:
256,192,9883,1,8,0:0:0:0:
256,192,9920,1,8,0:0:0:0:
256,192,9995,1,8,0:0:0:0:
256,192,10033,1,8,0:0:0:0:
256,192,10070,1,8,0:0:0:0:
256,192,10145,1,0,0:0:0:0:
256,192,10183,1,0,0:0:0:0:
256,192,10220,1,0,0:0:0:0:
256,192,10258,1,0,0:0:0:0:
256,192,10295,1,0,0:0:0:0:
256,192,10370,1,0,0:0:0:0:
256,192,10445,1,8,0:0:0:0:
256,192,10483,1,8,0:0:0:0:
256,192,10520,1,8,0:0:0:0:
256,192,10558,1,8,0:0:0:0:
256,192,10595,1,0,0:0:0:0:
256,192,10633,1,0,0:0:0:0:
256,192,10670,1,0,0:0:0:0:
256,192,10708,1,0,0:0:0:0:
256,192,10745,5,8,0:0:0:0:
256,192,10783,1,0,0:0:0:0:
256,192,10820,1,0,0:0:0:0:
256,192,10858,1,0,0:0:0:0:
256,192,10895,1,8,0:0:0:0:
256,192,10933,1,0,0:0:0:0:
256,192,10970,1,0,0:0:0:0:
256,192,11045,1,0,0:0:0:0:
256,192,11083,1,0,0:0:0:0:
256,192,11120,1,0,0:0:0:0:
256,192,11195,1,8,0:0:0:0:
256,192,11270,1,0,0:0:0:0:
256,192,11345,1,0,0:0:0:0:
256,192,11383,1,0,0:0:0:0:
256,192,11420,1,0,0:0:0:0:
256,192,11495,1,8,0:0:0:0:
256,192,11570,1,0,0:0:0:0:
256,192,11645,1,0,0:0:0:0:
256,192,11683,1,0,0:0:0:0:
256,192,11720,1,0,0:0:0:0:
256,192,11795,1,8,0:0:0:0:
256,192,11870,1,0,0:0:0:0:
256,192,11945,1,8,0:0:0:0:
256,192,11983,1,8,0:0:0:0:
256,192,12020,1,0,0:0:0:0:
256,192,12058,1,8,0:0:0:0:
256,192,12095,1,8,0:0:0:0:
256,192,12170,1,0,0:0:0:0:
256,192,12245,1,8,0:0:0:0:
256,192,12283,1,8,0:0:0:0:
256,192,12320,1,0,0:0:0:0:
256,192,12358,1,8,0:0:0:0:
256,192,12395,1,8,0:0:0:0:
256,192,12470,1,0,0:0:0:0:
256,192,12545,1,8,0:0:0:0:
256,192,12583,1,8,0:0:0:0:
256,192,12620,1,0,0:0:0:0:
256,192,12658,1,8,0:0:0:0:
256,192,12695,1,8,0:0:0:0:
256,192,12770,1,0,0:0:0:0:
256,192,12845,1,8,0:0:0:0:
256,192,12883,1,8,0:0:0:0:
256,192,12920,1,0,0:0:0:0:
256,192,12958,1,8,0:0:0:0:
256,192,12995,1,8,0:0:0:0:
256,192,13070,1,0,0:0:0:0:
256,192,13145,1,0,0:0:0:0:
256,192,13183,1,0,0:0:0:0:
256,192,13220,1,0,0:0:0:0:
256,192,13295,1,8,0:0:0:0:
256,192,13370,1,0,0:0:0:0:
256,192,13445,1,0,0:0:0:0:
256,192,13483,1,0,0:0:0:0:
256,192,13520,1,0,0:0:0:0:
256,192,13595,1,8,0:0:0:0:
256,192,13670,1,0,0:0:0:0:
256,192,13745,1,0,0:0:0:0:
256,192,13783,1,0,0:0:0:0:
256,192,13820,1,0,0:0:0:0:
256,192,13895,1,8,0:0:0:0:
256,192,13970,1,0,0:0:0:0:
256,192,14045,1,0,0:0:0:0:
256,192,14083,1,0,0:0:0:0:
256,192,14120,1,0,0:0:0:0:
256,192,14195,1,8,0:0:0:0:
256,192,14270,1,0,0:0:0:0:
256,192,14345,1,0,0:0:0:0:
256,192,14383,1,0,0:0:0:0:
256,192,14420,1,0,0:0:0:0:
256,192,14495,1,8,0:0:0:0:
256,192,14570,1,0,0:0:0:0:
256,192,14645,1,0,0:0:0:0:
256,192,14683,1,0,0:0:0:0:
256,192,14720,1,0,0:0:0:0:
256,192,14795,1,8,0:0:0:0:
256,192,14870,1,0,0:0:0:0:
256,192,14945,1,8,0:0:0:0:
256,192,14983,1,0,0:0:0:0:
256,192,15020,1,0,0:0:0:0:
256,192,15095,1,8,0:0:0:0:
256,192,15170,1,0,0:0:0:0:
256,192,15245,1,8,0:0:0:0:
256,192,15283,1,8,0:0:0:0:
256,192,15320,1,0,0:0:0:0:
256,192,15395,1,8,0:0:0:0:
256,192,15470,1,0,0:0:0:0:
256,192,15508,1,0,0:0:0:0:
256,192,15545,5,8,0:0:0:0:
256,192,15583,1,8,0:0:0:0:
256,192,15620,1,0,0:0:0:0:
256,192,15658,1,8,0:0:0:0:
256,192,15695,1,0,0:0:0:0:
256,192,15770,1,0,0:0:0:0:
256,192,15845,1,8,0:0:0:0:
256,192,15883,1,8,0:0:0:0:
256,192,15920,1,0,0:0:0:0:
256,192,15995,1,0,0:0:0:0:
256,192,16033,1,0,0:0:0:0:
256,192,16070,1,0,0:0:0:0:
256,192,16108,1,0,0:0:0:0:
256,192,16145,1,0,0:0:0:0:
256,192,16220,1,0,0:0:0:0:
256,192,16295,1,8,0:0:0:0:
256,192,16370,1,0,0:0:0:0:
256,192,16445,1,0,0:0:0:0:
256,192,16483,1,0,0:0:0:0:
256,192,16520,1,0,0:0:0:0:
256,192,16558,1,0,0:0:0:0:
256,192,16595,1,8,0:0:0:0:
256,192,16670,1,0,0:0:0:0:
256,192,16745,1,8,0:0:0:0:
256,192,16783,1,0,0:0:0:0:
256,192,16820,1,8,0:0:0:0:
256,192,16858,1,0,0:0:0:0:
256,192,16895,1,8,0:0:0:0:
256,192,16970,1,0,0:0:0:0:
256,192,17045,1,8,0:0:0:0:
256,192,17083,1,0,0:0:0:0:
256,192,17120,1,8,0:0:0:0:
256,192,17158,1,0,0:0:0:0:
256,192,17195,1,8,0:0:0:0:
256,192,17270,1,0,0:0:0:0:
256,192,17345,1,8,0:0:0:0:
256,192,17383,1,0,0:0:0:0:
256,192,17420,1,8,0:0:0:0:
256,192,17458,1,0,0:0:0:0:
256,192,17495,1,8,0:0:0:0:
256,192,17570,1,0,0:0:0:0:
256,192,17645,1,8,0:0:0:0:
256,192,17683,1,0,0:0:0:0:
256,192,17720,1,8,0:0:0:0:
256,192,17758,1,0,0:0:0:0:
256,192,17795,1,8,0:0:0:0:
256,192,17870,1,0,0:0:0:0:
256,192,17945,1,0,0:0:0:0:
256,192,17983,1,0,0:0:0:0:
256,192,18020,1,0,0:0:0:0:
256,192,18058,1,0,0:0:0:0:
256,192,18095,1,8,0:0:0:0:
256,192,18170,1,0,0:0:0:0:
256,192,18245,1,0,0:0:0:0:
256,192,18320,1,0,0:0:0:0:
256,192,18358,1,0,0:0:0:0:
256,192,18395,1,8,0:0:0:0:
256,192,18433,1,0,0:0:0:0:
256,192,18470,1,0,0:0:0:0:
256,192,18545,1,0,0:0:0:0:
256,192,18583,1,0,0:0:0:0:
256,192,18620,1,0,0:0:0:0:
256,192,18658,1,0,0:0:0:0:
256,192,18695,1,8,0:0:0:0:
256,192,18770,1,0,0:0:0:0:
256,192,18845,1,8,0:0:0:0:
256,192,18883,1,0,0:0:0:0:
256,192,18920,1,0,0:0:0:0:
256,192,18958,1,8,0:0:0:0:
256,192,18995,1,0,0:0:0:0:
256,192,19033,1,8,0:0:0:0:
256,192,19070,1,0,0:0:0:0:
256,192,19145,1,0,0:0:0:0:
256,192,19170,1,8,0:0:0:0:
256,192,19195,1,8,0:0:0:0:
256,192,19220,1,8,0:0:0:0:
256,192,19295,1,0,0:0:0:0:
256,192,19320,1,8,0:0:0:0:
256,192,19345,1,8,0:0:0:0:
256,192,19370,1,8,0:0:0:0:
256,192,19445,1,0,0:0:0:0:
256,192,19470,1,0,0:0:0:0:
256,192,19495,1,0,0:0:0:0:
256,192,19520,1,0,0:0:0:0:
256,192,19595,1,8,0:0:0:0:
256,192,19620,1,8,0:0:0:0:
256,192,19645,1,8,0:0:0:0:
256,192,19670,1,0,0:0:0:0:
256,192,19745,1,0,0:0:0:0:
256,192,19783,1,0,0:0:0:0:
256,192,19820,1,0,0:0:0:0:
256,192,19895,1,0,0:0:0:0:
256,192,19970,1,0,0:0:0:0:
256,192,20045,1,8,0:0:0:0:
256,192,20083,1,8,0:0:0:0:
256,192,20120,1,8,0:0:0:0:
256,192,20158,1,8,0:0:0:0:
256,192,20195,1,0,0:0:0:0:
256,192,20270,1,8,0:0:0:0:
256,192,20345,5,8,0:0:0:0:
256,192,20383,1,8,0:0:0:0:
256,192,20420,1,8,0:0:0:0:
256,192,20458,1,8,0:0:0:0:
256,192,20495,1,8,0:0:0:0:
256,192,20533,1,8,0:0:0:0:
256,192,20570,1,0,0:0:0:0:
256,192,20645,1,8,0:0:0:0:
256,192,20720,1,0,0:0:0:0:
256,192,20795,1,0,0:0:0:0:
256,192,20833,1,0,0:0:0:0:
256,192,20870,1,8,0:0:0:0:
256,192,20908,1,0,0:0:0:0:
256,192,20945,1,8,0:0:0:0:
256,192,20983,1,8,0:0:0:0:
256,192,21020,1,8,0:0:0:0:
256,192,21058,1,8,0:0:0:0:
256,192,21095,1,8,0:0:0:0:
256,192,21133,1,8,0:0:0:0:
256,192,21170,1,0,0:0:0:0:
256,192,21245,1,8,0:0:0:0:
256,192,21320,1,8,0:0:0:0:
256,192,21358,1,8,0:0:0:0:
256,192,21395,1,0,0:0:0:0:
256,192,21433,1,0,0:0:0:0:
256,192,21470,1,8,0:0:0:0:
256,192,21508,1,0,0:0:0:0:
256,192,21545,1,8,0:0:0:0:
256,192,21583,1,8,0:0:0:0:
256,192,21620,1,8,0:0:0:0:
256,192,21658,1,8,0:0:0:0:
256,192,21695,1,0,0:0:0:0:
256,192,21770,1,0,0:0:0:0:
256,192,21845,1,0,0:0:0:0:
256,192,21920,1,8,0:0:0:0:
256,192,21958,1,8,0:0:0:0:
256,192,21995,1,0,0:0:0:0:
256,192,22070,1,0,0:0:0:0:
256,192,22108,1,0,0:0:0:0:
256,192,22145,1,8,0:0:0:0:
256,192,22183,1,8,0:0:0:0:
256,192,22220,1,8,0:0:0:0:
256,192,22258,1,8,0:0:0:0:
256,192,22295,1,8,0:0:0:0:
256,192,22333,1,8,0:0:0:0:
256,192,22370,1,8,0:0:0:0:
256,192,22408,1,8,0:0:0:0:
256,192,22445,1,0,0:0:0:0:
256,192,22520,1,0,0:0:0:0:
256,192,22558,1,0,0:0:0:0:
256,192,22595,1,8,0:0:0:0:
256,192,22633,1,0,0:0:0:0:
256,192,22670,1,8,0:0:0:0:
256,192,22745,1,8,0:0:0:0:
256,192,22783,1,8,0:0:0:0:
256,192,22820,1,8,0:0:0:0:
256,192,22895,1,8,0:0:0:0:
256,192,22933,1,8,0:0:0:0:
256,192,22970,1,8,0:0:0:0:
256,192,23045,1,8,0:0:0:0:
256,192,23083,1,8,0:0:0:0:
256,192,23120,1,8,0:0:0:0:
256,192,23195,1,8,0:0:0:0:
256,192,23233,1,8,0:0:0:0:
256,192,23270,1,8,0:0:0:0:
256,192,23345,1,8,0:0:0:0:
256,192,23383,1,8,0:0:0:0:
256,192,23420,1,8,0:0:0:0:
256,192,23495,1,8,0:0:0:0:
256,192,23533,1,8,0:0:0:0:
256,192,23570,1,8,0:0:0:0:
256,192,23645,1,8,0:0:0:0:
256,192,23683,1,8,0:0:0:0:
256,192,23720,1,8,0:0:0:0:
256,192,23758,1,8,0:0:0:0:
256,192,23795,1,0,0:0:0:0:
256,192,23833,1,0,0:0:0:0:
256,192,23870,1,0,0:0:0:0:
256,192,23908,1,0,0:0:0:0:
256,192,23945,1,8,0:0:0:0:
256,192,23995,1,8,0:0:0:0:
256,192,24045,1,0,0:0:0:0:
256,192,24095,1,8,0:0:0:0:
256,192,24133,1,0,0:0:0:0:
256,192,24170,1,0,0:0:0:0:
256,192,24208,1,0,0:0:0:0:
256,192,24245,1,8,0:0:0:0:
256,192,24320,1,0,0:0:0:0:
256,192,24395,1,8,0:0:0:0:
256,192,24470,1,0,0:0:0:0:
256,192,24545,1,0,0:0:0:0:
256,192,24583,1,0,0:0:0:0:
256,192,24620,1,0,0:0:0:0:
256,192,24658,1,0,0:0:0:0:
256,192,24695,1,0,0:0:0:0:
256,192,24770,1,0,0:0:0:0:
256,192,24845,1,8,0:0:0:0:
256,192,24883,1,8,0:0:0:0:
256,192,24920,1,8,0:0:0:0:
256,192,24958,1,8,0:0:0:0:
256,192,24995,1,0,0:0:0:0:
256,192,25070,1,0,0:0:0:0:
256,192,25145,5,8,0:0:0:0:
256,192,25220,1,8,0:0:0:0:
256,192,25258,1,8,0:0:0:0:
256,192,25295,1,8,0:0:0:0:
256,192,25333,1,8,0:0:0:0:
256,192,25370,1,0,0:0:0:0:
256,192,25408,1,8,0:0:0:0:
256,192,25445,1,0,0:0:0:0:
256,192,25520,1,0,0:0:0:0:
256,192,25595,1,8,0:0:0:0:
256,192,25670,1,8,0:0:0:0:
256,192,25708,1,8,0:0:0:0:
256,192,25745,1,0,0:0:0:0:
256,192,25783,1,8,0:0:0:0:
256,192,25820,1,8,0:0:0:0:
256,192,25858,1,8,0:0:0:0:
256,192,25895,1,0,0:0:0:0:
256,192,25970,1,0,0:0:0:0:
256,192,26045,1,0,0:0:0:0:
256,192,26083,1,0,0:0:0:0:
256,192,26120,1,8,0:0:0:0:
256,192,26195,1,0,0:0:0:0:
256,192,26270,1,0,0:0:0:0:
256,192,26345,1,8,0:0:0:0:
256,192,26383,1,8,0:0:0:0:
256,192,26420,1,0,0:0:0:0:
256,192,26458,1,8,0:0:0:0:
256,192,26495,1,8,0:0:0:0:
256,192,26533,1,8,0:0:0:0:
256,192,26570,1,0,0:0:0:0:
256,192,26645,1,0,0:0:0:0:
256,192,26683,1,0,0:0:0:0:
256,192,26720,1,0,0:0:0:0:
256,192,26758,1,0,0:0:0:0:
256,192,26795,1,8,0:0:0:0:
256,192,26833,1,8,0:0:0:0:
256,192,26870,1,0,0:0:0:0:
256,192,26908,1,0,0:0:0:0:
256,192,26945,1,8,0:0:0:0:
256,192,26983,1,8,0:0:0:0:
256,192,27020,1,8,0:0:0:0:
256,192,27058,1,8,0:0:0:0:
256,192,27095,1,0,0:0:0:0:
256,192,27170,1,0,0:0:0:0:
256,192,27245,1,0,0:0:0:0:
256,192,27283,1,0,0:0:0:0:
256,192,27320,1,8,0:0:0:0:
256,192,27358,1,8,0:0:0:0:
256,192,27395,1,0,0:0:0:0:
256,192,27470,1,0,0:0:0:0:
256,192,27545,1,8,0:0:0:0:
256,192,27583,1,8,0:0:0:0:
256,192,27620,1,8,0:0:0:0:
256,192,27658,1,0,0:0:0:0:
256,192,27695,1,8,0:0:0:0:
256,192,27733,1,8,0:0:0:0:
256,192,27770,1,8,0:0:0:0:
256,192,27845,1,8,0:0:0:0:
256,192,27883,1,8,0:0:0:0:
256,192,27920,1,8,0:0:0:0:
256,192,27995,1,8,0:0:0:0:
256,192,28033,1,8,0:0:0:0:
256,192,28070,1,8,0:0:0:0:
256,192,28145,1,8,0:0:0:0:
256,192,28183,1,8,0:0:0:0:
256,192,28220,1,8,0:0:0:0:
256,192,28295,1,8,0:0:0:0:
256,192,28333,1,8,0:0:0:0:
256,192,28370,1,8,0:0:0:0:
256,192,28445,1,8,0:0:0:0:
256,192,28483,1,8,0:0:0:0:
256,192,28520,1,8,0:0:0:0:
256,192,28595,1,8,0:0:0:0:
256,192,28633,1,8,0:0:0:0:
256,192,28670,1,8,0:0:0:0:
256,192,28708,1,8,0:0:0:0:
256,192,28745,1,0,0:0:0:0:
256,192,28783,1,8,0:0:0:0:
256,192,28820,1,8,0:0:0:0:
256,192,28858,1,8,0:0:0:0:
256,192,28895,1,0,0:0:0:0:
256,192,28970,1,0,0:0:0:0:
256,192,29045,1,8,0:0:0:0:
256,192,29083,1,8,0:0:0:0:
256,192,29120,1,0,0:0:0:0:
256,192,29158,1,0,0:0:0:0:
256,192,29195,1,8,0:0:0:0:
256,192,29270,1,8,0:0:0:0:
256,192,29345,1,0,0:0:0:0:
256,192,29383,1,0,0:0:0:0:
256,192,29420,1,0,0:0:0:0:
256,192,29458,1,0,0:0:0:0:
256,192,29495,1,8,0:0:0:0:
256,192,29533,1,0,0:0:0:0:
256,192,29570,1,8,0:0:0:0:
256,192,29645,1,8,0:0:0:0:
256,192,29683,1,8,0:0:0:0:
256,192,29720,1,0,0:0:0:0:
256,192,29758,1,8,0:0:0:0:
256,192,29795,1,0,0:0:0:0:
256,192,29833,1,8,0:0:0:0:
256,192,29870,1,8,0:0:0:0:
256,192,29945,5,8,0:0:0:0:
256,192,29983,1,8,0:0:0:0:
256,192,30020,1,8,0:0:0:0:
256,192,30095,1,0,0:0:0:0:
256,192,30170,1,0,0:0:0:0:
256,192,30245,1,8,0:0:0:0:
256,192,30320,1,8,0:0:0:0:
256,192,30395,1,0,0:0:0:0:
256,192,30433,1,0,0:0:0:0:
256,192,30470,1,8,0:0:0:0:
256,192,30508,1,8,0:0:0:0:
256,192,30545,1,0,0:0:0:0:
256,192,30620,1,8,0:0:0:0:
256,192,30695,1,0,0:0:0:0:
256,192,30770,1,8,0:0:0:0:
256,192,30845,1,8,0:0:0:0:
256,192,30883,1,8,0:0:0:0:
256,192,30920,1,8,0:0:0:0:
256,192,30958,1,8,0:0:0:0:
256,192,30995,1,0,0:0:0:0:
256,192,31070,1,0,0:0:0:0:
256,192,31108,1,8,0:0:0:0:
256,192,31145,1,8,0:0:0:0:
256,192,31183,1,8,0:0:0:0:
256,192,31220,1,0,0:0:0:0:
256,192,31258,1,0,0:0:0:0:
256,192,31295,1,8,0:0:0:0:
256,192,31333,1,8,0:0:0:0:
256,192,31370,1,0,0:0:0:0:
256,192,31445,1,0,0:0:0:0:
256,192,31483,1,0,0:0:0:0:
256,192,31520,1,8,0:0:0:0:
256,192,31558,1,0,0:0:0:0:
256,192,31595,1,8,0:0:0:0:
256,192,31633,1,8,0:0:0:0:
256,192,31670,1,0,0:0:0:0:
256,192,31708,1,8,0:0:0:0:
256,192,31745,1,8,0:0:0:0:
256,192,31783,1,0,0:0:0:0:
256,192,31820,1,8,0:0:0:0:
256,192,31858,1,0,0:0:0:0:
256,192,31895,1,0,0:0:0:0:
256,192,31970,1,0,0:0:0:0:
256,192,32045,1,8,0:0:0:0:
256,192,32083,1,0,0:0:0:0:
256,192,32120,1,0,0:0:0:0:
256,192,32158,1,0,0:0:0:0:
256,192,32195,1,8,0:0:0:0:
256,192,32233,1,8,0:0:0:0:
256,192,32270,1,0,0:0:0:0:
256,192,32345,1,8,0:0:0:0:
256,192,32420,1,8,0:0:0:0:
256,192,32495,1,8,0:0:0:0:
256,192,32533,1,8,0:0:0:0:
256,192,32570,1,8,0:0:0:0:
256,192,32645,1,8,0:0:0:0:
256,192,32683,1,8,0:0:0:0:
256,192,32720,1,8,0:0:0:0:
256,192,32795,1,8,0:0:0:0:
256,192,32833,1,8,0:0:0:0:
256,192,32870,1,8,0:0:0:0:
256,192,32945,1,8,0:0:0:0:
256,192,32983,1,8,0:0:0:0:
256,192,33020,1,8,0:0:0:0:
256,192,33095,1,8,0:0:0:0:
256,192,33133,1,8,0:0:0:0:
256,192,33170,1,8,0:0:0:0:
256,192,33245,1,8,0:0:0:0:
256,192,33283,1,8,0:0:0:0:
256,192,33320,1,8,0:0:0:0:
256,192,33358,1,8,0:0:0:0:
256,192,33395,1,0,0:0:0:0:
256,192,33470,1,8,0:0:0:0:
256,192,33508,1,8,0:0:0:0:
256,192,33545,1,8,0:0:0:0:
256,192,33583,1,0,0:0:0:0:
256,192,33620,1,0,0:0:0:0:
256,192,33658,1,0,0:0:0:0:
256,192,33695,1,8,0:0:0:0:
256,192,33733,1,0,0:0:0:0:
256,192,33770,1,8,0:0:0:0:
256,192,33845,1,0,0:0:0:0:
256,192,33883,1,0,0:0:0:0:
256,192,33920,1,0,0:0:0:0:
256,192,33958,1,0,0:0:0:0:
256,192,33995,1,8,0:0:0:0:
256,192,34033,1,8,0:0:0:0:
256,192,34070,1,0,0:0:0:0:
256,192,34145,1,0,0:0:0:0:
256,192,34183,1,0,0:0:0:0:
256,192,34220,1,0,0:0:0:0:
256,192,34258,1,0,0:0:0:0:
256,192,34295,1,8,0:0:0:0:
256,192,34370,1,0,0:0:0:0:
256,192,34445,1,8,0:0:0:0:
256,192,34483,1,8,0:0:0:0:
256,192,34520,1,8,0:0:0:0:
256,192,34558,1,8,0:0:0:0:
256,192,34595,1,0,0:0:0:0:
256,192,34670,1,8,0:0:0:0:
256,192,34745,5,8,0:0:0:0:
256,192,34783,1,8,0:0:0:0:
256,192,34820,1,0,0:0:0:0:
256,192,34858,1,8,0:0:0:0:
256,192,34895,1,0,0:0:0:0:
256,192,34933,1,0,0:0:0:0:
256,192,34970,1,8,0:0:0:0:
256,192,35008,1,0,0:0:0:0:
256,192,35045,1,8,0:0:0:0:
256,192,35120,1,0,0:0:0:0:
256,192,35195,1,8,0:0:0:0:
256,192,35233,1,0,0:0:0:0:
256,192,35270,1,8,0:0:0:0:
256,192,35308,1,8,0:0:0:0:
256,192,35345,1,0,0:0:0:0:
256,192,35383,1,8,0:0:0:0:
256,192,35420,1,0,0:0:0:0:
256,192,35458,1,0,0:0:0:0:
256,192,35495,1,8,0:0:0:0:
256,192,35533,1,0,0:0:0:0:
256,192,35570,1,8,0:0:0:0:
256,192,35645,1,0,0:0:0:0:
256,192,35683,1,0,0:0:0:0:
256,192,35720,1,0,0:0:0:0:
256,192,35795,1,8,0:0:0:0:
256,192,35833,1,0,0:0:0:0:
256,192,35870,1,8,0:0:0:0:
256,192,35908,1,8,0:0:0:0:
256,192,35945,1,0,0:0:0:0:
256,192,35983,1,0,0:0:0:0:
256,192,36020,1,8,0:0:0:0:
256,192,36058,1,0,0:0:0:0:
256,192,36095,1,8,0:0:0:0:
256,192,36133,1,0,0:0:0:0:
256,192,36170,1,8,0:0:0:0:
256,192,36245,1,0,0:0:0:0:
256,192,36283,1,0,0:0:0:0:
256,192,36320,1,0,0:0:0:0:
256,192,36358,1,0,0:0:0:0:
256,192,36395,1,8,0:0:0:0:
256,192,36420,1,8,0:0:0:0:
256,192,36445,1,8,0:0:0:0:
256,192,36470,1,0,0:0:0:0:
256,192,36545,1,8,0:0:0:0:
256,192,36583,1,0,0:0:0:0:
256,192,36620,1,0,0:0:0:0:
256,192,36695,1,8,0:0:0:0:
256,192,36733,1,0,0:0:0:0:
256,192,36770,1,0,0:0:0:0:
256,192,36845,1,8,0:0:0:0:
256,192,36883,1,0,0:0:0:0:
256,192,36920,1,0,0:0:0:0:
256,192,36995,1,8,0:0:0:0:
256,192,37033,1,8,0:0:0:0:
256,192,37070,1,8,0:0:0:0:
256,192,37108,1,8,0:0:0:0:
256,192,37145,1,8,0:0:0:0:
256,192,37295,1,8,0:0:0:0:
256,192,37445,1,8,0:0:0:0:
256,192,37595,1,8,0:0:0:0:
256,192,37745,1,8,0:0:0:0:
256,192,37895,1,8,0:0:0:0:
256,192,37970,1,8,0:0:0:0:
256,192,38045,1,8,0:0:0:0:
256,192,38120,1,8,0:0:0:0:
256,192,38195,1,8,0:0:0:0:
256,192,38270,1,8,0:0:0:0:
256,192,38345,1,8,0:0:0:0:
256,192,38420,1,8,0:0:0:0:
256,192,38495,1,8,0:0:0:0:
256,192,38570,1,8,0:0:0:0:
256,192,38645,1,8,0:0:0:0:
256,192,38720,1,8,0:0:0:0:
256,192,38795,1,8,0:0:0:0:
256,192,38870,1,8,0:0:0:0:
256,192,38945,1,8,0:0:0:0:
256,192,39020,1,8,0:0:0:0:
256,192,39095,1,8,0:0:0:0:
256,192,39170,1,8,0:0:0:0:
256,192,39245,1,8,0:0:0:0:
256,192,39295,1,8,0:0:0:0:
256,192,39345,1,8,0:0:0:0:
256,192,39395,1,8,0:0:0:0:
256,192,39445,1,8,0:0:0:0:
256,192,39495,1,8,0:0:0:0:
256,192,39545,5,0,0:0:0:0:
256,192,39695,1,8,0:0:0:0:
256,192,39845,1,0,0:0:0:0:
256,192,39995,1,0,0:0:0:0:
256,192,40145,1,8,0:0:0:0:
256,192,40295,1,0,0:0:0:0:
256,192,40445,1,0,0:0:0:0:
256,192,40595,1,8,0:0:0:0:
256,192,40745,1,0,0:0:0:0:
256,192,40895,1,8,0:0:0:0:
256,192,41045,1,0,0:0:0:0:
256,192,41195,1,0,0:0:0:0:
256,192,41345,1,8,0:0:0:0:
256,192,41495,1,0,0:0:0:0:
256,192,41645,1,0,0:0:0:0:
256,192,41795,1,8,0:0:0:0:
256,192,41945,1,0,0:0:0:0:
256,192,42095,1,8,0:0:0:0:
256,192,42245,1,0,0:0:0:0:
256,192,42395,1,0,0:0:0:0:
256,192,42545,1,8,0:0:0:0:
256,192,42695,1,0,0:0:0:0:
256,192,42845,1,0,0:0:0:0:
256,192,42995,1,8,0:0:0:0:
256,192,43145,1,0,0:0:0:0:
256,192,43295,1,8,0:0:0:0:
256,192,43445,1,0,0:0:0:0:
256,192,43595,1,0,0:0:0:0:
256,192,43745,1,8,0:0:0:0:
256,192,43895,1,0,0:0:0:0:
256,192,44045,1,0,0:0:0:0:
256,192,44195,1,8,0:0:0:0:
256,192,44345,1,0,0:0:0:0:
256,192,44495,1,8,0:0:0:0:
256,192,44645,1,0,0:0:0:0:
256,192,44795,1,0,0:0:0:0:
256,192,44945,1,8,0:0:0:0:
256,192,45095,1,0,0:0:0:0:
256,192,45245,1,0,0:0:0:0:
256,192,45395,1,8,0:0:0:0:
256,192,45545,1,0,0:0:0:0:
256,192,45695,1,8,0:0:0:0:
256,192,45845,1,0,0:0:0:0:
256,192,45995,1,0,0:0:0:0:
256,192,46145,1,8,0:0:0:0:
256,192,46295,1,0,0:0:0:0:
256,192,46445,1,0,0:0:0:0:
256,192,46595,1,8,0:0:0:0:
256,192,46745,1,0,0:0:0:0:
256,192,46895,1,8,0:0:0:0:
256,192,47045,1,0,0:0:0:0:
256,192,47195,1,0,0:0:0:0:
256,192,47345,1,8,0:0:0:0:
256,192,47495,1,0,0:0:0:0:
256,192,47645,1,0,0:0:0:0:
256,192,47795,1,8,0:0:0:0:
256,192,47945,1,0,0:0:0:0:
256,192,48095,1,8,0:0:0:0:
256,192,48245,1,0,0:0:0:0:
256,192,48395,1,0,0:0:0:0:
256,192,48545,1,8,0:0:0:0:
256,192,48695,1,0,0:0:0:0:
256,192,48845,1,0,0:0:0:0:
256,192,48995,1,8,0:0:0:0:
256,192,49145,5,0,0:0:0:0:
256,192,49295,1,8,0:0:0:0:
256,192,49445,1,8,0:0:0:0:
256,192,49595,1,8,0:0:0:0:
256,192,49895,1,0,0:0:0:0:
256,192,50195,1,8,0:0:0:0:
256,192,50495,1,0,0:0:0:0:
256,192,50645,1,8,0:0:0:0:
256,192,50795,1,8,0:0:0:0:
256,192,51245,1,0,0:0:0:0:
256,192,51395,1,8,0:0:0:0:
256,192,51695,1,0,0:0:0:0:
256,192,51995,1,8,0:0:0:0:
256,192,52295,1,0,0:0:0:0:
256,192,52595,1,0,0:0:0:0:
256,192,52895,1,8,0:0:0:0:
256,192,53195,1,0,0:0:0:0:
256,192,53945,5,0,0:0:0:0:
256,192,54095,1,8,0:0:0:0:
256,192,54245,1,8,0:0:0:0:
256,192,54395,1,8,0:0:0:0:
256,192,54695,1,0,0:0:0:0:
256,192,54995,1,8,0:0:0:0:
256,192,55295,1,0,0:0:0:0:
256,192,55445,1,8,0:0:0:0:
256,192,55595,1,8,0:0:0:0:
256,192,56045,1,0,0:0:0:0:
256,192,56195,1,8,0:0:0:0:
256,192,56345,1,8,0:0:0:0:
256,192,56645,1,8,0:0:0:0:
256,192,56795,1,0,0:0:0:0:
256,192,57095,1,8,0:0:0:0:
256,192,57395,1,0,0:0:0:0:
256,192,58145,1,0,0:0:0:0:
256,192,58445,1,8,0:0:0:0:
256,192,58595,1,0,0:0:0:0:
256,192,58670,1,0,0:0:0:0:
256,192,58745,5,8,0:0:0:0:
256,192,58895,1,0,0:0:0:0:
256,192,59045,1,8,0:0:0:0:
256,192,59195,1,0,0:0:0:0:
256,192,59345,1,8,0:0:0:0:
256,192,59420,1,8,0:0:0:0:
256,192,59495,1,0,0:0:0:0:
256,192,59645,1,8,0:0:0:0:
256,192,59795,1,0,0:0:0:0:
256,192,59945,1,8,0:0:0:0:
256,192,60095,1,0,0:0:0:0:
256,192,60245,1,8,0:0:0:0:
256,192,60395,1,0,0:0:0:0:
256,192,60545,1,8,0:0:0:0:
256,192,60620,1,0,0:0:0:0:
256,192,60695,1,0,0:0:0:0:
256,192,60845,1,8,0:0:0:0:
256,192,60995,1,0,0:0:0:0:
256,192,61145,1,8,0:0:0:0:
256,192,61295,1,0,0:0:0:0:
256,192,61445,1,8,0:0:0:0:
256,192,61595,1,0,0:0:0:0:
256,192,61745,1,8,0:0:0:0:
256,192,61820,1,8,0:0:0:0:
256,192,61895,1,0,0:0:0:0:
256,192,62045,1,8,0:0:0:0:
256,192,62195,1,0,0:0:0:0:
256,192,62345,1,8,0:0:0:0:
256,192,62495,1,0,0:0:0:0:
256,192,62645,1,8,0:0:0:0:
256,192,62795,1,0,0:0:0:0:
256,192,62945,1,8,0:0:0:0:
256,192,63020,1,0,0:0:0:0:
256,192,63095,1,0,0:0:0:0:
256,192,63245,1,8,0:0:0:0:
256,192,63395,1,0,0:0:0:0:
256,192,63545,1,8,0:0:0:0:
256,192,63695,1,0,0:0:0:0:
256,192,63845,1,8,0:0:0:0:
256,192,63995,1,0,0:0:0:0:
256,192,64145,1,8,0:0:0:0:
256,192,64220,1,8,0:0:0:0:
256,192,64295,1,0,0:0:0:0:
256,192,64445,1,8,0:0:0:0:
256,192,64595,1,0,0:0:0:0:
256,192,64745,1,8,0:0:0:0:
256,192,64895,1,0,0:0:0:0:
256,192,65045,1,8,0:0:0:0:
256,192,65195,1,0,0:0:0:0:
256,192,65345,1,8,0:0:0:0:
256,192,65420,1,0,0:0:0:0:
256,192,65495,1,0,0:0:0:0:
256,192,65645,1,8,0:0:0:0:
256,192,65795,1,0,0:0:0:0:
256,192,65945,1,8,0:0:0:0:
256,192,66020,1,8,0:0:0:0:
256,192,66095,1,0,0:0:0:0:
256,192,66245,1,8,0:0:0:0:
256,192,66395,1,0,0:0:0:0:
256,192,66470,1,0,0:0:0:0:
256,192,66545,1,8,0:0:0:0:
256,192,66695,1,0,0:0:0:0:
256,192,66845,1,8,0:0:0:0:
256,192,66995,1,0,0:0:0:0:
256,192,67070,1,0,0:0:0:0:
256,192,67145,1,0,0:0:0:0:
256,192,67295,1,8,0:0:0:0:
256,192,67745,1,0,0:0:0:0:
256,192,68045,1,8,0:0:0:0:
256,192,68195,1,0,0:0:0:0:
256,192,68345,5,4,0:0:0:0:
256,192,68495,1,0,0:0:0:0:
256,192,68645,1,0,0:0:0:0:
256,192,68795,1,0,0:0:0:0:
256,192,68945,1,8,0:0:0:0:
256,192,69095,1,0,0:0:0:0:
256,192,69245,1,8,0:0:0:0:
256,192,69395,1,0,0:0:0:0:
256,192,69545,1,8,0:0:0:0:
256,192,69695,1,0,0:0:0:0:
256,192,69845,1,8,0:0:0:0:
256,192,69995,1,0,0:0:0:0:
256,192,70145,1,8,0:0:0:0:
256,192,70295,1,0,0:0:0:0:
256,192,70445,1,0,0:0:0:0:
256,192,70595,1,0,0:0:0:0:
256,192,70745,1,8,0:0:0:0:
256,192,70895,1,0,0:0:0:0:
256,192,71045,1,8,0:0:0:0:
256,192,71195,1,0,0:0:0:0:
256,192,71345,1,8,0:0:0:0:
256,192,71495,1,0,0:0:0:0:
256,192,71645,1,8,0:0:0:0:
256,192,71795,1,0,0:0:0:0:
256,192,71945,1,8,0:0:0:0:
256,192,72095,1,0,0:0:0:0:
256,192,72245,1,8,0:0:0:0:
256,192,72395,1,0,0:0:0:0:
256,192,72545,1,8,0:0:0:0:
256,192,72695,1,0,0:0:0:0:
256,192,72845,1,8,0:0:0:0:
256,192,72995,1,0,0:0:0:0:
256,192,73145,5,0,0:0:0:0:
256,192,73295,1,0,0:0:0:0:
256,192,73445,1,8,0:0:0:0:
256,192,73595,1,0,0:0:0:0:
256,192,73745,1,8,0:0:0:0:
256,192,73895,1,0,0:0:0:0:
256,192,74045,1,0,0:0:0:0:
256,192,74195,1,8,0:0:0:0:
256,192,74345,1,8,0:0:0:0:
256,192,74495,1,0,0:0:0:0:
256,192,74645,1,8,0:0:0:0:
256,192,74795,1,0,0:0:0:0:
256,192,74945,1,8,0:0:0:0:
256,192,75095,1,0,0:0:0:0:
256,192,75245,1,8,0:0:0:0:
256,192,75395,1,0,0:0:0:0:
256,192,75545,1,8,0:0:0:0:
256,192,75695,1,0,0:0:0:0:
256,192,75845,1,8,0:0:0:0:
256,192,75995,1,0,0:0:0:0:
256,192,76145,1,8,0:0:0:0:
256,192,76295,1,0,0:0:0:0:
256,192,76445,1,8,0:0:0:0:
256,192,76595,1,0,0:0:0:0:
256,192,76745,1,8,0:0:0:0:
256,192,76895,1,0,0:0:0:0:
256,192,77045,1,8,0:0:0:0:
256,192,77195,1,0,0:0:0:0:
256,192,77345,1,0,0:0:0:0:
256,192,77495,1,0,0:0:0:0:
256,192,77645,1,8,0:0:0:0:
256,192,77795,1,4,0:0:0:0:
256,192,77945,5,4,0:0:0:0:
256,192,78095,1,0,0:0:0:0:
256,192,78245,1,8,0:0:0:0:
256,192,78395,1,4,0:0:0:0:
256,192,78545,1,4,0:0:0:0:
256,192,78695,1,0,0:0:0:0:
256,192,78845,1,8,0:0:0:0:
256,192,78995,1,4,0:0:0:0:
256,192,79145,1,4,0:0:0:0:
256,192,79295,1,0,0:0:0:0:
256,192,79370,1,0,0:0:0:0:
256,192,79445,1,8,0:0:0:0:
256,192,79595,1,4,0:0:0:0:
256,192,79745,1,4,0:0:0:0:
256,192,79895,1,0,0:0:0:0:
256,192,79970,1,0,0:0:0:0:
256,192,80045,1,8,0:0:0:0:
256,192,80195,1,4,0:0:0:0:
256,192,80345,1,4,0:0:0:0:
256,192,80495,1,0,0:0:0:0:
256,192,80645,1,8,0:0:0:0:
256,192,80795,1,4,0:0:0:0:
256,192,80945,1,4,0:0:0:0:
256,192,81095,1,0,0:0:0:0:
256,192,81245,1,8,0:0:0:0:
256,192,81395,1,4,0:0:0:0:
256,192,81545,1,4,0:0:0:0:
256,192,81695,1,0,0:0:0:0:
256,192,81770,1,0,0:0:0:0:
256,192,81845,1,8,0:0:0:0:
256,192,81995,1,4,0:0:0:0:
256,192,82145,1,4,0:0:0:0:
256,192,82295,1,0,0:0:0:0:
256,192,82370,1,0,0:0:0:0:
256,192,82445,1,8,0:0:0:0:
256,192,82595,1,4,0:0:0:0:
256,192,82745,5,12,0:0:0:0:
256,192,82895,1,8,0:0:0:0:
256,192,82933,1,8,0:0:0:0:
256,192,83045,1,8,0:0:0:0:
256,192,83083,1,8,0:0:0:0:
256,192,83195,1,8,0:0:0:0:
256,192,83233,1,8,0:0:0:0:
256,192,83345,1,8,0:0:0:0:
256,192,83383,1,8,0:0:0:0:
256,192,83495,1,8,0:0:0:0:
256,192,83533,1,8,0:0:0:0:
256,192,83645,1,8,0:0:0:0:
256,192,83683,1,8,0:0:0:0:
256,192,83795,1,8,0:0:0:0:
256,192,83833,1,8,0:0:0:0:
256,192,83945,1,12,0:0:0:0:
256,192,84095,1,8,0:0:0:0:
256,192,84133,1,8,0:0:0:0:
256,192,84245,1,8,0:0:0:0:
256,192,84283,1,8,0:0:0:0:
256,192,84395,1,8,0:0:0:0:
256,192,84433,1,8,0:0:0:0:
256,192,84545,1,8,0:0:0:0:
256,192,84583,1,8,0:0:0:0:
256,192,84695,1,8,0:0:0:0:
256,192,84733,1,8,0:0:0:0:
256,192,84845,1,8,0:0:0:0:
256,192,84883,1,8,0:0:0:0:
256,192,84995,1,8,0:0:0:0:
256,192,85033,1,8,0:0:0:0:
256,192,85145,1,8,0:0:0:0:
256,192,85183,1,8,0:0:0:0:
256,192,85220,1,8,0:0:0:0:
256,192,85258,1,8,0:0:0:0:
256,192,85295,1,0,0:0:0:0:
256,192,85370,1,0,0:0:0:0:
256,192,85445,1,8,0:0:0:0:
256,192,85483,1,8,0:0:0:0:
256,192,85520,1,8,0:0:0:0:
256,192,85558,1,8,0:0:0:0:
256,192,85595,1,0,0:0:0:0:
256,192,85670,1,0,0:0:0:0:
256,192,85745,1,8,0:0:0:0:
256,192,85783,1,8,0:0:0:0:
256,192,85820,1,8,0:0:0:0:
256,192,85858,1,8,0:0:0:0:
256,192,85895,1,0,0:0:0:0:
256,192,85970,1,0,0:0:0:0:
256,192,86045,1,8,0:0:0:0:
256,192,86083,1,8,0:0:0:0:
256,192,86120,1,8,0:0:0:0:
256,192,86158,1,8,0:0:0:0:
256,192,86195,1,0,0:0:0:0:
256,192,86270,1,0,0:0:0:0:
256,192,86345,1,8,0:0:0:0:
256,192,86420,1,8,0:0:0:0:
256,192,86495,1,0,0:0:0:0:
256,192,86570,1,0,0:0:0:0:
256,192,86645,1,8,0:0:0:0:
256,192,86720,1,8,0:0:0:0:
256,192,86795,1,0,0:0:0:0:
256,192,86870,1,0,0:0:0:0:
256,192,86945,1,8,0:0:0:0:
256,192,87020,1,8,0:0:0:0:
256,192,87095,1,0,0:0:0:0:
256,192,87170,1,0,0:0:0:0:
256,192,87245,1,8,0:0:0:0:
256,192,87320,1,8,0:0:0:0:
256,192,87395,1,0,0:0:0:0:
256,192,87470,1,0,0:0:0:0:
256,192,87545,5,8,0:0:0:0:
256,192,87583,1,8,0:0:0:0:
256,192,87620,1,8,0:0:0:0:
256,192,87658,1,8,0:0:0:0:
256,192,87695,1,8,0:0:0:0:
256,192,87733,1,8,0:0:0:0:
256,192,87770,1,8,0:0:0:0:
256,192,87808,1,8,0:0:0:0:
256,192,87845,1,8,0:0:0:0:
256,192,87883,1,8,0:0:0:0:
256,192,87920,1,8,0:0:0:0:
256,192,87958,1,8,0:0:0:0:
256,192,87995,1,8,0:0:0:0:
256,192,88033,1,8,0:0:0:0:
256,192,88070,1,8,0:0:0:0:
256,192,88108,1,8,0:0:0:0:
256,192,88145,1,8,0:0:0:0:
256,192,88183,1,8,0:0:0:0:
256,192,88220,1,8,0:0:0:0:
256,192,88258,1,8,0:0:0:0:
256,192,88295,1,8,0:0:0:0:
256,192,88333,1,8,0:0:0:0:
256,192,88370,1,8,0:0:0:0:
256,192,88408,1,8,0:0:0:0:
256,192,88445,1,8,0:0:0:0:
256,192,88470,1,8,0:0:0:0:
256,192,88495,1,8,0:0:0:0:
256,192,88520,1,8,0:0:0:0:
256,192,88545,1,8,0:0:0:0:
256,192,88570,1,8,0:0:0:0:
256,192,88595,1,8,0:0:0:0:
256,192,88620,1,8,0:0:0:0:
256,192,88645,1,8,0:0:0:0:
256,192,88670,1,8,0:0:0:0:
256,192,88695,1,8,0:0:0:0:
256,192,88720,1,8,0:0:0:0:
256,192,88745,1,8,0:0:0:0:
256,192,88770,1,8,0:0:0:0:
256,192,88795,1,8,0:0:0:0:
256,192,88820,1,8,0:0:0:0:
256,192,88845,1,8,0:0:0:0:
256,192,88870,1,8,0:0:0:0:
256,192,88895,1,8,0:0:0:0:
256,192,88920,1,8,0:0:0:0:
256,192,88945,1,8,0:0:0:0:
256,192,88970,1,8,0:0:0:0:
256,192,88995,1,8,0:0:0:0:
256,192,89020,1,8,0:0:0:0:
256,192,89045,1,8,0:0:0:0:
256,192,89070,1,8,0:0:0:0:
256,192,89095,1,8,0:0:0:0:
256,192,89120,1,8,0:0:0:0:
256,192,89145,1,8,0:0:0:0:
256,192,89170,1,8,0:0:0:0:
256,192,89195,1,8,0:0:0:0:
256,192,89220,1,8,0:0:0:0:
256,192,89245,1,8,0:0:0:0:
256,192,89270,1,8,0:0:0:0:
256,192,89295,1,8,0:0:0:0:
256,192,89320,1,8,0:0:0:0:
256,192,89345,1,8,0:0:0:0:
256,192,89383,1,8,0:0:0:0:
256,192,89495,1,8,0:0:0:0:
256,192,89533,1,8,0:0:0:0:
256,192,89645,1,8,0:0:0:0:
256,192,89683,1,8,0:0:0:0:
256,192,89795,1,8,0:0:0:0:
256,192,89833,1,8,0:0:0:0:
256,192,89945,1,12,0:0:0:0:
256,192,90095,1,0,0:0:0:0:
256,192,90133,1,0,0:0:0:0:
256,192,90170,1,0,0:0:0:0:
256,192,90245,1,12,0:0:0:0:
256,192,90395,1,0,0:0:0:0:
256,192,90433,1,0,0:0:0:0:
256,192,90470,1,0,0:0:0:0:
256,192,90545,1,12,0:0:0:0:
256,192,90620,1,8,0:0:0:0:
256,192,90695,1,4,0:0:0:0:
256,192,90733,1,0,0:0:0:0:
256,192,90770,1,0,0:0:0:0:
256,192,90845,1,12,0:0:0:0:
256,192,90920,1,8,0:0:0:0:
256,192,90995,1,4,0:0:0:0:
256,192,91033,1,0,0:0:0:0:
256,192,91070,1,0,0:0:0:0:
256,192,91145,5,8,0:0:0:0:
256,192,91183,1,8,0:0:0:0:
256,192,91220,1,0,0:0:0:0:
256,192,91258,1,0,0:0:0:0:
256,192,91295,1,0,0:0:0:0:
256,192,91370,1,0,0:0:0:0:
256,192,91445,1,8,0:0:0:0:
256,192,91483,1,8,0:0:0:0:
256,192,91520,1,0,0:0:0:0:
256,192,91558,1,0,0:0:0:0:
256,192,91595,1,0,0:0:0:0:
256,192,91670,1,0,0:0:0:0:
256,192,91745,1,8,0:0:0:0:
256,192,91783,1,8,0:0:0:0:
256,192,91820,1,0,0:0:0:0:
256,192,91858,1,8,0:0:0:0:
256,192,91895,1,8,0:0:0:0:
256,192,91970,1,0,0:0:0:0:
256,192,92045,1,8,0:0:0:0:
256,192,92083,1,8,0:0:0:0:
256,192,92120,1,0,0:0:0:0:
256,192,92158,1,8,0:0:0:0:
256,192,92195,1,8,0:0:0:0:
256,192,92270,1,0,0:0:0:0:
256,192,92345,1,8,0:0:0:0:
256,192,92383,1,8,0:0:0:0:
256,192,92420,1,8,0:0:0:0:
256,192,92458,1,8,0:0:0:0:
256,192,92495,1,0,0:0:0:0:
256,192,92570,1,0,0:0:0:0:
256,192,92645,1,8,0:0:0:0:
256,192,92683,1,8,0:0:0:0:
256,192,92720,1,8,0:0:0:0:
256,192,92758,1,8,0:0:0:0:
256,192,92795,1,0,0:0:0:0:
256,192,92870,1,0,0:0:0:0:
256,192,92945,1,8,0:0:0:0:
256,192,92983,1,8,0:0:0:0:
256,192,93020,1,8,0:0:0:0:
256,192,93058,1,0,0:0:0:0:
256,192,93095,1,0,0:0:0:0:
256,192,93170,1,0,0:0:0:0:
256,192,93245,1,8,0:0:0:0:
256,192,93283,1,8,0:0:0:0:
256,192,93320,1,8,0:0:0:0:
256,192,93358,1,0,0:0:0:0:
256,192,93395,1,0,0:0:0:0:
256,192,93470,1,0,0:0:0:0:
256,192,93545,1,8,0:0:0:0:
256,192,93583,1,0,0:0:0:0:
256,192,93620,1,8,0:0:0:0:
256,192,93658,1,0,0:0:0:0:
256,192,93695,1,0,0:0:0:0:
256,192,93770,1,0,0:0:0:0:
256,192,93845,1,8,0:0:0:0:
256,192,93883,1,0,0:0:0:0:
256,192,93920,1,8,0:0:0:0:
256,192,93958,1,0,0:0:0:0:
256,192,93995,1,0,0:0:0:0:
256,192,94070,1,0,0:0:0:0:
256,192,94145,1,8,0:0:0:0:
256,192,94183,1,8,0:0:0:0:
256,192,94220,1,0,0:0:0:0:
256,192,94258,1,8,0:0:0:0:
256,192,94295,1,0,0:0:0:0:
256,192,94370,1,0,0:0:0:0:
256,192,94445,1,8,0:0:0:0:
256,192,94483,1,8,0:0:0:0:
256,192,94520,1,0,0:0:0:0:
256,192,94558,1,8,0:0:0:0:
256,192,94595,1,0,0:0:0:0:
256,192,94670,1,0,0:0:0:0:
256,192,94745,1,8,0:0:0:0:
256,192,94783,1,8,0:0:0:0:
256,192,94820,1,0,0:0:0:0:
256,192,94858,1,0,0:0:0:0:
256,192,94895,1,8,0:0:0:0:
256,192,94970,1,0,0:0:0:0:
256,192,95045,1,8,0:0:0:0:
256,192,95083,1,8,0:0:0:0:
256,192,95120,1,0,0:0:0:0:
256,192,95158,1,0,0:0:0:0:
256,192,95195,1,8,0:0:0:0:
256,192,95270,1,0,0:0:0:0:
256,192,95345,1,8,0:0:0:0:
256,192,95383,1,0,0:0:0:0:
256,192,95420,1,0,0:0:0:0:
256,192,95458,1,0,0:0:0:0:
256,192,95495,1,8,0:0:0:0:
256,192,95570,1,0,0:0:0:0:
256,192,95645,1,8,0:0:0:0:
256,192,95683,1,0,0:0:0:0:
256,192,95720,1,0,0:0:0:0:
256,192,95758,1,0,0:0:0:0:
256,192,95795,1,8,0:0:0:0:
256,192,95870,1,0,0:0:0:0:
256,192,95945,1,8,0:0:0:0:
256,192,95983,1,8,0:0:0:0:
256,192,96020,1,0,0:0:0:0:
256,192,96058,1,0,0:0:0:0:
256,192,96095,1,0,0:0:0:0:
256,192,96170,1,0,0:0:0:0:
256,192,96245,1,8,0:0:0:0:
256,192,96283,1,8,0:0:0:0:
256,192,96320,1,0,0:0:0:0:
256,192,96358,1,0,0:0:0:0:
256,192,96395,1,0,0:0:0:0:
256,192,96470,1,0,0:0:0:0:
256,192,96545,1,8,0:0:0:0:
256,192,96583,1,8,0:0:0:0:
256,192,96620,1,0,0:0:0:0:
256,192,96658,1,8,0:0:0:0:
256,192,96695,1,8,0:0:0:0:
256,192,96770,1,0,0:0:0:0:
256,192,96845,1,8,0:0:0:0:
256,192,96883,1,8,0:0:0:0:
256,192,96920,1,0,0:0:0:0:
256,192,96958,1,8,0:0:0:0:
256,192,96995,1,8,0:0:0:0:
256,192,97070,1,0,0:0:0:0:
256,192,97145,1,8,0:0:0:0:
256,192,97183,1,8,0:0:0:0:
256,192,97220,1,8,0:0:0:0:
256,192,97258,1,8,0:0:0:0:
256,192,97295,1,0,0:0:0:0:
256,192,97370,1,0,0:0:0:0:
256,192,97445,1,8,0:0:0:0:
256,192,97483,1,8,0:0:0:0:
256,192,97520,1,8,0:0:0:0:
256,192,97558,1,8,0:0:0:0:
256,192,97595,1,0,0:0:0:0:
256,192,97670,1,0,0:0:0:0:
256,192,97745,1,8,0:0:0:0:
256,192,97783,1,8,0:0:0:0:
256,192,97820,1,0,0:0:0:0:
256,192,97858,1,0,0:0:0:0:
256,192,97895,1,0,0:0:0:0:
256,192,97970,1,0,0:0:0:0:
256,192,98045,1,8,0:0:0:0:
256,192,98083,1,8,0:0:0:0:
256,192,98120,1,8,0:0:0:0:
256,192,98158,1,0,0:0:0:0:
256,192,98195,1,0,0:0:0:0:
256,192,98270,1,0,0:0:0:0:
256,192,98345,1,8,0:0:0:0:
256,192,98383,1,8,0:0:0:0:
256,192,98420,1,8,0:0:0:0:
256,192,98458,1,8,0:0:0:0:
256,192,98495,1,0,0:0:0:0:
256,192,98570,1,0,0:0:0:0:
256,192,98645,1,8,0:0:0:0:
256,192,98683,1,8,0:0:0:0:
256,192,98720,1,8,0:0:0:0:
256,192,98758,1,8,0:0:0:0:
256,192,98795,1,0,0:0:0:0:
256,192,98870,1,0,0:0:0:0:
256,192,98945,1,8,0:0:0:0:
256,192,98983,1,8,0:0:0:0:
256,192,99020,1,8,0:0:0:0:
256,192,99058,1,0,0:0:0:0:
256,192,99095,1,0,0:0:0:0:
256,192,99170,1,0,0:0:0:0:
256,192,99245,1,8,0:0:0:0:
256,192,99283,1,8,0:0:0:0:
256,192,99320,1,8,0:0:0:0:
256,192,99358,1,0,0:0:0:0:
256,192,99395,1,0,0:0:0:0:
256,192,99470,1,0,0:0:0:0:
256,192,99545,1,8,0:0:0:0:
256,192,99583,1,8,0:0:0:0:
256,192,99620,1,8,0:0:0:0:
256,192,99658,1,8,0:0:0:0:
256,192,99695,1,0,0:0:0:0:
256,192,99733,1,0,0:0:0:0:
256,192,99770,1,0,0:0:0:0:
256,192,99808,1,0,0:0:0:0:
256,192,99845,1,8,0:0:0:0:
256,192,99883,1,8,0:0:0:0:
256,192,99920,1,8,0:0:0:0:
256,192,99958,1,8,0:0:0:0:
256,192,99995,1,0,0:0:0:0:
256,192,100033,1,0,0:0:0:0:
256,192,100070,1,0,0:0:0:0:
256,192,100108,1,0,0:0:0:0:
256,192,100145,1,0,0:0:0:0:
256,192,100295,1,12,0:0:0:0:
256,192,100445,1,12,0:0:0:0:
256,192,100595,1,12,0:0:0:0:
256,192,100745,5,8,0:0:0:0:
256,192,100783,1,8,0:0:0:0:
256,192,100820,1,8,0:0:0:0:
256,192,100858,1,8,0:0:0:0:
256,192,100895,1,0,0:0:0:0:
256,192,100933,1,0,0:0:0:0:
256,192,100970,1,0,0:0:0:0:
256,192,101008,1,0,0:0:0:0:
256,192,101045,1,8,0:0:0:0:
256,192,101083,1,8,0:0:0:0:
256,192,101120,1,8,0:0:0:0:
256,192,101158,1,8,0:0:0:0:
256,192,101195,1,0,0:0:0:0:
256,192,101345,1,8,0:0:0:0:
256,192,101383,1,8,0:0:0:0:
256,192,101420,1,8,0:0:0:0:
256,192,101458,1,8,0:0:0:0:
256,192,101495,1,0,0:0:0:0:
256,192,101533,1,0,0:0:0:0:
256,192,101570,1,8,0:0:0:0:
256,192,101608,1,8,0:0:0:0:
256,192,101645,1,8,0:0:0:0:
256,192,101683,1,8,0:0:0:0:
256,192,101720,1,8,0:0:0:0:
256,192,101758,1,8,0:0:0:0:
256,192,101795,1,0,0:0:0:0:
256,192,101945,1,8,0:0:0:0:
256,192,101983,1,8,0:0:0:0:
256,192,102020,1,8,0:0:0:0:
256,192,102058,1,8,0:0:0:0:
256,192,102095,1,0,0:0:0:0:
256,192,102133,1,0,0:0:0:0:
256,192,102170,1,0,0:0:0:0:
256,192,102208,1,0,0:0:0:0:
256,192,102245,1,8,0:0:0:0:
256,192,102283,1,8,0:0:0:0:
256,192,102320,1,0,0:0:0:0:
256,192,102358,1,8,0:0:0:0:
256,192,102395,1,0,0:0:0:0:
256,192,102545,1,8,0:0:0:0:
256,192,102583,1,0,0:0:0:0:
256,192,102620,1,0,0:0:0:0:
256,192,102658,1,0,0:0:0:0:
256,192,102695,1,8,0:0:0:0:
256,192,102733,1,0,0:0:0:0:
256,192,102770,1,0,0:0:0:0:
256,192,102808,1,0,0:0:0:0:
256,192,102845,1,8,0:0:0:0:
256,192,102883,1,8,0:0:0:0:
256,192,102920,1,0,0:0:0:0:
256,192,102958,1,8,0:0:0:0:
256,192,102995,1,0,0:0:0:0:
256,192,103145,1,8,0:0:0:0:
256,192,103183,1,8,0:0:0:0:
256,192,103220,1,0,0:0:0:0:
256,192,103258,1,0,0:0:0:0:
256,192,103295,1,0,0:0:0:0:
256,192,103333,1,0,0:0:0:0:
256,192,103370,1,0,0:0:0:0:
256,192,103408,1,0,0:0:0:0:
256,192,103445,1,8,0:0:0:0:
256,192,103483,1,8,0:0:0:0:
256,192,103520,1,0,0:0:0:0:
256,192,103558,1,0,0:0:0:0:
256,192,103595,1,0,0:0:0:0:
256,192,103745,1,8,0:0:0:0:
256,192,103783,1,8,0:0:0:0:
256,192,103820,1,0,0:0:0:0:
256,192,103858,1,0,0:0:0:0:
256,192,103895,1,8,0:0:0:0:
256,192,103933,1,8,0:0:0:0:
256,192,103970,1,0,0:0:0:0:
256,192,104008,1,0,0:0:0:0:
256,192,104045,1,8,0:0:0:0:
256,192,104083,1,8,0:0:0:0:
256,192,104120,1,8,0:0:0:0:
256,192,104158,1,8,0:0:0:0:
256,192,104195,1,0,0:0:0:0:
256,192,104345,1,8,0:0:0:0:
256,192,104383,1,8,0:0:0:0:
256,192,104420,1,8,0:0:0:0:
256,192,104458,1,8,0:0:0:0:
256,192,104495,1,0,0:0:0:0:
256,192,104533,1,0,0:0:0:0:
256,192,104570,1,0,0:0:0:0:
256,192,104608,1,0,0:0:0:0:
256,192,104645,1,8,0:0:0:0:
256,192,104683,1,8,0:0:0:0:
256,192,104720,1,8,0:0:0:0:
256,192,104758,1,8,0:0:0:0:
256,192,104795,1,0,0:0:0:0:
256,192,104833,1,0,0:0:0:0:
256,192,104870,1,0,0:0:0:0:
256,192,104908,1,0,0:0:0:0:
256,192,104945,1,8,0:0:0:0:
256,192,104983,1,8,0:0:0:0:
256,192,105020,1,0,0:0:0:0:
256,192,105058,1,0,0:0:0:0:
256,192,105095,1,0,0:0:0:0:
256,192,105133,1,0,0:0:0:0:
256,192,105170,1,0,0:0:0:0:
256,192,105208,1,0,0:0:0:0:
256,192,105245,1,8,0:0:0:0:
256,192,105283,1,8,0:0:0:0:
256,192,105320,1,0,0:0:0:0:
256,192,105358,1,0,0:0:0:0:
256,192,105395,1,0,0:0:0:0:
256,192,105433,1,0,0:0:0:0:
256,192,105470,1,0,0:0:0:0:
256,192,105508,1,0,0:0:0:0:
256,192,105545,5,8,0:0:0:0:
256,192,105583,1,8,0:0:0:0:
256,192,105620,1,0,0:0:0:0:
256,192,105658,1,0,0:0:0:0:
256,192,105695,1,8,0:0:0:0:
256,192,105733,1,8,0:0:0:0:
256,192,105770,1,0,0:0:0:0:
256,192,105845,1,8,0:0:0:0:
256,192,105883,1,0,0:0:0:0:
256,192,105920,1,0,0:0:0:0:
256,192,105958,1,8,0:0:0:0:
256,192,105995,1,8,0:0:0:0:
256,192,106033,1,0,0:0:0:0:
256,192,106070,1,0,0:0:0:0:
256,192,106145,1,8,0:0:0:0:
256,192,106183,1,8,0:0:0:0:
256,192,106220,1,0,0:0:0:0:
256,192,106258,1,8,0:0:0:0:
256,192,106295,1,8,0:0:0:0:
256,192,106333,1,0,0:0:0:0:
256,192,106370,1,0,0:0:0:0:
256,192,106445,1,8,0:0:0:0:
256,192,106483,1,0,0:0:0:0:
256,192,106520,1,8,0:0:0:0:
256,192,106558,1,8,0:0:0:0:
256,192,106595,1,0,0:0:0:0:
256,192,106633,1,8,0:0:0:0:
256,192,106670,1,0,0:0:0:0:
256,192,106745,1,8,0:0:0:0:
256,192,106783,1,8,0:0:0:0:
256,192,106820,1,0,0:0:0:0:
256,192,106858,1,8,0:0:0:0:
256,192,106895,1,8,0:0:0:0:
256,192,106933,1,8,0:0:0:0:
256,192,106970,1,0,0:0:0:0:
256,192,107045,1,8,0:0:0:0:
256,192,107083,1,8,0:0:0:0:
256,192,107120,1,0,0:0:0:0:
256,192,107158,1,8,0:0:0:0:
256,192,107195,1,8,0:0:0:0:
256,192,107233,1,0,0:0:0:0:
256,192,107270,1,0,0:0:0:0:
256,192,107345,1,8,0:0:0:0:
256,192,107383,1,0,0:0:0:0:
256,192,107420,1,0,0:0:0:0:
256,192,107458,1,8,0:0:0:0:
256,192,107495,1,0,0:0:0:0:
256,192,107533,1,8,0:0:0:0:
256,192,107570,1,0,0:0:0:0:
256,192,107645,1,8,0:0:0:0:
256,192,107683,1,8,0:0:0:0:
256,192,107720,1,0,0:0:0:0:
256,192,107758,1,8,0:0:0:0:
256,192,107795,1,0,0:0:0:0:
256,192,107833,1,8,0:0:0:0:
256,192,107870,1,0,0:0:0:0:
256,192,107945,1,8,0:0:0:0:
256,192,107983,1,8,0:0:0:0:
256,192,108020,1,8,0:0:0:0:
256,192,108058,1,8,0:0:0:0:
256,192,108095,1,0,0:0:0:0:
256,192,108133,1,8,0:0:0:0:
256,192,108170,1,8,0:0:0:0:
256,192,108245,1,8,0:0:0:0:
256,192,108283,1,8,0:0:0:0:
256,192,108320,1,0,0:0:0:0:
256,192,108358,1,8,0:0:0:0:
256,192,108395,1,8,0:0:0:0:
256,192,108433,1,8,0:0:0:0:
256,192,108470,1,8,0:0:0:0:
256,192,108545,1,8,0:0:0:0:
256,192,108583,1,8,0:0:0:0:
256,192,108620,1,8,0:0:0:0:
256,192,108658,1,0,0:0:0:0:
256,192,108695,1,0,0:0:0:0:
256,192,108733,1,8,0:0:0:0:
256,192,108770,1,8,0:0:0:0:
256,192,108845,1,8,0:0:0:0:
256,192,108883,1,8,0:0:0:0:
256,192,108920,1,0,0:0:0:0:
256,192,108958,1,8,0:0:0:0:
256,192,108995,1,8,0:0:0:0:
256,192,109033,1,0,0:0:0:0:
256,192,109070,1,8,0:0:0:0:
256,192,109145,1,8,0:0:0:0:
256,192,109183,1,8,0:0:0:0:
256,192,109220,1,8,0:0:0:0:
256,192,109258,1,8,0:0:0:0:
256,192,109295,1,0,0:0:0:0:
256,192,109333,1,0,0:0:0:0:
256,192,109370,1,0,0:0:0:0:
256,192,109408,1,0,0:0:0:0:
256,192,109445,1,8,0:0:0:0:
256,192,109483,1,8,0:0:0:0:
256,192,109520,1,8,0:0:0:0:
256,192,109558,1,8,0:0:0:0:
256,192,109595,1,0,0:0:0:0:
256,192,109633,1,0,0:0:0:0:
256,192,109670,1,0,0:0:0:0:
256,192,109708,1,0,0:0:0:0:
256,192,109745,1,0,0:0:0:0:
256,192,109820,1,0,0:0:0:0:
256,192,109895,1,0,0:0:0:0:
256,192,109932,1,0,0:0:0:0:
256,192,109970,1,0,0:0:0:0:
256,192,110045,1,8,0:0:0:0:
256,192,110120,1,8,0:0:0:0:
256,192,110158,1,8,0:0:0:0:
256,192,110195,1,0,0:0:0:0:
256,192,110233,1,0,0:0:0:0:
256,192,110270,1,8,0:0:0:0:
256,192,110345,5,8,0:0:0:0:
256,192,110383,1,8,0:0:0:0:
256,192,110420,1,0,0:0:0:0:
256,192,110458,1,0,0:0:0:0:
256,192,110495,1,8,0:0:0:0:
256,192,110533,1,8,0:0:0:0:
256,192,110570,1,0,0:0:0:0:
256,192,110645,1,0,0:0:0:0:
256,192,110720,1,0,0:0:0:0:
256,192,110758,1,0,0:0:0:0:
256,192,110795,1,8,0:0:0:0:
256,192,110833,1,8,0:0:0:0:
256,192,110870,1,0,0:0:0:0:
256,192,110945,1,0,0:0:0:0:
256,192,110983,1,0,0:0:0:0:
256,192,111020,1,0,0:0:0:0:
256,192,111058,1,0,0:0:0:0:
256,192,111095,1,8,0:0:0:0:
256,192,111170,1,0,0:0:0:0:
256,192,111245,1,8,0:0:0:0:
256,192,111283,1,8,0:0:0:0:
256,192,111320,1,8,0:0:0:0:
256,192,111358,1,8,0:0:0:0:
256,192,111395,1,0,0:0:0:0:
256,192,111433,1,8,0:0:0:0:
256,192,111470,1,0,0:0:0:0:
256,192,111545,1,8,0:0:0:0:
256,192,111583,1,0,0:0:0:0:
256,192,111620,1,0,0:0:0:0:
256,192,111658,1,8,0:0:0:0:
256,192,111695,1,0,0:0:0:0:
256,192,111733,1,8,0:0:0:0:
256,192,111770,1,0,0:0:0:0:
256,192,111845,1,8,0:0:0:0:
256,192,111883,1,0,0:0:0:0:
256,192,111920,1,0,0:0:0:0:
256,192,111958,1,0,0:0:0:0:
256,192,111995,1,8,0:0:0:0:
256,192,112033,1,8,0:0:0:0:
256,192,112070,1,0,0:0:0:0:
256,192,112145,1,0,0:0:0:0:
256,192,112183,1,0,0:0:0:0:
256,192,112220,1,0,0:0:0:0:
256,192,112258,1,0,0:0:0:0:
256,192,112295,1,0,0:0:0:0:
256,192,112370,1,0,0:0:0:0:
256,192,112445,1,8,0:0:0:0:
256,192,112483,1,8,0:0:0:0:
256,192,112520,1,8,0:0:0:0:
256,192,112558,1,0,0:0:0:0:
256,192,112595,1,8,0:0:0:0:
256,192,112670,1,0,0:0:0:0:
256,192,112745,1,8,0:0:0:0:
256,192,112783,1,8,0:0:0:0:
256,192,112820,1,8,0:0:0:0:
256,192,112895,1,0,0:0:0:0:
256,192,112970,1,0,0:0:0:0:
256,192,113045,1,8,0:0:0:0:
256,192,113083,1,8,0:0:0:0:
256,192,113120,1,8,0:0:0:0:
256,192,113195,1,0,0:0:0:0:
256,192,113270,1,0,0:0:0:0:
256,192,113345,1,8,0:0:0:0:
256,192,113383,1,8,0:0:0:0:
256,192,113420,1,8,0:0:0:0:
256,192,113458,1,8,0:0:0:0:
256,192,113495,1,0,0:0:0:0:
256,192,113533,1,0,0:0:0:0:
256,192,113570,1,0,0:0:0:0:
256,192,113645,1,8,0:0:0:0:
256,192,113683,1,8,0:0:0:0:
256,192,113720,1,8,0:0:0:0:
256,192,113795,1,0,0:0:0:0:
256,192,113833,1,8,0:0:0:0:
256,192,113870,1,0,0:0:0:0:
256,192,113945,1,8,0:0:0:0:
256,192,113983,1,8,0:0:0:0:
256,192,114020,1,8,0:0:0:0:
256,192,114095,1,0,0:0:0:0:
256,192,114170,1,0,0:0:0:0:
256,192,114245,1,8,0:0:0:0:
256,192,114283,1,8,0:0:0:0:
256,192,114320,1,0,0:0:0:0:
256,192,114358,1,0,0:0:0:0:
256,192,114395,1,8,0:0:0:0:
256,192,114433,1,8,0:0:0:0:
256,192,114470,1,0,0:0:0:0:
256,192,114545,1,8,0:0:0:0:
256,192,114583,1,0,0:0:0:0:
256,192,114620,1,0,0:0:0:0:
256,192,114658,1,0,0:0:0:0:
256,192,114695,1,8,0:0:0:0:
256,192,114733,1,0,0:0:0:0:
256,192,114770,1,0,0:0:0:0:
256,192,114808,1,0,0:0:0:0:
256,192,114845,1,8,0:0:0:0:
256,192,114883,1,8,0:0:0:0:
256,192,114920,1,0,0:0:0:0:
256,192,114958,1,0,0:0:0:0:
256,192,114995,1,8,0:0:0:0:
256,192,115033,1,8,0:0:0:0:
256,192,115070,1,0,0:0:0:0:
256,192,115108,1,8,0:0:0:0:
256,192,115145,1,8,0:0:0:0:
256,192,115183,1,8,0:0:0:0:
256,192,115220,1,0,0:0:0:0:
256,192,115295,1,0,0:0:0:0:
256,192,115370,1,0,0:0:0:0:
256,192,115445,1,8,0:0:0:0:
256,192,115483,1,8,0:0:0:0:
256,192,115520,1,0,0:0:0:0:
256,192,115595,1,0,0:0:0:0:
256,192,115670,1,0,0:0:0:0:
256,192,115745,1,8,0:0:0:0:
256,192,115783,1,8,0:0:0:0:
256,192,115820,1,8,0:0:0:0:
256,192,115858,1,8,0:0:0:0:
256,192,115895,1,0,0:0:0:0:
256,192,115970,1,8,0:0:0:0:
256,192,116045,1,8,0:0:0:0:
256,192,116083,1,8,0:0:0:0:
256,192,116120,1,8,0:0:0:0:
256,192,116158,1,8,0:0:0:0:
256,192,116195,1,0,0:0:0:0:
256,192,116270,1,0,0:0:0:0:
256,192,116345,1,8,0:0:0:0:
256,192,116383,1,8,0:0:0:0:
256,192,116420,1,8,0:0:0:0:
256,192,116458,1,8,0:0:0:0:
256,192,116495,1,0,0:0:0:0:
256,192,116533,1,0,0:0:0:0:
256,192,116570,1,0,0:0:0:0:
256,192,116645,1,8,0:0:0:0:
256,192,116683,1,8,0:0:0:0:
256,192,116720,1,0,0:0:0:0:
256,192,116795,1,0,0:0:0:0:
256,192,116870,1,0,0:0:0:0:
256,192,116945,1,8,0:0:0:0:
256,192,117020,1,8,0:0:0:0:
256,192,117095,1,0,0:0:0:0:
256,192,117133,1,0,0:0:0:0:
256,192,117170,1,0,0:0:0:0:
256,192,117208,1,0,0:0:0:0:
256,192,117245,1,8,0:0:0:0:
256,192,117320,1,8,0:0:0:0:
256,192,117395,1,0,0:0:0:0:
256,192,117433,1,0,0:0:0:0:
256,192,117470,1,0,0:0:0:0:
256,192,117545,1,8,0:0:0:0:
256,192,117620,1,8,0:0:0:0:
256,192,117658,1,8,0:0:0:0:
256,192,117695,1,8,0:0:0:0:
256,192,117770,1,0,0:0:0:0:
256,192,117845,1,8,0:0:0:0:
256,192,117883,1,8,0:0:0:0:
256,192,117920,1,8,0:0:0:0:
256,192,117958,1,8,0:0:0:0:
256,192,117995,1,0,0:0:0:0:
256,192,118070,1,0,0:0:0:0:
256,192,118145,1,8,0:0:0:0:
256,192,118183,1,8,0:0:0:0:
256,192,118220,1,0,0:0:0:0:
256,192,118258,1,0,0:0:0:0:
256,192,118295,1,8,0:0:0:0:
256,192,118333,1,8,0:0:0:0:
256,192,118370,1,0,0:0:0:0:
256,192,118445,1,8,0:0:0:0:
256,192,118483,1,8,0:0:0:0:
256,192,118520,1,0,0:0:0:0:
256,192,118558,1,8,0:0:0:0:
256,192,118595,1,8,0:0:0:0:
256,192,118633,1,8,0:0:0:0:
256,192,118670,1,0,0:0:0:0:
256,192,118745,1,8,0:0:0:0:
256,192,118783,1,8,0:0:0:0:
256,192,118820,1,0,0:0:0:0:
256,192,118858,1,0,0:0:0:0:
256,192,118895,1,8,0:0:0:0:
256,192,118933,1,0,0:0:0:0:
256,192,118970,1,8,0:0:0:0:
256,192,119045,1,8,0:0:0:0:
256,192,119083,1,8,0:0:0:0:
256,192,119120,1,8,0:0:0:0:
256,192,119158,1,8,0:0:0:0:
256,192,119195,1,0,0:0:0:0:
256,192,119270,1,0,0:0:0:0:
256,192,119345,1,8,0:0:0:0:
256,192,119420,1,0,0:0:0:0:
256,192,119495,1,0,0:0:0:0:
256,192,119533,1,0,0:0:0:0:
256,192,119570,1,0,0:0:0:0:
256,192,119645,1,8,0:0:0:0:
256,192,119720,1,0,0:0:0:0:
256,192,119795,1,0,0:0:0:0:
256,192,119833,1,0,0:0:0:0:
256,192,119870,1,8,0:0:0:0:
256,192,119945,5,8,0:0:0:0:
256,192,119983,1,8,0:0:0:0:
256,192,120020,1,0,0:0:0:0:
256,192,120095,1,8,0:0:0:0:
256,192,120170,1,0,0:0:0:0:
256,192,120245,1,8,0:0:0:0:
256,192,120283,1,0,0:0:0:0:
256,192,120320,1,0,0:0:0:0:
256,192,120395,1,8,0:0:0:0:
256,192,120470,1,0,0:0:0:0:
256,192,120545,1,8,0:0:0:0:
256,192,120583,1,8,0:0:0:0:
256,192,120620,1,0,0:0:0:0:
256,192,120658,1,8,0:0:0:0:
256,192,120695,1,8,0:0:0:0:
256,192,120770,1,0,0:0:0:0:
256,192,120845,1,8,0:0:0:0:
256,192,120883,1,0,0:0:0:0:
256,192,120920,1,0,0:0:0:0:
256,192,120958,1,8,0:0:0:0:
256,192,120995,1,8,0:0:0:0:
256,192,121033,1,8,0:0:0:0:
256,192,121070,1,0,0:0:0:0:
256,192,121145,1,8,0:0:0:0:
256,192,121183,1,0,0:0:0:0:
256,192,121220,1,0,0:0:0:0:
256,192,121258,1,8,0:0:0:0:
256,192,121295,1,8,0:0:0:0:
256,192,121370,1,0,0:0:0:0:
256,192,121445,1,8,0:0:0:0:
256,192,121483,1,8,0:0:0:0:
256,192,121520,1,0,0:0:0:0:
256,192,121595,1,8,0:0:0:0:
256,192,121633,1,8,0:0:0:0:
256,192,121670,1,0,0:0:0:0:
256,192,121745,1,0,0:0:0:0:
256,192,121783,1,0,0:0:0:0:
256,192,121820,1,0,0:0:0:0:
256,192,121858,1,0,0:0:0:0:
256,192,121895,1,0,0:0:0:0:
256,192,121970,1,0,0:0:0:0:
256,192,122045,1,8,0:0:0:0:
256,192,122083,1,8,0:0:0:0:
256,192,122120,1,0,0:0:0:0:
256,192,122158,1,8,0:0:0:0:
256,192,122195,1,8,0:0:0:0:
256,192,122270,1,0,0:0:0:0:
256,192,122308,1,0,0:0:0:0:
256,192,122345,1,8,0:0:0:0:
256,192,122383,1,8,0:0:0:0:
256,192,122420,1,0,0:0:0:0:
256,192,122495,1,0,0:0:0:0:
256,192,122570,1,0,0:0:0:0:
256,192,122645,1,8,0:0:0:0:
256,192,122683,1,0,0:0:0:0:
256,192,122720,1,0,0:0:0:0:
256,192,122758,1,0,0:0:0:0:
256,192,122795,1,8,0:0:0:0:
256,192,122870,1,0,0:0:0:0:
256,192,122945,1,8,0:0:0:0:
256,192,122983,1,8,0:0:0:0:
256,192,123020,1,0,0:0:0:0:
256,192,123058,1,0,0:0:0:0:
256,192,123095,1,8,0:0:0:0:
256,192,123170,1,0,0:0:0:0:
256,192,123245,1,8,0:0:0:0:
256,192,123283,1,8,0:0:0:0:
256,192,123320,1,0,0:0:0:0:
256,192,123395,1,8,0:0:0:0:
256,192,123433,1,0,0:0:0:0:
256,192,123470,1,0,0:0:0:0:
256,192,123508,1,0,0:0:0:0:
256,192,123545,1,8,0:0:0:0:
256,192,123620,1,8,0:0:0:0:
256,192,123695,1,0,0:0:0:0:
256,192,123733,1,0,0:0:0:0:
256,192,123770,1,0,0:0:0:0:
256,192,123808,1,0,0:0:0:0:
256,192,123845,1,8,0:0:0:0:
256,192,123920,1,8,0:0:0:0:
256,192,123995,1,0,0:0:0:0:
256,192,124033,1,0,0:0:0:0:
256,192,124070,1,0,0:0:0:0:
256,192,124145,1,8,0:0:0:0:
256,192,124220,1,0,0:0:0:0:
256,192,124295,1,0,0:0:0:0:
256,192,124333,1,0,0:0:0:0:
256,192,124370,1,0,0:0:0:0:
256,192,124445,1,8,0:0:0:0:
256,192,124520,1,0,0:0:0:0:
256,192,124595,1,8,0:0:0:0:
256,192,124633,1,0,0:0:0:0:
256,192,124670,1,8,0:0:0:0:
256,192,124745,5,8,0:0:0:0:
256,192,124783,1,8,0:0:0:0:
256,192,124820,1,8,0:0:0:0:
256,192,124858,1,8,0:0:0:0:
256,192,124895,1,0,0:0:0:0:
256,192,124933,1,0,0:0:0:0:
256,192,124970,1,8,0:0:0:0:
256,192,125045,1,0,0:0:0:0:
256,192,125083,1,0,0:0:0:0:
256,192,125120,1,8,0:0:0:0:
256,192,125195,1,0,0:0:0:0:
256,192,125270,1,8,0:0:0:0:
256,192,125345,1,0,0:0:0:0:
256,192,125383,1,0,0:0:0:0:
256,192,125420,1,0,0:0:0:0:
256,192,125495,1,8,0:0:0:0:
256,192,125570,1,0,0:0:0:0:
256,192,125645,1,8,0:0:0:0:
256,192,125683,1,0,0:0:0:0:
256,192,125720,1,0,0:0:0:0:
256,192,125758,1,0,0:0:0:0:
256,192,125795,1,8,0:0:0:0:
256,192,125870,1,0,0:0:0:0:
256,192,125908,1,8,0:0:0:0:
256,192,125945,1,8,0:0:0:0:
256,192,125983,1,8,0:0:0:0:
256,192,126020,1,0,0:0:0:0:
256,192,126095,1,8,0:0:0:0:
256,192,126133,1,8,0:0:0:0:
256,192,126170,1,0,0:0:0:0:
256,192,126208,1,0,0:0:0:0:
256,192,126245,1,8,0:0:0:0:
256,192,126283,1,0,0:0:0:0:
256,192,126320,1,8,0:0:0:0:
256,192,126358,1,0,0:0:0:0:
256,192,126395,1,8,0:0:0:0:
256,192,126433,1,8,0:0:0:0:
256,192,126470,1,0,0:0:0:0:
256,192,126508,1,0,0:0:0:0:
256,192,126545,1,8,0:0:0:0:
256,192,126583,1,8,0:0:0:0:
256,192,126620,1,0,0:0:0:0:
256,192,126658,1,0,0:0:0:0:
256,192,126695,1,8,0:0:0:0:
256,192,126733,1,0,0:0:0:0:
256,192,126770,1,8,0:0:0:0:
256,192,126808,1,0,0:0:0:0:
256,192,126845,1,8,0:0:0:0:
256,192,126883,1,8,0:0:0:0:
256,192,126920,1,0,0:0:0:0:
256,192,126958,1,0,0:0:0:0:
256,192,126995,1,8,0:0:0:0:
256,192,127033,1,0,0:0:0:0:
256,192,127070,1,0,0:0:0:0:
256,192,127108,1,0,0:0:0:0:
256,192,127145,1,8,0:0:0:0:
256,192,127220,1,0,0:0:0:0:
256,192,127295,1,0,0:0:0:0:
256,192,127333,1,0,0:0:0:0:
256,192,127370,1,0,0:0:0:0:
256,192,127445,1,8,0:0:0:0:
256,192,127520,1,0,0:0:0:0:
256,192,127558,1,0,0:0:0:0:
256,192,127595,1,0,0:0:0:0:
256,192,127670,1,8,0:0:0:0:
256,192,127745,1,8,0:0:0:0:
256,192,127820,1,0,0:0:0:0:
256,192,127895,1,0,0:0:0:0:
256,192,127933,1,0,0:0:0:0:
256,192,127970,1,0,0:0:0:0:
256,192,128008,1,0,0:0:0:0:
256,192,128045,1,8,0:0:0:0:
256,192,128120,1,8,0:0:0:0:
256,192,128195,1,0,0:0:0:0:
256,192,128233,1,0,0:0:0:0:
256,192,128270,1,8,0:0:0:0:
256,192,128345,5,8,0:0:0:0:
256,192,128383,1,8,0:0:0:0:
256,192,128420,1,0,0:0:0:0:
256,192,128458,1,0,0:0:0:0:
256,192,128495,1,8,0:0:0:0:
256,192,128533,1,8,0:0:0:0:
256,192,128570,1,0,0:0:0:0:
256,192,128608,1,0,0:0:0:0:
256,192,128645,1,8,0:0:0:0:
256,192,128683,1,8,0:0:0:0:
256,192,128720,1,0,0:0:0:0:
256,192,128758,1,0,0:0:0:0:
256,192,128795,1,8,0:0:0:0:
256,192,128833,1,8,0:0:0:0:
256,192,128870,1,0,0:0:0:0:
256,192,128908,1,0,0:0:0:0:
256,192,128945,1,8,0:0:0:0:
256,192,129020,1,8,0:0:0:0:
256,192,129095,1,0,0:0:0:0:
256,192,129170,1,0,0:0:0:0:
256,192,129245,1,8,0:0:0:0:
256,192,129320,1,8,0:0:0:0:
256,192,129395,1,0,0:0:0:0:
256,192,129545,5,0,0:0:0:0:
256,192,129583,1,0,0:0:0:0:
256,192,129620,1,0,0:0:0:0:
256,192,129695,1,0,0:0:0:0:
256,192,129770,1,0,0:0:0:0:
256,192,129845,1,8,0:0:0:0:
256,192,129883,1,8,0:0:0:0:
256,192,129920,1,0,0:0:0:0:
256,192,129995,1,0,0:0:0:0:
256,192,130070,1,0,0:0:0:0:
256,192,130145,1,0,0:0:0:0:
256,192,130183,1,0,0:0:0:0:
256,192,130220,1,0,0:0:0:0:
256,192,130295,1,0,0:0:0:0:
256,192,130370,1,0,0:0:0:0:
256,192,130445,1,8,0:0:0:0:
256,192,130483,1,8,0:0:0:0:
256,192,130520,1,0,0:0:0:0:
256,192,130595,1,0,0:0:0:0:
256,192,130670,1,0,0:0:0:0:
256,192,130745,1,8,0:0:0:0:
256,192,130783,1,0,0:0:0:0:
256,192,130820,1,8,0:0:0:0:
256,192,130895,1,0,0:0:0:0:
256,192,130970,1,8,0:0:0:0:
256,192,131045,1,8,0:0:0:0:
256,192,131083,1,0,0:0:0:0:
256,192,131120,1,8,0:0:0:0:
256,192,131195,1,0,0:0:0:0:
256,192,131270,1,8,0:0:0:0:
256,192,131345,1,8,0:0:0:0:
256,192,131383,1,0,0:0:0:0:
256,192,131420,1,8,0:0:0:0:
256,192,131495,1,0,0:0:0:0:
256,192,131570,1,8,0:0:0:0:
256,192,131645,1,8,0:0:0:0:
256,192,131683,1,0,0:0:0:0:
256,192,131720,1,8,0:0:0:0:
256,192,131795,1,0,0:0:0:0:
256,192,131870,1,8,0:0:0:0:
256,192,131945,1,0,0:0:0:0:
256,192,131983,1,0,0:0:0:0:
256,192,132020,1,0,0:0:0:0:
256,192,132095,1,0,0:0:0:0:
256,192,132170,1,0,0:0:0:0:
256,192,132245,1,8,0:0:0:0:
256,192,132283,1,8,0:0:0:0:
256,192,132320,1,0,0:0:0:0:
256,192,132395,1,0,0:0:0:0:
256,192,132470,1,0,0:0:0:0:
256,192,132545,1,0,0:0:0:0:
256,192,132583,1,0,0:0:0:0:
256,192,132620,1,0,0:0:0:0:
256,192,132695,1,0,0:0:0:0:
256,192,132770,1,0,0:0:0:0:
256,192,132845,1,8,0:0:0:0:
256,192,132883,1,8,0:0:0:0:
256,192,132920,1,0,0:0:0:0:
256,192,132995,1,0,0:0:0:0:
256,192,133070,1,0,0:0:0:0:
256,192,133145,1,0,0:0:0:0:
256,192,133295,1,0,0:0:0:0:
256,192,133445,1,0,0:0:0:0:
256,192,133595,1,0,0:0:0:0:
256,192,133745,1,0,0:0:0:0:
256,192,134045,1,12,0:0:0:0:
256,192,134195,1,0,0:0:0:0:
256,192,134345,5,0,0:0:0:0:
256,192,134383,1,0,0:0:0:0:
256,192,134420,1,8,0:0:0:0:
256,192,134495,1,0,0:0:0:0:
256,192,134570,1,0,0:0:0:0:
256,192,134645,1,8,0:0:0:0:
256,192,134683,1,8,0:0:0:0:
256,192,134720,1,0,0:0:0:0:
256,192,134795,1,0,0:0:0:0:
256,192,134870,1,8,0:0:0:0:
256,192,134945,1,0,0:0:0:0:
256,192,134983,1,0,0:0:0:0:
256,192,135020,1,8,0:0:0:0:
256,192,135095,1,0,0:0:0:0:
256,192,135170,1,0,0:0:0:0:
256,192,135245,1,8,0:0:0:0:
256,192,135283,1,8,0:0:0:0:
256,192,135320,1,0,0:0:0:0:
256,192,135395,1,0,0:0:0:0:
256,192,135470,1,8,0:0:0:0:
256,192,135545,1,8,0:0:0:0:
256,192,135583,1,0,0:0:0:0:
256,192,135620,1,8,0:0:0:0:
256,192,135658,1,8,0:0:0:0:
256,192,135695,1,8,0:0:0:0:
256,192,135770,1,8,0:0:0:0:
256,192,135845,1,8,0:0:0:0:
256,192,135883,1,0,0:0:0:0:
256,192,135920,1,8,0:0:0:0:
256,192,135958,1,8,0:0:0:0:
256,192,135995,1,8,0:0:0:0:
256,192,136070,1,8,0:0:0:0:
256,192,136145,1,8,0:0:0:0:
256,192,136183,1,0,0:0:0:0:
256,192,136220,1,8,0:0:0:0:
256,192,136258,1,8,0:0:0:0:
256,192,136295,1,8,0:0:0:0:
256,192,136370,1,8,0:0:0:0:
256,192,136445,1,8,0:0:0:0:
256,192,136483,1,0,0:0:0:0:
256,192,136520,1,8,0:0:0:0:
256,192,136558,1,8,0:0:0:0:
256,192,136595,1,8,0:0:0:0:
256,192,136670,1,8,0:0:0:0:
256,192,136745,1,0,0:0:0:0:
256,192,136783,1,0,0:0:0:0:
256,192,136820,1,8,0:0:0:0:
256,192,136895,1,0,0:0:0:0:
256,192,136970,1,0,0:0:0:0:
256,192,137045,1,8,0:0:0:0:
256,192,137083,1,8,0:0:0:0:
256,192,137120,1,0,0:0:0:0:
256,192,137195,1,0,0:0:0:0:
256,192,137270,1,0,0:0:0:0:
256,192,137345,1,0,0:0:0:0:
256,192,137383,1,0,0:0:0:0:
256,192,137420,1,8,0:0:0:0:
256,192,137495,1,0,0:0:0:0:
256,192,137570,1,0,0:0:0:0:
256,192,137645,1,8,0:0:0:0:
256,192,137683,1,8,0:0:0:0:
256,192,137720,1,0,0:0:0:0:
256,192,137795,1,0,0:0:0:0:
256,192,137870,1,0,0:0:0:0:
256,192,137945,1,0,0:0:0:0:
256,192,138095,1,0,0:0:0:0:
256,192,138320,1,0,0:0:0:0:
256,192,138545,1,4,0:0:0:0:
256,192,138845,1,8,0:0:0:0:
256,192,138883,1,8,0:0:0:0:
256,192,138920,1,8,0:0:0:0:
256,192,138958,1,8,0:0:0:0:
256,192,138995,1,8,0:0:0:0:
256,192,139033,1,8,0:0:0:0:
256,192,139070,1,8,0:0:0:0:
256,192,139145,5,0,0:0:0:0:
256,192,139183,1,0,0:0:0:0:
256,192,139220,1,0,0:0:0:0:
256,192,139295,1,8,0:0:0:0:
256,192,139370,1,8,0:0:0:0:
256,192,139445,1,0,0:0:0:0:
256,192,139483,1,0,0:0:0:0:
256,192,139520,1,0,0:0:0:0:
256,192,139595,1,8,0:0:0:0:
256,192,139670,1,8,0:0:0:0:
256,192,139745,1,0,0:0:0:0:
256,192,139783,1,0,0:0:0:0:
256,192,139820,1,0,0:0:0:0:
256,192,139895,1,8,0:0:0:0:
256,192,139970,1,8,0:0:0:0:
256,192,140045,1,0,0:0:0:0:
256,192,140083,1,0,0:0:0:0:
256,192,140120,1,0,0:0:0:0:
256,192,140195,1,8,0:0:0:0:
256,192,140270,1,8,0:0:0:0:
256,192,140345,1,8,0:0:0:0:
256,192,140383,1,0,0:0:0:0:
256,192,140420,1,8,0:0:0:0:
256,192,140495,1,0,0:0:0:0:
256,192,140570,1,8,0:0:0:0:
256,192,140645,1,8,0:0:0:0:
256,192,140683,1,0,0:0:0:0:
256,192,140720,1,8,0:0:0:0:
256,192,140795,1,0,0:0:0:0:
256,192,140870,1,8,0:0:0:0:
256,192,140945,1,8,0:0:0:0:
256,192,140983,1,0,0:0:0:0:
256,192,141020,1,8,0:0:0:0:
256,192,141095,1,0,0:0:0:0:
256,192,141170,1,8,0:0:0:0:
256,192,141245,1,8,0:0:0:0:
256,192,141283,1,0,0:0:0:0:
256,192,141320,1,8,0:0:0:0:
256,192,141395,1,0,0:0:0:0:
256,192,141470,1,8,0:0:0:0:
256,192,141545,1,0,0:0:0:0:
256,192,141583,1,0,0:0:0:0:
256,192,141620,1,0,0:0:0:0:
256,192,141695,1,8,0:0:0:0:
256,192,141770,1,8,0:0:0:0:
256,192,141845,1,0,0:0:0:0:
256,192,141883,1,0,0:0:0:0:
256,192,141920,1,0,0:0:0:0:
256,192,141995,1,8,0:0:0:0:
256,192,142070,1,8,0:0:0:0:
256,192,142145,1,0,0:0:0:0:
256,192,142183,1,0,0:0:0:0:
256,192,142220,1,0,0:0:0:0:
256,192,142295,1,8,0:0:0:0:
256,192,142370,1,8,0:0:0:0:
256,192,142445,1,0,0:0:0:0:
256,192,142483,1,0,0:0:0:0:
256,192,142520,1,0,0:0:0:0:
256,192,142595,1,8,0:0:0:0:
256,192,142670,1,8,0:0:0:0:
256,192,142745,1,0,0:0:0:0:
256,192,142895,1,0,0:0:0:0:
256,192,143045,1,0,0:0:0:0:
256,192,143120,1,0,0:0:0:0:
256,192,143195,1,0,0:0:0:0:
256,192,143270,1,0,0:0:0:0:
256,192,143345,1,0,0:0:0:0:
256,192,143645,1,12,0:0:0:0:
256,192,143795,1,0,0:0:0:0:
256,192,143945,5,0,0:0:0:0:
256,192,143983,1,0,0:0:0:0:
256,192,144020,1,0,0:0:0:0:
256,192,144095,1,8,0:0:0:0:
256,192,144170,1,0,0:0:0:0:
256,192,144245,1,8,0:0:0:0:
256,192,144283,1,8,0:0:0:0:
256,192,144320,1,0,0:0:0:0:
256,192,144395,1,0,0:0:0:0:
256,192,144470,1,0,0:0:0:0:
256,192,144545,1,0,0:0:0:0:
256,192,144583,1,0,0:0:0:0:
256,192,144620,1,0,0:0:0:0:
256,192,144695,1,8,0:0:0:0:
256,192,144770,1,0,0:0:0:0:
256,192,144845,1,8,0:0:0:0:
256,192,144883,1,8,0:0:0:0:
256,192,144920,1,0,0:0:0:0:
256,192,144995,1,0,0:0:0:0:
256,192,145070,1,0,0:0:0:0:
256,192,145145,1,8,0:0:0:0:
256,192,145183,1,8,0:0:0:0:
256,192,145220,1,0,0:0:0:0:
256,192,145295,1,8,0:0:0:0:
256,192,145370,1,8,0:0:0:0:
256,192,145445,1,8,0:0:0:0:
256,192,145483,1,8,0:0:0:0:
256,192,145520,1,0,0:0:0:0:
256,192,145595,1,8,0:0:0:0:
256,192,145670,1,8,0:0:0:0:
256,192,145745,1,8,0:0:0:0:
256,192,145783,1,8,0:0:0:0:
256,192,145820,1,0,0:0:0:0:
256,192,145895,1,8,0:0:0:0:
256,192,145970,1,8,0:0:0:0:
256,192,146045,1,8,0:0:0:0:
256,192,146083,1,8,0:0:0:0:
256,192,146120,1,0,0:0:0:0:
256,192,146195,1,8,0:0:0:0:
256,192,146270,1,8,0:0:0:0:
256,192,146345,1,0,0:0:0:0:
256,192,146383,1,0,0:0:0:0:
256,192,146420,1,0,0:0:0:0:
256,192,146495,1,8,0:0:0:0:
256,192,146570,1,0,0:0:0:0:
256,192,146645,1,8,0:0:0:0:
256,192,146683,1,8,0:0:0:0:
256,192,146720,1,0,0:0:0:0:
256,192,146795,1,0,0:0:0:0:
256,192,146870,1,0,0:0:0:0:
256,192,146945,1,0,0:0:0:0:
256,192,146983,1,0,0:0:0:0:
256,192,147020,1,0,0:0:0:0:
256,192,147095,1,8,0:0:0:0:
256,192,147170,1,0,0:0:0:0:
256,192,147245,1,8,0:0:0:0:
256,192,147283,1,8,0:0:0:0:
256,192,147320,1,0,0:0:0:0:
256,192,147395,1,0,0:0:0:0:
256,192,147470,1,0,0:0:0:0:
256,192,147545,1,8,0:0:0:0:
256,192,147620,1,0,0:0:0:0:
256,192,147658,1,0,0:0:0:0:
256,192,147695,1,0,0:0:0:0:
256,192,147770,1,8,0:0:0:0:
256,192,147845,1,0,0:0:0:0:
256,192,147920,1,0,0:0:0:0:
256,192,147958,1,0,0:0:0:0:
256,192,147995,1,8,0:0:0:0:
256,192,148070,1,8,0:0:0:0:
256,192,148145,1,0,0:0:0:0:
256,192,148183,1,0,0:0:0:0:
256,192,148220,1,0,0:0:0:0:
256,192,148258,1,0,0:0:0:0:
256,192,148295,1,0,0:0:0:0:
256,192,148370,1,0,0:0:0:0:
256,192,148445,1,8,0:0:0:0:
256,192,148520,1,8,0:0:0:0:
256,192,148595,1,0,0:0:0:0:
256,192,148670,1,8,0:0:0:0:
256,192,148745,5,8,0:0:0:0:
256,192,148970,1,8,0:0:0:0:
256,192,149045,1,8,0:0:0:0:
256,192,149195,1,8,0:0:0:0:
256,192,149495,1,8,0:0:0:0:
256,192,149570,1,8,0:0:0:0:
256,192,149645,1,0,0:0:0:0:
256,192,149945,1,0,0:0:0:0:
256,192,150170,1,0,0:0:0:0:
256,192,150245,1,8,0:0:0:0:
256,192,150320,1,8,0:0:0:0:
256,192,150470,1,8,0:0:0:0:
256,192,150695,1,8,0:0:0:0:
256,192,150845,1,8,0:0:0:0:
256,192,150995,1,8,0:0:0:0:
256,192,151145,1,8,0:0:0:0:
256,192,151220,1,0,0:0:0:0:
256,192,151295,1,8,0:0:0:0:
256,192,151445,1,0,0:0:0:0:
256,192,151520,1,0,0:0:0:0:
256,192,151595,1,8,0:0:0:0:
256,192,151670,1,0,0:0:0:0:
256,192,151745,1,8,0:0:0:0:
256,192,151895,1,8,0:0:0:0:
256,192,151970,1,8,0:0:0:0:
256,192,152045,1,8,0:0:0:0:
256,192,152195,1,8,0:0:0:0:
256,192,152345,1,8,0:0:0:0:
256,192,152570,1,8,0:0:0:0:
256,192,152795,1,8,0:0:0:0:
256,192,153020,1,8,0:0:0:0:
256,192,153245,1,0,0:0:0:0:
256,192,153395,1,0,0:0:0:0:
256,192,153545,1,12,0:0:0:0:
256,192,153770,1,8,0:0:0:0:
256,192,153845,1,8,0:0:0:0:
256,192,153995,1,8,0:0:0:0:
256,192,154295,1,8,0:0:0:0:
256,192,154445,1,4,0:0:0:0:
256,192,154745,1,0,0:0:0:0:
256,192,154970,1,0,0:0:0:0:
256,192,155045,1,8,0:0:0:0:
256,192,155120,1,8,0:0:0:0:
256,192,155270,1,8,0:0:0:0:
256,192,155495,1,8,0:0:0:0:
256,192,155645,1,8,0:0:0:0:
256,192,155795,1,8,0:0:0:0:
256,192,155945,1,8,0:0:0:0:
256,192,156020,1,0,0:0:0:0:
256,192,156095,1,8,0:0:0:0:
256,192,156245,1,0,0:0:0:0:
256,192,156320,1,0,0:0:0:0:
256,192,156395,1,0,0:0:0:0:
256,192,156545,1,8,0:0:0:0:
256,192,156695,1,8,0:0:0:0:
256,192,156770,1,8,0:0:0:0:
256,192,156845,1,8,0:0:0:0:
256,192,156995,1,8,0:0:0:0:
256,192,157145,1,8,0:0:0:0:
256,192,157370,1,0,0:0:0:0:
256,192,157445,1,8,0:0:0:0:
256,192,157595,1,0,0:0:0:0:
256,192,157745,1,0,0:0:0:0:
256,192,157820,1,0,0:0:0:0:
256,192,157895,1,0,0:0:0:0:
256,192,158045,1,8,0:0:0:0:
256,192,158120,1,8,0:0:0:0:
256,192,158195,1,0,0:0:0:0:
256,192,158270,1,8,0:0:0:0:
256,192,158345,5,8,0:0:0:0:
256,192,158570,1,8,0:0:0:0:
256,192,158645,1,8,0:0:0:0:
256,192,158795,1,8,0:0:0:0:
256,192,159095,1,8,0:0:0:0:
256,192,159245,1,4,0:0:0:0:
256,192,159545,1,0,0:0:0:0:
256,192,159770,1,0,0:0:0:0:
256,192,159845,1,8,0:0:0:0:
256,192,159920,1,8,0:0:0:0:
256,192,160070,1,8,0:0:0:0:
256,192,160295,1,8,0:0:0:0:
256,192,160445,1,8,0:0:0:0:
256,192,160595,1,8,0:0:0:0:
256,192,160745,1,8,0:0:0:0:
256,192,160820,1,0,0:0:0:0:
256,192,160895,1,8,0:0:0:0:
256,192,161045,1,0,0:0:0:0:
256,192,161195,1,0,0:0:0:0:
256,192,161270,1,0,0:0:0:0:
256,192,161345,1,8,0:0:0:0:
256,192,161495,1,8,0:0:0:0:
256,192,161570,1,8,0:0:0:0:
256,192,161645,1,8,0:0:0:0:
256,192,161795,1,8,0:0:0:0:
256,192,161945,1,8,0:0:0:0:
256,192,162170,1,8,0:0:0:0:
256,192,162395,1,8,0:0:0:0:
256,192,162620,1,8,0:0:0:0:
256,192,162845,1,0,0:0:0:0:
256,192,162995,1,0,0:0:0:0:
256,192,163145,1,8,0:0:0:0:
256,192,163295,1,8,0:0:0:0:
256,192,163370,1,8,0:0:0:0:
256,192,163445,1,8,0:0:0:0:
256,192,163595,1,8,0:0:0:0:
256,192,163745,1,8,0:0:0:0:
256,192,163895,1,8,0:0:0:0:
256,192,164045,1,8,0:0:0:0:
256,192,164120,1,8,0:0:0:0:
256,192,164195,1,8,0:0:0:0:
256,192,164345,1,8,0:0:0:0:
256,192,164495,1,8,0:0:0:0:
256,192,164570,1,8,0:0:0:0:
256,192,164645,1,8,0:0:0:0:
256,192,164720,1,8,0:0:0:0:
256,192,164795,1,8,0:0:0:0:
256,192,164945,1,8,0:0:0:0:
256,192,165095,1,8,0:0:0:0:
256,192,165245,1,8,0:0:0:0:
256,192,165395,1,8,0:0:0:0:
256,192,165545,1,8,0:0:0:0:
256,192,165620,1,8,0:0:0:0:
256,192,165695,1,0,0:0:0:0:
256,192,165770,1,0,0:0:0:0:
256,192,165845,1,8,0:0:0:0:
256,192,165920,1,8,0:0:0:0:
256,192,165995,1,8,0:0:0:0:
256,192,166070,1,8,0:0:0:0:
256,192,166145,1,8,0:0:0:0:
256,192,166220,1,8,0:0:0:0:
256,192,166295,1,8,0:0:0:0:
256,192,166370,1,8,0:0:0:0:
256,192,166445,1,8,0:0:0:0:
256,192,166520,1,8,0:0:0:0:
256,192,166595,1,8,0:0:0:0:
256,192,166670,1,8,0:0:0:0:
256,192,166745,1,0,0:0:0:0:
256,192,166895,1,8,0:0:0:0:
256,192,167045,1,8,0:0:0:0:
256,192,167195,1,8,0:0:0:0:
256,192,167345,1,0,0:0:0:0:
256,192,167645,1,8,0:0:0:0:
256,192,167795,1,0,0:0:0:0:
256,192,167945,5,4,0:0:0:0:
256,192,168245,1,0,0:0:0:0:
256,192,168545,1,8,0:0:0:0:
256,192,168845,1,8,0:0:0:0:
256,192,169145,1,8,0:0:0:0:
256,192,169445,1,0,0:0:0:0:
256,192,169745,1,0,0:0:0:0:
256,192,170045,1,0,0:0:0:0:
256,192,170345,1,0,0:0:0:0:
256,192,170645,1,0,0:0:0:0:
256,192,170945,1,8,0:0:0:0:
256,192,171245,1,8,0:0:0:0:
256,192,171545,1,8,0:0:0:0:
256,192,171845,1,0,0:0:0:0:
256,192,172145,1,0,0:0:0:0:
256,192,172445,1,0,0:0:0:0:
256,192,172745,1,0,0:0:0:0:
256,192,173045,1,0,0:0:0:0:
256,192,173345,1,8,0:0:0:0:
256,192,173645,1,8,0:0:0:0:
256,192,173945,1,8,0:0:0:0:
256,192,174245,1,0,0:0:0:0:
256,192,174545,1,0,0:0:0:0:
256,192,174845,1,8,0:0:0:0:
256,192,175145,1,8,0:0:0:0:
256,192,175445,1,8,0:0:0:0:
256,192,175745,1,8,0:0:0:0:
256,192,176045,1,8,0:0:0:0:
256,192,176345,1,0,0:0:0:0:
256,192,176645,1,0,0:0:0:0:
256,192,176945,1,0,0:0:0:0:
256,192,177245,1,8,0:0:0:0:
256,192,177395,1,0,0:0:0:0:
256,192,177545,1,4,0:0:0:0:
256,192,177845,1,0,0:0:0:0:
256,192,178145,1,8,0:0:0:0:
256,192,178445,1,8,0:0:0:0:
256,192,178745,1,8,0:0:0:0:
256,192,179045,1,0,0:0:0:0:
256,192,179345,1,0,0:0:0:0:
256,192,179645,1,0,0:0:0:0:
256,192,179945,1,0,0:0:0:0:
256,192,180245,1,0,0:0:0:0:
256,192,180545,1,8,0:0:0:0:
256,192,180845,1,8,0:0:0:0:
256,192,181145,1,8,0:0:0:0:
256,192,181445,1,0,0:0:0:0:
256,192,181745,1,0,0:0:0:0:
256,192,182045,1,0,0:0:0:0:
256,192,182345,1,0,0:0:0:0:
256,192,182645,1,0,0:0:0:0:
256,192,182945,1,8,0:0:0:0:
256,192,183245,1,8,0:0:0:0:
256,192,183545,1,8,0:0:0:0:
256,192,183845,1,0,0:0:0:0:
256,192,184145,1,0,0:0:0:0:
256,192,184445,1,8,0:0:0:0:
256,192,184745,1,8,0:0:0:0:
256,192,185045,1,8,0:0:0:0:
256,192,185345,1,0,0:0:0:0:
256,192,185645,1,0,0:0:0:0:
256,192,185945,1,4,0:0:0:0:
256,192,186095,1,12,0:0:0:0:
256,192,186245,1,12,0:0:0:0:
256,192,186395,1,12,0:0:0:0:
256,192,186545,1,0,0:0:0:0:
256,192,186845,1,8,0:0:0:0:
256,192,186995,1,0,0:0:0:0:
256,192,187145,5,8,0:0:0:0:
256,192,187183,1,8,0:0:0:0:
256,192,187220,1,0,0:0:0:0:
256,192,187295,1,0,0:0:0:0:
256,192,187370,1,0,0:0:0:0:
256,192,187445,1,8,0:0:0:0:
256,192,187483,1,8,0:0:0:0:
256,192,187520,1,0,0:0:0:0:
256,192,187595,1,0,0:0:0:0:
256,192,187670,1,0,0:0:0:0:
256,192,187745,1,8,0:0:0:0:
256,192,187783,1,8,0:0:0:0:
256,192,187820,1,8,0:0:0:0:
256,192,187858,1,8,0:0:0:0:
256,192,187895,1,0,0:0:0:0:
256,192,187970,1,0,0:0:0:0:
256,192,188045,1,8,0:0:0:0:
256,192,188083,1,8,0:0:0:0:
256,192,188120,1,8,0:0:0:0:
256,192,188158,1,8,0:0:0:0:
256,192,188195,1,0,0:0:0:0:
256,192,188233,1,8,0:0:0:0:
256,192,188270,1,0,0:0:0:0:
256,192,188345,1,8,0:0:0:0:
256,192,188383,1,8,0:0:0:0:
256,192,188420,1,8,0:0:0:0:
256,192,188458,1,8,0:0:0:0:
256,192,188495,1,0,0:0:0:0:
256,192,188570,1,0,0:0:0:0:
256,192,188645,1,8,0:0:0:0:
256,192,188683,1,8,0:0:0:0:
256,192,188720,1,8,0:0:0:0:
256,192,188795,1,0,0:0:0:0:
256,192,188833,1,0,0:0:0:0:
256,192,188870,1,0,0:0:0:0:
256,192,188945,1,8,0:0:0:0:
256,192,188983,1,8,0:0:0:0:
256,192,189020,1,0,0:0:0:0:
256,192,189095,1,0,0:0:0:0:
256,192,189170,1,0,0:0:0:0:
256,192,189245,1,8,0:0:0:0:
256,192,189283,1,0,0:0:0:0:
256,192,189320,1,0,0:0:0:0:
256,192,189395,1,0,0:0:0:0:
256,192,189470,1,0,0:0:0:0:
256,192,189545,1,8,0:0:0:0:
256,192,189583,1,0,0:0:0:0:
256,192,189620,1,0,0:0:0:0:
256,192,189658,1,0,0:0:0:0:
256,192,189695,1,0,0:0:0:0:
256,192,189770,1,0,0:0:0:0:
256,192,189845,1,8,0:0:0:0:
256,192,189883,1,0,0:0:0:0:
256,192,189920,1,0,0:0:0:0:
256,192,189995,1,0,0:0:0:0:
256,192,190033,1,0,0:0:0:0:
256,192,190070,1,0,0:0:0:0:
256,192,190145,1,8,0:0:0:0:
256,192,190183,1,8,0:0:0:0:
256,192,190220,1,0,0:0:0:0:
256,192,190258,1,0,0:0:0:0:
256,192,190295,1,0,0:0:0:0:
256,192,190370,1,0,0:0:0:0:
256,192,190445,1,8,0:0:0:0:
256,192,190483,1,8,0:0:0:0:
256,192,190520,1,0,0:0:0:0:
256,192,190595,1,0,0:0:0:0:
256,192,190633,1,0,0:0:0:0:
256,192,190670,1,0,0:0:0:0:
256,192,190745,1,8,0:0:0:0:
256,192,190783,1,8,0:0:0:0:
256,192,190820,1,8,0:0:0:0:
256,192,190858,1,8,0:0:0:0:
256,192,190895,1,0,0:0:0:0:
256,192,190933,1,0,0:0:0:0:
256,192,190970,1,0,0:0:0:0:
256,192,191008,1,0,0:0:0:0:
256,192,191045,1,8,0:0:0:0:
256,192,191083,1,8,0:0:0:0:
256,192,191120,1,8,0:0:0:0:
256,192,191158,1,8,0:0:0:0:
256,192,191195,1,0,0:0:0:0:
256,192,191270,1,0,0:0:0:0:
256,192,191345,1,8,0:0:0:0:
256,192,191383,1,8,0:0:0:0:
256,192,191420,1,8,0:0:0:0:
256,192,191495,1,0,0:0:0:0:
256,192,191533,1,0,0:0:0:0:
256,192,191570,1,0,0:0:0:0:
256,192,191645,1,8,0:0:0:0:
256,192,191683,1,8,0:0:0:0:
256,192,191720,1,8,0:0:0:0:
256,192,191795,1,0,0:0:0:0:
256,192,191833,1,0,0:0:0:0:
256,192,191870,1,0,0:0:0:0:
256,192,191945,1,8,0:0:0:0:
256,192,191983,1,8,0:0:0:0:
256,192,192020,1,0,0:0:0:0:
256,192,192095,1,0,0:0:0:0:
256,192,192170,1,0,0:0:0:0:
256,192,192245,1,8,0:0:0:0:
256,192,192283,1,8,0:0:0:0:
256,192,192320,1,8,0:0:0:0:
256,192,192395,1,0,0:0:0:0:
256,192,192433,1,0,0:0:0:0:
256,192,192470,1,0,0:0:0:0:
256,192,192508,1,0,0:0:0:0:
256,192,192545,1,8,0:0:0:0:
256,192,192583,1,8,0:0:0:0:
256,192,192620,1,8,0:0:0:0:
256,192,192695,1,0,0:0:0:0:
256,192,192770,1,0,0:0:0:0:
256,192,192845,1,8,0:0:0:0:
256,192,192883,1,8,0:0:0:0:
256,192,192920,1,8,0:0:0:0:
256,192,192995,1,0,0:0:0:0:
256,192,193033,1,0,0:0:0:0:
256,192,193070,1,0,0:0:0:0:
256,192,193145,1,8,0:0:0:0:
256,192,193183,1,8,0:0:0:0:
256,192,193220,1,0,0:0:0:0:
256,192,193258,1,8,0:0:0:0:
256,192,193295,1,0,0:0:0:0:
256,192,193333,1,0,0:0:0:0:
256,192,193370,1,0,0:0:0:0:
256,192,193408,1,0,0:0:0:0:
256,192,193445,1,8,0:0:0:0:
256,192,193483,1,8,0:0:0:0:
256,192,193520,1,0,0:0:0:0:
256,192,193558,1,0,0:0:0:0:
256,192,193595,1,8,0:0:0:0:
256,192,193633,1,8,0:0:0:0:
256,192,193670,1,0,0:0:0:0:
256,192,193745,1,0,0:0:0:0:
256,192,193783,1,0,0:0:0:0:
256,192,193820,1,0,0:0:0:0:
256,192,193858,1,0,0:0:0:0:
256,192,193895,1,8,0:0:0:0:
256,192,193933,1,8,0:0:0:0:
256,192,193970,1,0,0:0:0:0:
256,192,194008,1,8,0:0:0:0:
256,192,194045,1,0,0:0:0:0:
256,192,194083,1,0,0:0:0:0:
256,192,194120,1,8,0:0:0:0:
256,192,194158,1,0,0:0:0:0:
256,192,194195,1,8,0:0:0:0:
256,192,194233,1,8,0:0:0:0:
256,192,194270,1,8,0:0:0:0:
256,192,194345,1,8,0:0:0:0:
256,192,194383,1,8,0:0:0:0:
256,192,194420,1,8,0:0:0:0:
256,192,194458,1,8,0:0:0:0:
256,192,194495,1,0,0:0:0:0:
256,192,194533,1,8,0:0:0:0:
256,192,194570,1,8,0:0:0:0:
256,192,194645,1,8,0:0:0:0:
256,192,194683,1,0,0:0:0:0:
256,192,194720,1,0,0:0:0:0:
256,192,194758,1,8,0:0:0:0:
256,192,194795,1,8,0:0:0:0:
256,192,194833,1,8,0:0:0:0:
256,192,194870,1,8,0:0:0:0:
256,192,194945,1,8,0:0:0:0:
256,192,194983,1,8,0:0:0:0:
256,192,195020,1,8,0:0:0:0:
256,192,195095,1,0,0:0:0:0:
256,192,195133,1,0,0:0:0:0:
256,192,195170,1,0,0:0:0:0:
256,192,195245,1,8,0:0:0:0:
256,192,195283,1,8,0:0:0:0:
256,192,195320,1,8,0:0:0:0:
256,192,195358,1,8,0:0:0:0:
256,192,195395,1,0,0:0:0:0:
256,192,195433,1,8,0:0:0:0:
256,192,195470,1,0,0:0:0:0:
256,192,195545,1,8,0:0:0:0:
256,192,195583,1,8,0:0:0:0:
256,192,195620,1,8,0:0:0:0:
256,192,195658,1,8,0:0:0:0:
256,192,195695,1,0,0:0:0:0:
256,192,195733,1,0,0:0:0:0:
256,192,195770,1,0,0:0:0:0:
256,192,195808,1,0,0:0:0:0:
256,192,195845,1,8,0:0:0:0:
256,192,195883,1,8,0:0:0:0:
256,192,195920,1,0,0:0:0:0:
256,192,195958,1,8,0:0:0:0:
256,192,195995,1,0,0:0:0:0:
256,192,196070,1,8,0:0:0:0:
256,192,196145,1,0,0:0:0:0:
256,192,196295,1,8,0:0:0:0:
256,192,196333,1,8,0:0:0:0:
256,192,196445,1,8,0:0:0:0:
256,192,196483,1,8,0:0:0:0:
256,192,196595,1,8,0:0:0:0:
256,192,196633,1,8,0:0:0:0:
256,192,196745,5,8,0:0:0:0:
256,192,196783,1,8,0:0:0:0:
256,192,196820,1,0,0:0:0:0:
256,192,196895,1,0,0:0:0:0:
256,192,196970,1,0,0:0:0:0:
256,192,197045,1,8,0:0:0:0:
256,192,197083,1,8,0:0:0:0:
256,192,197120,1,0,0:0:0:0:
256,192,197158,1,0,0:0:0:0:
256,192,197195,1,0,0:0:0:0:
256,192,197270,1,0,0:0:0:0:
256,192,197345,1,8,0:0:0:0:
256,192,197383,1,8,0:0:0:0:
256,192,197420,1,0,0:0:0:0:
256,192,197458,1,8,0:0:0:0:
256,192,197495,1,8,0:0:0:0:
256,192,197570,1,0,0:0:0:0:
256,192,197645,1,8,0:0:0:0:
256,192,197683,1,8,0:0:0:0:
256,192,197720,1,0,0:0:0:0:
256,192,197795,1,0,0:0:0:0:
256,192,197833,1,8,0:0:0:0:
256,192,197870,1,8,0:0:0:0:
256,192,197945,1,8,0:0:0:0:
256,192,197983,1,8,0:0:0:0:
256,192,198020,1,8,0:0:0:0:
256,192,198058,1,8,0:0:0:0:
256,192,198095,1,0,0:0:0:0:
256,192,198133,1,8,0:0:0:0:
256,192,198170,1,0,0:0:0:0:
256,192,198245,1,8,0:0:0:0:
256,192,198283,1,8,0:0:0:0:
256,192,198320,1,0,0:0:0:0:
256,192,198358,1,8,0:0:0:0:
256,192,198395,1,0,0:0:0:0:
256,192,198433,1,8,0:0:0:0:
256,192,198470,1,8,0:0:0:0:
256,192,198545,1,8,0:0:0:0:
256,192,198583,1,0,0:0:0:0:
256,192,198620,1,8,0:0:0:0:
256,192,198658,1,8,0:0:0:0:
256,192,198695,1,0,0:0:0:0:
256,192,198733,1,8,0:0:0:0:
256,192,198770,1,0,0:0:0:0:
256,192,198845,1,8,0:0:0:0:
256,192,198883,1,0,0:0:0:0:
256,192,198920,1,0,0:0:0:0:
256,192,198958,1,8,0:0:0:0:
256,192,198995,1,0,0:0:0:0:
256,192,199033,1,8,0:0:0:0:
256,192,199070,1,0,0:0:0:0:
256,192,199145,1,8,0:0:0:0:
256,192,199183,1,0,0:0:0:0:
256,192,199220,1,0,0:0:0:0:
256,192,199258,1,0,0:0:0:0:
256,192,199295,1,8,0:0:0:0:
256,192,199370,1,0,0:0:0:0:
256,192,199445,1,8,0:0:0:0:
256,192,199483,1,8,0:0:0:0:
256,192,199520,1,0,0:0:0:0:
256,192,199558,1,0,0:0:0:0:
256,192,199595,1,8,0:0:0:0:
256,192,199670,1,0,0:0:0:0:
256,192,199745,1,8,0:0:0:0:
256,192,199783,1,8,0:0:0:0:
256,192,199820,1,0,0:0:0:0:
256,192,199858,1,8,0:0:0:0:
256,192,199895,1,8,0:0:0:0:
256,192,199970,1,0,0:0:0:0:
256,192,200045,1,8,0:0:0:0:
256,192,200083,1,8,0:0:0:0:
256,192,200120,1,0,0:0:0:0:
256,192,200158,1,8,0:0:0:0:
256,192,200195,1,0,0:0:0:0:
256,192,200233,1,8,0:0:0:0:
256,192,200270,1,0,0:0:0:0:
256,192,200345,1,8,0:0:0:0:
256,192,200383,1,8,0:0:0:0:
256,192,200420,1,8,0:0:0:0:
256,192,200495,1,0,0:0:0:0:
256,192,200533,1,0,0:0:0:0:
256,192,200570,1,0,0:0:0:0:
256,192,200645,1,8,0:0:0:0:
256,192,200683,1,8,0:0:0:0:
256,192,200720,1,8,0:0:0:0:
256,192,200795,1,0,0:0:0:0:
256,192,200833,1,0,0:0:0:0:
256,192,200870,1,0,0:0:0:0:
256,192,200908,1,0,0:0:0:0:
256,192,200945,1,8,0:0:0:0:
256,192,200983,1,8,0:0:0:0:
256,192,201020,1,8,0:0:0:0:
256,192,201095,1,0,0:0:0:0:
256,192,201133,1,0,0:0:0:0:
256,192,201170,1,0,0:0:0:0:
256,192,201208,1,0,0:0:0:0:
256,192,201245,1,8,0:0:0:0:
256,192,201283,1,0,0:0:0:0:
256,192,201320,1,8,0:0:0:0:
256,192,201358,1,8,0:0:0:0:
256,192,201395,1,0,0:0:0:0:
256,192,201433,1,8,0:0:0:0:
256,192,201470,1,0,0:0:0:0:
256,192,201545,1,8,0:0:0:0:
256,192,201583,1,0,0:0:0:0:
256,192,201620,1,0,0:0:0:0:
256,192,201695,1,8,0:0:0:0:
256,192,201770,1,0,0:0:0:0:
256,192,201845,1,8,0:0:0:0:
256,192,201883,1,0,0:0:0:0:
256,192,201920,1,0,0:0:0:0:
256,192,201958,1,0,0:0:0:0:
256,192,201995,1,8,0:0:0:0:
256,192,202070,1,0,0:0:0:0:
256,192,202145,1,8,0:0:0:0:
256,192,202183,1,8,0:0:0:0:
256,192,202220,1,0,0:0:0:0:
256,192,202295,1,8,0:0:0:0:
256,192,202370,1,0,0:0:0:0:
256,192,202445,1,8,0:0:0:0:
256,192,202483,1,8,0:0:0:0:
256,192,202520,1,0,0:0:0:0:
256,192,202558,1,8,0:0:0:0:
256,192,202595,1,8,0:0:0:0:
256,192,202670,1,0,0:0:0:0:
256,192,202745,1,8,0:0:0:0:
256,192,202783,1,8,0:0:0:0:
256,192,202820,1,0,0:0:0:0:
256,192,202858,1,8,0:0:0:0:
256,192,202895,1,0,0:0:0:0:
256,192,202970,1,0,0:0:0:0:
256,192,203045,1,8,0:0:0:0:
256,192,203083,1,8,0:0:0:0:
256,192,203120,1,0,0:0:0:0:
256,192,203158,1,8,0:0:0:0:
256,192,203195,1,0,0:0:0:0:
256,192,203270,1,0,0:0:0:0:
256,192,203345,1,8,0:0:0:0:
256,192,203383,1,0,0:0:0:0:
256,192,203420,1,0,0:0:0:0:
256,192,203458,1,8,0:0:0:0:
256,192,203495,1,0,0:0:0:0:
256,192,203570,1,0,0:0:0:0:
256,192,203608,1,0,0:0:0:0:
256,192,203645,1,8,0:0:0:0:
256,192,203683,1,0,0:0:0:0:
256,192,203720,1,0,0:0:0:0:
256,192,203758,1,8,0:0:0:0:
256,192,203795,1,0,0:0:0:0:
256,192,203870,1,0,0:0:0:0:
256,192,203945,1,8,0:0:0:0:
256,192,203983,1,8,0:0:0:0:
256,192,204020,1,8,0:0:0:0:
256,192,204058,1,0,0:0:0:0:
256,192,204095,1,8,0:0:0:0:
256,192,204133,1,8,0:0:0:0:
256,192,204170,1,0,0:0:0:0:
256,192,204245,1,8,0:0:0:0:
256,192,204283,1,8,0:0:0:0:
256,192,204320,1,0,0:0:0:0:
256,192,204358,1,8,0:0:0:0:
256,192,204395,1,8,0:0:0:0:
256,192,204433,1,8,0:0:0:0:
256,192,204470,1,0,0:0:0:0:
256,192,204545,1,8,0:0:0:0:
256,192,204583,1,8,0:0:0:0:
256,192,204620,1,0,0:0:0:0:
256,192,204695,1,0,0:0:0:0:
256,192,204770,1,0,0:0:0:0:
256,192,204845,1,8,0:0:0:0:
256,192,204883,1,0,0:0:0:0:
256,192,204920,1,0,0:0:0:0:
256,192,204995,1,0,0:0:0:0:
256,192,205070,1,0,0:0:0:0:
256,192,205108,1,0,0:0:0:0:
256,192,205145,1,8,0:0:0:0:
256,192,205183,1,8,0:0:0:0:
256,192,205220,1,8,0:0:0:0:
256,192,205295,1,0,0:0:0:0:
256,192,205333,1,0,0:0:0:0:
256,192,205370,1,0,0:0:0:0:
256,192,205445,1,8,0:0:0:0:
256,192,205483,1,8,0:0:0:0:
256,192,205520,1,8,0:0:0:0:
256,192,205558,1,8,0:0:0:0:
256,192,205595,1,0,0:0:0:0:
256,192,205633,1,0,0:0:0:0:
256,192,205670,1,0,0:0:0:0:
256,192,205745,1,0,0:0:0:0:
256,192,206045,1,8,0:0:0:0:
256,192,206195,1,0,0:0:0:0:
256,192,206345,1,8,0:0:0:0:
256,192,206383,1,0,0:0:0:0:
256,192,206420,1,0,0:0:0:0:
256,192,206495,1,0,0:0:0:0:
256,192,206570,1,0,0:0:0:0:
256,192,206608,1,0,0:0:0:0:
256,192,206645,1,8,0:0:0:0:
256,192,206683,1,0,0:0:0:0:
256,192,206720,1,0,0:0:0:0:
256,192,206795,1,0,0:0:0:0:
256,192,206870,1,0,0:0:0:0:
256,192,206945,1,8,0:0:0:0:
256,192,206983,1,8,0:0:0:0:
256,192,207020,1,0,0:0:0:0:
256,192,207058,1,8,0:0:0:0:
256,192,207095,1,0,0:0:0:0:
256,192,207133,1,0,0:0:0:0:
256,192,207170,1,0,0:0:0:0:
256,192,207245,1,8,0:0:0:0:
256,192,207283,1,8,0:0:0:0:
256,192,207320,1,0,0:0:0:0:
256,192,207395,1,8,0:0:0:0:
256,192,207470,1,0,0:0:0:0:
256,192,207545,1,8,0:0:0:0:
256,192,207583,1,8,0:0:0:0:
256,192,207620,1,0,0:0:0:0:
256,192,207658,1,0,0:0:0:0:
256,192,207695,1,8,0:0:0:0:
256,192,207733,1,0,0:0:0:0:
256,192,207770,1,0,0:0:0:0:
256,192,207845,1,8,0:0:0:0:
256,192,207883,1,8,0:0:0:0:
256,192,207920,1,0,0:0:0:0:
256,192,207958,1,8,0:0:0:0:
256,192,207995,1,0,0:0:0:0:
256,192,208033,1,8,0:0:0:0:
256,192,208070,1,0,0:0:0:0:
256,192,208145,1,8,0:0:0:0:
256,192,208183,1,0,0:0:0:0:
256,192,208220,1,0,0:0:0:0:
256,192,208258,1,0,0:0:0:0:
256,192,208295,1,8,0:0:0:0:
256,192,208370,1,0,0:0:0:0:
256,192,208445,1,8,0:0:0:0:
256,192,208483,1,8,0:0:0:0:
256,192,208520,1,0,0:0:0:0:
256,192,208558,1,8,0:0:0:0:
256,192,208595,1,0,0:0:0:0:
256,192,208670,1,0,0:0:0:0:
256,192,208745,1,8,0:0:0:0:
256,192,208783,1,0,0:0:0:0:
256,192,208820,1,0,0:0:0:0:
256,192,208858,1,8,0:0:0:0:
256,192,208895,1,8,0:0:0:0:
256,192,208970,1,0,0:0:0:0:
256,192,209045,1,8,0:0:0:0:
256,192,209083,1,8,0:0:0:0:
256,192,209120,1,0,0:0:0:0:
256,192,209195,1,0,0:0:0:0:
256,192,209270,1,0,0:0:0:0:
256,192,209345,1,8,0:0:0:0:
256,192,209383,1,8,0:0:0:0:
256,192,209420,1,8,0:0:0:0:
256,192,209458,1,8,0:0:0:0:
256,192,209495,1,0,0:0:0:0:
256,192,209533,1,8,0:0:0:0:
256,192,209570,1,0,0:0:0:0:
256,192,209608,1,8,0:0:0:0:
256,192,209645,1,0,0:0:0:0:
256,192,209683,1,0,0:0:0:0:
256,192,209720,1,8,0:0:0:0:
256,192,209758,1,8,0:0:0:0:
256,192,209795,1,0,0:0:0:0:
256,192,209833,1,8,0:0:0:0:
256,192,209870,1,0,0:0:0:0:
256,192,209945,1,0,0:0:0:0:
256,192,209983,1,0,0:0:0:0:
256,192,210020,1,0,0:0:0:0:
256,192,210058,1,0,0:0:0:0:
256,192,210095,1,8,0:0:0:0:
256,192,210170,1,0,0:0:0:0:
256,192,210245,1,0,0:0:0:0:
256,192,210283,1,0,0:0:0:0:
256,192,210320,1,0,0:0:0:0:
256,192,210395,1,8,0:0:0:0:
256,192,210470,1,0,0:0:0:0:
256,192,210545,1,0,0:0:0:0:
256,192,210583,1,0,0:0:0:0:
256,192,210620,1,0,0:0:0:0:
256,192,210658,1,0,0:0:0:0:
256,192,210695,1,8,0:0:0:0:
256,192,210733,1,0,0:0:0:0:
256,192,210770,1,0,0:0:0:0:
256,192,210808,1,0,0:0:0:0:
256,192,210845,1,8,0:0:0:0:
256,192,210883,1,0,0:0:0:0:
256,192,210920,1,8,0:0:0:0:
256,192,210958,1,8,0:0:0:0:
256,192,210995,1,0,0:0:0:0:
256,192,211033,1,8,0:0:0:0:
256,192,211070,1,0,0:0:0:0:
256,192,211108,1,0,0:0:0:0:
256,192,211145,1,8,0:0:0:0:
256,192,211183,1,8,0:0:0:0:
256,192,211220,1,0,0:0:0:0:
256,192,211258,1,0,0:0:0:0:
256,192,211295,1,8,0:0:0:0:
256,192,211370,1,0,0:0:0:0:
256,192,211445,1,8,0:0:0:0:
256,192,211483,1,8,0:0:0:0:
256,192,211520,1,0,0:0:0:0:
256,192,211595,1,8,0:0:0:0:
256,192,211633,1,8,0:0:0:0:
256,192,211670,1,0,0:0:0:0:
256,192,211745,1,8,0:0:0:0:
256,192,211783,1,0,0:0:0:0:
256,192,211820,1,0,0:0:0:0:
256,192,211858,1,0,0:0:0:0:
256,192,211895,1,8,0:0:0:0:
256,192,211933,1,8,0:0:0:0:
256,192,211970,1,0,0:0:0:0:
256,192,212045,1,8,0:0:0:0:
256,192,212083,1,0,0:0:0:0:
256,192,212120,1,0,0:0:0:0:
256,192,212195,1,8,0:0:0:0:
256,192,212233,1,8,0:0:0:0:
256,192,212270,1,0,0:0:0:0:
256,192,212345,1,8,0:0:0:0:
256,192,212383,1,8,0:0:0:0:
256,192,212420,1,8,0:0:0:0:
256,192,212458,1,8,0:0:0:0:
256,192,212495,1,0,0:0:0:0:
256,192,212533,1,0,0:0:0:0:
256,192,212570,1,8,0:0:0:0:
256,192,212608,1,0,0:0:0:0:
256,192,212645,1,0,0:0:0:0:
256,192,212683,1,0,0:0:0:0:
256,192,212720,1,8,0:0:0:0:
256,192,212795,1,8,0:0:0:0:
256,192,212870,1,8,0:0:0:0:
256,192,212945,1,0,0:0:0:0:
256,192,212983,1,0,0:0:0:0:
256,192,213020,1,0,0:0:0:0:
256,192,213095,1,8,0:0:0:0:
256,192,213170,1,0,0:0:0:0:
256,192,213245,1,8,0:0:0:0:
256,192,213283,1,8,0:0:0:0:
256,192,213320,1,0,0:0:0:0:
256,192,213395,1,8,0:0:0:0:
256,192,213470,1,0,0:0:0:0:
256,192,213545,1,8,0:0:0:0:
256,192,213583,1,8,0:0:0:0:
256,192,213620,1,0,0:0:0:0:
256,192,213695,1,8,0:0:0:0:
256,192,213770,1,0,0:0:0:0:
256,192,213808,1,0,0:0:0:0:
256,192,213845,1,8,0:0:0:0:
256,192,213883,1,8,0:0:0:0:
256,192,213920,1,0,0:0:0:0:
256,192,213995,1,8,0:0:0:0:
256,192,214070,1,0,0:0:0:0:
256,192,214145,1,8,0:0:0:0:
256,192,214183,1,8,0:0:0:0:
256,192,214220,1,0,0:0:0:0:
256,192,214258,1,8,0:0:0:0:
256,192,214295,1,8,0:0:0:0:
256,192,214333,1,8,0:0:0:0:
256,192,214370,1,0,0:0:0:0:
256,192,214445,1,8,0:0:0:0:
256,192,214483,1,8,0:0:0:0:
256,192,214520,1,0,0:0:0:0:
256,192,214558,1,8,0:0:0:0:
256,192,214595,1,0,0:0:0:0:
256,192,214633,1,8,0:0:0:0:
256,192,214670,1,8,0:0:0:0:
256,192,214745,1,8,0:0:0:0:
256,192,214783,1,8,0:0:0:0:
256,192,214820,1,8,0:0:0:0:
256,192,214858,1,8,0:0:0:0:
256,192,214895,1,0,0:0:0:0:
256,192,214933,1,0,0:0:0:0:
256,192,214970,1,0,0:0:0:0:
256,192,215008,1,0,0:0:0:0:
256,192,215045,1,8,0:0:0:0:
256,192,215120,1,8,0:0:0:0:
256,192,215195,1,8,0:0:0:0:
256,192,215233,1,0,0:0:0:0:
256,192,215270,1,8,0:0:0:0:
256,192,215345,1,0,0:0:0:0:
256,192,215645,1,8,0:0:0:0:
256,192,215795,1,0,0:0:0:0:
256,192,215945,1,8,0:0:0:0:
256,192,216020,1,8,0:0:0:0:
256,192,216058,1,8,0:0:0:0:
256,192,216095,1,0,0:0:0:0:
256,192,216170,1,0,0:0:0:0:
256,192,216245,1,8,0:0:0:0:
256,192,216283,1,0,0:0:0:0:
256,192,216320,1,0,0:0:0:0:
256,192,216395,1,8,0:0:0:0:
256,192,216433,1,0,0:0:0:0:
256,192,216470,1,0,0:0:0:0:
256,192,216545,1,8,0:0:0:0:
256,192,216620,1,8,0:0:0:0:
256,192,216658,1,8,0:0:0:0:
256,192,216695,1,0,0:0:0:0:
256,192,216733,1,8,0:0:0:0:
256,192,216770,1,0,0:0:0:0:
256,192,216845,1,8,0:0:0:0:
256,192,216883,1,8,0:0:0:0:
256,192,216920,1,8,0:0:0:0:
256,192,216958,1,8,0:0:0:0:
256,192,216995,1,0,0:0:0:0:
256,192,217033,1,8,0:0:0:0:
256,192,217070,1,0,0:0:0:0:
256,192,217145,1,8,0:0:0:0:
256,192,217183,1,8,0:0:0:0:
256,192,217220,1,8,0:0:0:0:
256,192,217295,1,0,0:0:0:0:
256,192,217333,1,0,0:0:0:0:
256,192,217370,1,0,0:0:0:0:
256,192,217408,1,0,0:0:0:0:
256,192,217445,1,8,0:0:0:0:
256,192,217483,1,8,0:0:0:0:
256,192,217520,1,8,0:0:0:0:
256,192,217595,1,8,0:0:0:0:
256,192,217670,1,0,0:0:0:0:
256,192,217745,1,0,0:0:0:0:
256,192,217783,1,0,0:0:0:0:
256,192,217820,1,0,0:0:0:0:
256,192,217895,1,0,0:0:0:0:
256,192,217970,1,0,0:0:0:0:
256,192,218008,1,0,0:0:0:0:
256,192,218045,1,8,0:0:0:0:
256,192,218120,1,8,0:0:0:0:
256,192,218158,1,8,0:0:0:0:
256,192,218195,1,0,0:0:0:0:
256,192,218233,1,8,0:0:0:0:
256,192,218270,1,8,0:0:0:0:
256,192,218345,1,8,0:0:0:0:
256,192,218383,1,8,0:0:0:0:
256,192,218420,1,0,0:0:0:0:
256,192,218495,1,8,0:0:0:0:
256,192,218570,1,0,0:0:0:0:
256,192,218645,1,8,0:0:0:0:
256,192,218683,1,0,0:0:0:0:
256,192,218720,1,0,0:0:0:0:
256,192,218758,1,0,0:0:0:0:
256,192,218795,1,8,0:0:0:0:
256,192,218833,1,8,0:0:0:0:
256,192,218870,1,0,0:0:0:0:
256,192,218945,1,8,0:0:0:0:
256,192,218983,1,8,0:0:0:0:
256,192,219020,1,0,0:0:0:0:
256,192,219058,1,8,0:0:0:0:
256,192,219095,1,0,0:0:0:0:
256,192,219133,1,0,0:0:0:0:
256,192,219170,1,8,0:0:0:0:
256,192,219245,1,0,0:0:0:0:
256,192,219283,1,0,0:0:0:0:
256,192,219320,1,8,0:0:0:0:
256,192,219358,1,0,0:0:0:0:
256,192,219395,1,8,0:0:0:0:
256,192,219470,1,8,0:0:0:0:
256,192,219508,1,8,0:0:0:0:
256,192,219545,1,0,0:0:0:0:
256,192,219583,1,0,0:0:0:0:
256,192,219620,1,0,0:0:0:0:
256,192,219658,1,0,0:0:0:0:
256,192,219695,1,8,0:0:0:0:
256,192,219733,1,0,0:0:0:0:
256,192,219770,1,8,0:0:0:0:
256,192,219845,1,0,0:0:0:0:
256,192,219883,1,0,0:0:0:0:
256,192,219920,1,8,0:0:0:0:
256,192,219958,1,0,0:0:0:0:
256,192,219995,1,8,0:0:0:0:
256,192,220070,1,8,0:0:0:0:
256,192,220145,1,8,0:0:0:0:
256,192,220183,1,8,0:0:0:0:
256,192,220220,1,0,0:0:0:0:
256,192,220258,1,0,0:0:0:0:
256,192,220295,1,0,0:0:0:0:
256,192,220370,1,0,0:0:0:0:
256,192,220445,1,8,0:0:0:0:
256,192,220483,1,8,0:0:0:0:
256,192,220520,1,0,0:0:0:0:
256,192,220558,1,8,0:0:0:0:
256,192,220595,1,8,0:0:0:0:
256,192,220670,1,0,0:0:0:0:
256,192,220745,1,8,0:0:0:0:
256,192,220783,1,8,0:0:0:0:
256,192,220820,1,8,0:0:0:0:
256,192,220895,1,0,0:0:0:0:
256,192,220970,1,0,0:0:0:0:
256,192,221045,1,8,0:0:0:0:
256,192,221083,1,8,0:0:0:0:
256,192,221120,1,8,0:0:0:0:
256,192,221195,1,0,0:0:0:0:
256,192,221233,1,8,0:0:0:0:
256,192,221270,1,0,0:0:0:0:
256,192,221308,1,0,0:0:0:0:
256,192,221345,1,8,0:0:0:0:
256,192,221383,1,8,0:0:0:0:
256,192,221420,1,0,0:0:0:0:
256,192,221495,1,8,0:0:0:0:
256,192,221570,1,0,0:0:0:0:
256,192,221645,1,8,0:0:0:0:
256,192,221683,1,8,0:0:0:0:
256,192,221720,1,8,0:0:0:0:
256,192,221795,1,0,0:0:0:0:
256,192,221833,1,0,0:0:0:0:
256,192,221870,1,8,0:0:0:0:
256,192,221908,1,8,0:0:0:0:
256,192,221945,1,8,0:0:0:0:
256,192,221983,1,8,0:0:0:0:
256,192,222020,1,0,0:0:0:0:
256,192,222095,1,8,0:0:0:0:
256,192,222133,1,8,0:0:0:0:
256,192,222170,1,0,0:0:0:0:
256,192,222208,1,0,0:0:0:0:
256,192,222245,1,8,0:0:0:0:
256,192,222283,1,0,0:0:0:0:
256,192,222320,1,0,0:0:0:0:
256,192,222358,1,0,0:0:0:0:
256,192,222395,1,8,0:0:0:0:
256,192,222470,1,0,0:0:0:0:
256,192,222545,1,8,0:0:0:0:
256,192,222583,1,8,0:0:0:0:
256,192,222620,1,0,0:0:0:0:
256,192,222695,1,0,0:0:0:0:
256,192,222733,1,0,0:0:0:0:
256,192,222770,1,0,0:0:0:0:
256,192,222808,1,0,0:0:0:0:
256,192,222845,1,8,0:0:0:0:
256,192,222883,1,8,0:0:0:0:
256,192,222920,1,0,0:0:0:0:
256,192,222995,1,8,0:0:0:0:
256,192,223033,1,0,0:0:0:0:
256,192,223070,1,0,0:0:0:0:
256,192,223108,1,0,0:0:0:0:
256,192,223145,1,8,0:0:0:0:
256,192,223220,1,0,0:0:0:0:
256,192,223295,1,0,0:0:0:0:
256,192,223333,1,0,0:0:0:0:
256,192,223370,1,0,0:0:0:0:
256,192,223408,1,0,0:0:0:0:
256,192,223445,1,8,0:0:0:0:
256,192,223520,1,0,0:0:0:0:
256,192,223595,1,0,0:0:0:0:
256,192,223633,1,0,0:0:0:0:
256,192,223670,1,0,0:0:0:0:
256,192,223708,1,0,0:0:0:0:
256,192,223745,1,8,0:0:0:0:
256,192,223820,1,8,0:0:0:0:
256,192,223895,1,0,0:0:0:0:
256,192,223933,1,0,0:0:0:0:
256,192,223970,1,0,0:0:0:0:
256,192,224008,1,8,0:0:0:0:
256,192,224045,1,8,0:0:0:0:
256,192,224120,1,0,0:0:0:0:
256,192,224195,1,0,0:0:0:0:
256,192,224233,1,0,0:0:0:0:
256,192,224270,1,0,0:0:0:0:
256,192,224308,1,8,0:0:0:0:
256,192,224345,1,8,0:0:0:0:
256,192,224495,1,0,0:0:0:0:
256,192,224645,1,8,0:0:0:0:
256,192,224795,1,0,0:0:0:0:
256,192,224945,1,0,0:0:0:0:
256,192,225245,1,8,0:0:0:0:
256,192,225395,1,0,0:0:0:0:
256,192,225545,5,0,0:0:0:0:
256,192,225583,1,8,0:0:0:0:
256,192,225620,1,0,0:0:0:0:
256,192,225658,1,0,0:0:0:0:
256,192,225695,1,8,0:0:0:0:
256,192,225770,1,0,0:0:0:0:
256,192,225845,1,8,0:0:0:0:
256,192,225883,1,8,0:0:0:0:
256,192,225920,1,0,0:0:0:0:
256,192,225995,1,8,0:0:0:0:
256,192,226070,1,0,0:0:0:0:
256,192,226145,1,0,0:0:0:0:
256,192,226183,1,8,0:0:0:0:
256,192,226220,1,0,0:0:0:0:
256,192,226295,1,0,0:0:0:0:
256,192,226370,1,0,0:0:0:0:
256,192,226445,1,8,0:0:0:0:
256,192,226483,1,8,0:0:0:0:
256,192,226520,1,0,0:0:0:0:
256,192,226595,1,8,0:0:0:0:
256,192,226670,1,0,0:0:0:0:
256,192,226708,1,8,0:0:0:0:
256,192,226745,1,0,0:0:0:0:
256,192,226783,1,8,0:0:0:0:
256,192,226820,1,0,0:0:0:0:
256,192,226895,1,0,0:0:0:0:
256,192,226970,1,0,0:0:0:0:
256,192,227008,1,0,0:0:0:0:
256,192,227045,1,8,0:0:0:0:
256,192,227083,1,8,0:0:0:0:
256,192,227120,1,0,0:0:0:0:
256,192,227195,1,0,0:0:0:0:
256,192,227270,1,8,0:0:0:0:
256,192,227308,1,8,0:0:0:0:
256,192,227345,1,0,0:0:0:0:
256,192,227420,1,8,0:0:0:0:
256,192,227458,1,8,0:0:0:0:
256,192,227495,1,0,0:0:0:0:
256,192,227533,1,0,0:0:0:0:
256,192,227570,1,8,0:0:0:0:
256,192,227608,1,0,0:0:0:0:
256,192,227645,1,0,0:0:0:0:
256,192,227720,1,8,0:0:0:0:
256,192,227758,1,8,0:0:0:0:
256,192,227795,1,0,0:0:0:0:
256,192,227833,1,8,0:0:0:0:
256,192,227870,1,0,0:0:0:0:
256,192,227908,1,0,0:0:0:0:
256,192,227945,1,8,0:0:0:0:
256,192,228020,1,0,0:0:0:0:
256,192,228095,1,8,0:0:0:0:
256,192,228133,1,8,0:0:0:0:
256,192,228170,1,8,0:0:0:0:
256,192,228245,1,8,0:0:0:0:
256,192,228283,1,8,0:0:0:0:
256,192,228320,1,8,0:0:0:0:
256,192,228395,1,8,0:0:0:0:
256,192,228433,1,8,0:0:0:0:
256,192,228470,1,8,0:0:0:0:
256,192,228545,1,8,0:0:0:0:
256,192,228583,1,8,0:0:0:0:
256,192,228620,1,8,0:0:0:0:
256,192,228695,1,8,0:0:0:0:
256,192,228733,1,8,0:0:0:0:
256,192,228770,1,8,0:0:0:0:
256,192,228808,1,0,0:0:0:0:
256,192,228845,1,8,0:0:0:0:
256,192,228883,1,8,0:0:0:0:
256,192,228920,1,8,0:0:0:0:
256,192,228995,1,8,0:0:0:0:
256,192,229033,1,8,0:0:0:0:
256,192,229070,1,8,0:0:0:0:
256,192,229108,1,8,0:0:0:0:
256,192,229145,1,8,0:0:0:0:
256,192,229220,1,8,0:0:0:0:
256,192,229258,1,8,0:0:0:0:
256,192,229295,1,0,0:0:0:0:
256,192,229370,1,8,0:0:0:0:
256,192,229408,1,8,0:0:0:0:
256,192,229445,1,0,0:0:0:0:
256,192,229520,1,0,0:0:0:0:
256,192,229595,1,8,0:0:0:0:
256,192,229633,1,0,0:0:0:0:
256,192,229670,1,0,0:0:0:0:
256,192,229745,1,8,0:0:0:0:
256,192,229783,1,0,0:0:0:0:
256,192,229820,1,0,0:0:0:0:
256,192,229895,1,8,0:0:0:0:
256,192,229970,1,0,0:0:0:0:
256,192,230045,1,8,0:0:0:0:
256,192,230083,1,8,0:0:0:0:
256,192,230120,1,0,0:0:0:0:
256,192,230195,1,0,0:0:0:0:
256,192,230270,1,8,0:0:0:0:
256,192,230308,1,8,0:0:0:0:
256,192,230345,1,8,0:0:0:0:
256,192,230383,1,8,0:0:0:0:
256,192,230420,1,8,0:0:0:0:
256,192,230458,1,8,0:0:0:0:
256,192,230495,1,0,0:0:0:0:
256,192,230570,1,0,0:0:0:0:
256,192,230645,1,0,0:0:0:0:
256,192,230683,1,0,0:0:0:0:
256,192,230720,1,8,0:0:0:0:
256,192,230758,1,0,0:0:0:0:
256,192,230795,1,8,0:0:0:0:
256,192,230833,1,8,0:0:0:0:
256,192,230870,1,0,0:0:0:0:
256,192,230945,1,8,0:0:0:0:
256,192,230983,1,8,0:0:0:0:
256,192,231020,1,0,0:0:0:0:
256,192,231095,1,8,0:0:0:0:
256,192,231170,1,0,0:0:0:0:
256,192,231245,1,0,0:0:0:0:
256,192,231283,1,0,0:0:0:0:
256,192,231320,1,8,0:0:0:0:
256,192,231358,1,8,0:0:0:0:
256,192,231395,1,0,0:0:0:0:
256,192,231433,1,0,0:0:0:0:
256,192,231470,1,8,0:0:0:0:
256,192,231508,1,8,0:0:0:0:
256,192,231545,1,8,0:0:0:0:
256,192,231583,1,8,0:0:0:0:
256,192,231620,1,0,0:0:0:0:
256,192,231695,1,0,0:0:0:0:
256,192,231770,1,8,0:0:0:0:
256,192,231808,1,8,0:0:0:0:
256,192,231845,1,8,0:0:0:0:
256,192,231920,1,0,0:0:0:0:
256,192,231995,1,0,0:0:0:0:
256,192,232033,1,0,0:0:0:0:
256,192,232070,1,8,0:0:0:0:
256,192,232145,1,8,0:0:0:0:
256,192,232183,1,8,0:0:0:0:
256,192,232220,1,8,0:0:0:0:
256,192,232295,1,8,0:0:0:0:
256,192,232370,1,0,0:0:0:0:
256,192,232445,1,0,0:0:0:0:
256,192,232483,1,0,0:0:0:0:
256,192,232520,1,0,0:0:0:0:
256,192,232558,1,0,0:0:0:0:
256,192,232595,1,8,0:0:0:0:
256,192,232633,1,0,0:0:0:0:
256,192,232670,1,0,0:0:0:0:
256,192,232745,1,8,0:0:0:0:
256,192,232783,1,8,0:0:0:0:
256,192,232895,1,8,0:0:0:0:
256,192,232932,1,8,0:0:0:0:
256,192,232970,1,8,0:0:0:0:
256,192,233045,1,8,0:0:0:0:
256,192,233082,1,8,0:0:0:0:
256,192,233120,1,8,0:0:0:0:
256,192,233195,1,8,0:0:0:0:
256,192,233232,1,8,0:0:0:0:
256,192,233270,1,8,0:0:0:0:
256,192,233345,1,8,0:0:0:0:
256,192,233382,1,8,0:0:0:0:
256,192,233420,1,8,0:0:0:0:
256,192,233495,1,8,0:0:0:0:
256,192,233532,1,8,0:0:0:0:
256,192,233570,1,8,0:0:0:0:
256,192,233645,1,8,0:0:0:0:
256,192,233682,1,8,0:0:0:0:
256,192,233720,1,8,0:0:0:0:
256,192,233758,1,0,0:0:0:0:
256,192,233795,1,8,0:0:0:0:
256,192,233832,1,8,0:0:0:0:
256,192,233870,1,8,0:0:0:0:
256,192,233945,1,8,0:0:0:0:
256,192,234170,1,0,0:0:0:0:
256,192,234245,1,8,0:0:0:0:
256,192,234395,1,8,0:0:0:0:
256,192,234545,1,0,0:0:0:0:
256,192,234695,1,12,0:0:0:0:
256,192,234845,1,12,0:0:0:0:
256,192,234995,1,12,0:0:0:0:
256,192,235145,1,8,0:0:0:0:
256,192,235183,1,8,0:0:0:0:
256,192,235220,1,8,0:0:0:0:
256,192,235258,1,8,0:0:0:0:
256,192,235295,1,0,0:0:0:0:
256,192,235370,1,8,0:0:0:0:
256,192,235445,1,0,0:0:0:0:
256,192,235483,1,0,0:0:0:0:
256,192,235520,1,0,0:0:0:0:
256,192,235558,1,0,0:0:0:0:
256,192,235595,1,8,0:0:0:0:
256,192,235670,1,0,0:0:0:0:
256,192,235708,1,8,0:0:0:0:
256,192,235745,1,8,0:0:0:0:
256,192,235783,1,8,0:0:0:0:
256,192,235820,1,8,0:0:0:0:
256,192,235858,1,8,0:0:0:0:
256,192,235895,1,0,0:0:0:0:
256,192,235970,1,8,0:0:0:0:
256,192,236045,1,0,0:0:0:0:
256,192,236083,1,0,0:0:0:0:
256,192,236120,1,0,0:0:0:0:
256,192,236158,1,0,0:0:0:0:
256,192,236195,1,8,0:0:0:0:
256,192,236270,1,0,0:0:0:0:
256,192,236308,1,8,0:0:0:0:
256,192,236345,1,8,0:0:0:0:
256,192,236383,1,8,0:0:0:0:
256,192,236420,1,0,0:0:0:0:
256,192,236458,1,0,0:0:0:0:
256,192,236495,1,8,0:0:0:0:
256,192,236570,1,0,0:0:0:0:
256,192,236608,1,0,0:0:0:0:
256,192,236645,1,8,0:0:0:0:
256,192,236683,1,0,0:0:0:0:
256,192,236720,1,8,0:0:0:0:
256,192,236758,1,8,0:0:0:0:
256,192,236795,1,0,0:0:0:0:
256,192,236833,1,0,0:0:0:0:
256,192,236870,1,8,0:0:0:0:
256,192,236945,1,8,0:0:0:0:
256,192,236983,1,8,0:0:0:0:
256,192,237020,1,0,0:0:0:0:
256,192,237095,1,0,0:0:0:0:
256,192,237170,1,0,0:0:0:0:
256,192,237208,1,0,0:0:0:0:
256,192,237245,1,0,0:0:0:0:
256,192,237320,1,0,0:0:0:0:
256,192,237358,1,0,0:0:0:0:
256,192,237395,1,8,0:0:0:0:
256,192,237433,1,8,0:0:0:0:
256,192,237470,1,0,0:0:0:0:
256,192,237508,1,0,0:0:0:0:
256,192,237545,1,8,0:0:0:0:
256,192,237583,1,8,0:0:0:0:
256,192,237696,1,8,0:0:0:0:
256,192,237733,1,8,0:0:0:0:
256,192,237846,1,8,0:0:0:0:
256,192,237883,1,8,0:0:0:0:
256,192,237995,1,8,0:0:0:0:
256,192,238032,1,8,0:0:0:0:
256,192,238145,1,8,0:0:0:0:
256,192,238182,1,8,0:0:0:0:
256,192,238295,1,8,0:0:0:0:
256,192,238332,1,8,0:0:0:0:
256,192,238445,1,8,0:0:0:0:
256,192,238482,1,8,0:0:0:0:
256,192,238595,1,0,0:0:0:0:
256,192,238632,1,8,0:0:0:0:
256,192,238745,1,8,0:0:0:0:
256,192,238783,1,8,0:0:0:0:
256,192,238820,1,8,0:0:0:0:
256,192,238895,1,0,0:0:0:0:
256,192,238970,1,8,0:0:0:0:
256,192,239045,1,8,0:0:0:0:
256,192,239120,1,0,0:0:0:0:
256,192,239345,1,0,0:0:0:0:
256,192,239420,1,0,0:0:0:0:
256,192,239495,1,0,0:0:0:0:
256,192,239645,1,8,0:0:0:0:
256,192,239795,1,8,0:0:0:0:
256,192,239870,1,8,0:0:0:0:
256,192,239945,1,8,0:0:0:0:
256,192,240170,1,0,0:0:0:0:
256,192,240245,1,8,0:0:0:0:
256,192,240395,1,0,0:0:0:0:
256,192,240545,1,8,0:0:0:0:
256,192,240770,1,0,0:0:0:0:
256,192,240845,1,8,0:0:0:0:
256,192,240995,1,0,0:0:0:0:
256,192,241145,1,8,0:0:0:0:
256,192,241370,1,0,0:0:0:0:
256,192,241445,1,8,0:0:0:0:
256,192,241595,1,0,0:0:0:0:
256,192,241645,1,0,0:0:0:0:
256,192,241695,1,0,0:0:0:0:
256,192,241745,1,8,0:0:0:0:
256,192,241895,1,8,0:0:0:0:
256,192,242045,1,8,0:0:0:0:
256,192,242195,1,8,0:0:0:0:
256,192,242270,1,0,0:0:0:0:
256,192,242345,1,8,0:0:0:0:
256,192,242495,1,8,0:0:0:0:
256,192,242645,1,8,0:0:0:0:
256,192,242795,1,8,0:0:0:0:
256,192,242945,1,8,0:0:0:0:
256,192,243095,1,8,0:0:0:0:
256,192,243170,1,8,0:0:0:0:
256,192,243245,1,8,0:0:0:0:
256,192,243320,1,8,0:0:0:0:
256,192,243395,1,8,0:0:0:0:
256,192,243470,1,8,0:0:0:0:
256,192,243545,1,8,0:0:0:0:
256,192,243620,1,8,0:0:0:0:
256,192,243695,1,8,0:0:0:0:
256,192,243770,1,8,0:0:0:0:
256,192,243845,1,8,0:0:0:0:
256,192,243920,1,8,0:0:0:0:
256,192,243995,1,8,0:0:0:0:
256,192,244070,1,8,0:0:0:0:
256,192,244145,1,8,0:0:0:0:
256,192,244220,1,8,0:0:0:0:
256,192,244295,1,8,0:0:0:0:
256,192,244370,1,8,0:0:0:0:
256,192,244445,1,8,0:0:0:0:
256,192,244520,1,8,0:0:0:0:
256,192,244595,1,8,0:0:0:0:
256,192,244670,1,8,0:0:0:0:
256,192,244745,1,0,0:0:0:0:
