osu file format v7

[General]
AudioFilename: 0002.mp3
AudioLeadIn: 0
PreviewTime: 76287
Countdown: 0
SampleSet: Normal
StackLeniency: 0.7
Mode: 0
LetterboxInBreaks: 1

[Editor]
DistanceSpacing: 1.39999997615814
BeatDivisor: 4
GridSize: 8

[Metadata]
Title:Hoshizora he Kakaru Hashi
Artist:Nomiko
Creator:SnowWhite
Version:hvick225
Source:Hoshizora he Kakaru Hashi
Tags:Clement Cyborg

[Difficulty]
HPDrainRate:5
CircleSize:5
OverallDifficulty:8
SliderMultiplier:2
SliderTickRate:1

[Events]
//Background and Video events
0,0,"BG.png"
//Break Periods
//Storyboard Layer 0 (Background)
//Storyboard Layer 1 (Fail)
//Storyboard Layer 2 (Pass)
//Storyboard Layer 3 (Foreground)
//Storyboard Sound Samples
//Background Colour Transformations
3,100,163,162,255

[TimingPoints]
26523,352.941176470588,4,1,0,70,1,0
61817,-100,4,2,0,70,0,0
61905,-100,4,1,0,70,0,0
77346,-100,4,1,0,70,0,1
82993,-100,4,1,0,70,0,1
88640,-100,4,1,0,70,0,1
94287,-100,4,1,0,70,0,1
97111,-100,4,1,0,70,0,0

[Colours]
Combo1 : 255,0,0
Combo2 : 255,128,255
Combo3 : 128,0,128

[HitObjects]
48,176,26523,2,0,B|72:64|200:64,1,200
272,128,27052,1,0
360,176,27228,2,0,B|464:160|472:56,2,150
456,160,27934,6,0,B|488:240|456:304|400:360,1,200
360,256,28464,2,0,B|280:328|176:352,1,200
112,280,28993,1,8
112,280,29170,1,0
24,224,29346,6,0,B|112:152|72:24,1,200
176,64,29875,1,0
176,64,30052,2,0,B|232:24|328:32,2,150
264,112,30758,2,0,B|384:128|448:224,1,200
352,264,31287,1,0
352,264,31375,1,0
352,264,31464,2,0,B|296:352|176:336,1,200
48,184,32170,6,0,B|-16:64|128:8,1,200
200,56,32699,1,8
296,24,32875,2,0,B|376:8|456:16,2,150
200,56,33581,2,0,B|320:64|440:112,1,200
352,184,34111,1,0
432,240,34287,1,0
432,240,34375,1,0
432,240,34464,1,0
360,312,34640,1,0
360,312,34817,1,0
448,360,34993,6,0,B|360:336|240:352,1,200
160,304,35523,1,8
88,232,35699,2,0,B|104:144|32:80,2,150
160,304,36405,1,0
168,288,36493,1,0
176,272,36581,1,0
184,256,36670,1,0
192,240,36758,5,0
200,224,36846,1,0
208,208,36934,1,0
216,192,37023,1,0
224,176,37111,6,0,B|232:112,1,50
240,112,37287,2,0,B|272:56,1,50
280,56,37464,2,0,B|336:32,1,50
344,40,37640,2,0,B|416:72,1,50
408,72,37817,6,0,B|480:144|456:264,1,200
360,280,38346,1,0
360,280,38523,2,0,B|304:208|344:104,2,150,2|0|2
272,320,39228,1,0
16,96,39581,1,0
352,24,39934,1,8
400,48,40023,1,8
448,72,40111,1,8
424,168,40287,6,0,B|336:112|200:112,1,200
136,136,40817,1,0
136,136,40993,2,0,B|96:192|104:248,1,100
0,232,41346,2,0,B|8:120|88:64,2,150
56,312,42052,2,0,B|120:232|272:224,1,200
232,328,42581,2,0,B|336:328|440:256,1,200
408,168,43111,1,8
456,80,43287,1,0
360,88,43464,6,0,B|280:24|216:152|144:40,1,200
72,40,43993,1,0
24,128,44170,2,0,B|56:176|32:240,2,100
128,120,44699,2,0,B|120:248|216:320,1,200
288,336,45228,6,0,B|336:320|384:288,1,100,2|0
416,200,45581,1,0
344,56,45758,1,0
232,176,45934,1,0
168,32,46111,1,0
48,144,46287,6,0,B|0:224|32:352,1,200
104,272,46817,2,0,B|136:168|256:160,1,200
312,240,47346,1,0
312,240,47434,1,0
312,240,47523,1,0
392,304,47699,1,4
192,328,48052,6,0,B|96:248|160:120,2,200
232,240,48934,1,0
232,240,49111,2,0,B|288:352|376:376|448:352|480:272|432:160,1,400,2|0
352,120,49993,1,0
272,56,50170,2,0,B|208:32|128:32,1,100
80,72,50523,5,0
128,160,50699,1,0
56,224,50875,1,8
80,272,50964,1,0
120,304,51052,1,2
216,288,51228,1,8
256,256,51317,1,0
304,240,51405,1,2
384,296,51581,2,0,B|448:296|480:240,1,100
400,176,51934,6,0,B|368:56|208:56,1,200
160,88,52464,1,0
96,160,52640,2,0,B|24:128|16:32,2,150,8|0|8
160,88,53346,2,0,B|256:128|288:280,1,200
184,264,53875,1,0
224,352,54052,1,0
272,360,54140,1,0
320,352,54228,1,0
392,280,54405,1,2
392,280,54581,1,0
440,192,54758,6,0,B|464:80|368:16,1,200
280,48,55287,1,0
192,88,55464,5,8
64,184,55640,1,0
192,280,55817,1,0
56,368,55993,6,0,B|128:320|152:288|144:160,1,200
112,104,56523,2,0,B|96:40|168:8,1,100
208,96,56875,2,0,B|240:144|312:128,1,100
392,96,57228,1,2
488,56,57405,1,0
456,152,57581,6,0,B|480:264|408:352,1,200
336,280,58111,1,8
288,288,58199,1,0
192,312,58375,1,8
144,296,58464,1,0
64,232,58640,2,0,B|32:192|32:128,1,100
120,96,58993,6,0,B|192:24|328:32,1,200
368,112,59523,1,0
440,184,59699,2,0,B|488:264|488:352,2,150,2|0|2
392,272,60405,2,0,B|312:368|184:304,1,200
128,256,60934,1,8
88,224,61023,1,0
48,192,61111,1,0
72,96,61287,1,0
136,24,61464,1,0
216,88,61640,6,0,B|256:24|328:24,1,100,0|4
336,56,61905,1,0
384,72,61993,1,0
440,152,62170,1,0
392,160,62258,1,0
344,176,62346,1,0
264,240,62523,1,2
312,256,62611,1,0
360,248,62699,1,0
400,272,62787,1,0
432,312,62875,6,0,B|336:368|200:352,1,200
72,240,63581,1,0
144,56,63934,2,0,B|216:16|304:16,2,150
72,128,64640,2,0,B|0:120,2,50
144,192,64993,2,0,B|128:248,2,50
240,160,65346,2,0,B|312:264,2,100,2|0|0
320,104,65875,5,0
400,48,66052,1,8
416,96,66140,1,8
400,144,66228,1,0
408,192,66317,1,0
408,240,66405,6,0,B|368:336|240:328,1,200
192,96,67023,1,0
48,288,67287,1,0
32,192,67464,2,0,B|-8:56|152:32,1,200
192,96,67993,1,0
232,128,68081,1,8
280,144,68170,1,2
368,96,68346,1,0
464,72,68523,1,0
432,168,68699,6,0,B|472:288|360:352,1,200
256,272,69228,1,2
136,344,69405,1,0
24,264,69581,1,2
72,136,69758,1,0
208,136,69934,1,2
256,272,70111,6,0,B|368:240|392:120,1,200
256,80,70640,1,2
144,0,70817,1,0
24,64,70993,1,2
56,200,71170,1,0
192,208,71346,1,2
256,80,71523,1,0
256,192,71611,12,0,72934
32,304,73111,5,0
48,256,73199,1,0
72,216,73287,1,0
120,128,73464,1,2
160,160,73552,1,0
184,200,73640,1,0
216,240,73728,1,0
240,288,73817,2,0,B|288:304,7,50
256,192,74523,12,0,75934
24,192,76287,5,2
256,32,76640,1,2
488,192,76993,1,2
256,352,77346,6,0,B|144:320|168:192,1,200,2|0
288,128,77875,2,0,B|400:160|376:288,1,200
256,352,78405,1,2
128,296,78581,1,2
224,192,78758,1,0
104,120,78934,1,0
224,40,79111,2,0,B|264:0|352:8,2,100
104,120,79640,1,2
104,120,79817,2,0,B|160:144|224:112,1,100
336,80,80170,6,0,B|448:112|448:256,1,200,2|0
312,192,80699,2,0,B|328:312|200:352,1,200
96,280,81228,2,0,B|24:240|8:176,1,100,2|0
64,80,81581,2,0,B|144:8|296:16,1,200
384,64,82111,1,0
424,88,82199,1,0
456,120,82287,1,2
416,256,82464,1,0
304,176,82640,1,0
264,312,82817,1,0
160,216,82993,6,0,B|40:200|40:64,1,200,2|0
160,0,83523,2,0,B|280:16|280:152,1,200
160,216,84052,1,2
120,352,84228,1,2
256,336,84405,2,0,B|296:328|368:328,1,100
464,232,84758,1,0
464,232,84934,2,0,B|432:96|296:80,1,200
216,24,85464,1,2
88,80,85640,1,2
184,184,85817,6,0,B|104:280|184:368,1,200
312,312,86346,2,0,B|424:272|408:128,1,200,2|0
328,40,86875,1,0
328,40,87052,1,0
192,80,87228,1,2
280,192,87405,1,2
144,224,87581,1,0
248,320,87758,1,0
112,352,87934,5,0
72,320,88023,1,0
56,272,88111,1,8
48,224,88199,2,0,B|40:160,1,50
120,56,88464,1,0
256,88,88640,6,0,B|376:48|448:168,1,200,2|0
504,264,89170,2,0,B|454:353|326:321,1,200
216,240,89699,1,0
216,240,89875,2,0,B|272:208|320:208,2,100,2|0|2
88,176,90405,1,0
88,176,90581,2,0,B|176:32|360:32,1,300
456,112,91287,1,0
456,112,91464,6,0,B|464:224|360:304,1,200,2|0
248,344,91993,2,0,B|176:344|136:280,2,100,0|0|0
240,200,92522,1,2
120,128,92699,1,0
248,72,92875,2,0,B|320:-8|456:32,1,200,2|0
448,168,93405,1,0
408,192,93493,1,0
368,216,93581,2,0,B|328:264|344:336,1,100,2|0
200,312,93934,2,0,B|192:256|232:200,1,100
296,96,94287,6,0,B|208:32|72:80,1,200,2|0
24,192,94817,1,8
256,352,95170,1,0
488,192,95522,2,0,B|496:64|360:56,1,200,2|0
240,32,96052,1,0
144,136,96228,1,0
72,256,96405,6,0,B|16:352,2,100
208,232,96934,1,8
312,328,97111,2,0,B|440:264,1,100
464,160,97464,1,0
464,160,97640,1,0
360,64,97817,2,0,B|224:72,1,100
128,24,98170,1,0
128,24,98346,1,0
56,144,98522,2,0,B|0:272|136:312,1,200,8|0
232,232,99052,1,0
232,232,99228,2,2,B|320:272|256:360,2,150,2|2|2
160,112,99934,6,0,C|208:16,1,100,0|8
264,152,100287,2,0,C|352:64,1,100,0|8
352,224,100640,2,0,C|464:192,1,100,0|8
400,328,100993,2,0,C|504:360,1,100,0|8
352,360,101346,2,0,B|256:304|144:368,1,200
72,248,101875,1,0
56,112,102052,2,0,B|64:48|136:16,2,100,2|0|0
192,136,102581,1,0
312,64,102758,6,0,B|432:88|424:216,1,200
312,288,103287,1,2
176,328,103464,2,0,B|120:344|64:336,2,100
120,200,103993,1,0
120,200,104170,2,0,B|32:104|160:24,1,200,2|0
272,104,104699,1,0
272,104,104875,2,0,B|336:16,1,100,2|0
400,144,105228,2,0,B|328:248,1,100,2|0
480,272,105581,6,0,B|432:368|344:368|312:368,1,200
200,296,106111,1,2
64,256,106287,2,0,B|32:200|32:128,2,100
200,296,106817,1,0
336,248,106993,2,0,B|464:208,1,100,2|0
328,128,107346,2,0,B|208:160,1,100,2|0
296,32,107699,1,8
344,24,107787,1,0
392,32,107875,1,0
432,64,107964,1,0
456,104,108052,2,0,B|480:152|464:208,1,100,2|0
368,168,108405,6,0,B|296:80|168:80,1,200
104,128,108934,1,0
56,216,109111,2,0,B|24:264|16:320,2,100
152,232,109640,1,0
152,232,109817,2,0,B|192:328|320:336,1,200
384,272,110346,1,0
384,272,110522,2,0,B|432:232|496:200,2,100
336,184,111052,1,0
368,88,111228,6,0,B|296:24|176:32,1,200,2|0
104,96,111758,1,0
104,96,111934,2,0,B|144:128|200:128,1,100
280,184,112287,2,0,B|224:232|152:224,1,100
136,312,112640,2,0,B|216:368|360:352,1,200,2|0
400,288,113170,1,0
432,192,113346,5,0
432,144,113434,1,0
416,96,113522,1,0
328,56,113699,1,0
328,104,113787,1,0
304,144,113875,1,0
216,104,114052,2,0,B|96:64|40:176,1,200
136,208,114581,1,0
136,208,114758,2,0,B|232:264,1,100,2|0
320,224,115111,2,0,B|208:160,1,100,2|0
304,104,115464,6,0,B|424:64|480:176,1,200
384,208,115993,1,0
384,208,116170,2,0,B|288:264,1,100
200,280,116522,1,8
152,288,116611,1,0
104,296,116699,1,0
56,288,116787,1,0
8,272,116875,2,0,B|-8:184|16:64,1,200,8|0
112,40,117405,1,0
208,40,117581,5,2
96,128,117758,1,0
128,264,117934,1,2
272,264,118111,1,0
312,128,118287,2,0,B|416:72,1,100,2|0
392,240,118640,2,0,B|352:352,1,100,2|0
224,248,118993,2,0,B|160:144,1,100,2|0
40,64,119346,1,0
40,64,119522,2,0,B|8:176|32:304,1,200
128,360,120052,6,0,B|240:336,1,100,2|0
360,288,120405,2,0,B|264:216,1,100,2|0
272,88,120758,1,2
272,88,120934,1,4
256,192,121022,12,0,121993
256,192,122170,5,4
256,192,122346,1,4
