osu file format v7

[General]
AudioFilename: 0002.mp3
AudioLeadIn: 0
PreviewTime: 76287
Countdown: 0
SampleSet: Normal
StackLeniency: 0.7
Mode: 0
LetterboxInBreaks: 1

[Editor]
Bookmarks: 94253
DistanceSpacing: 0.800000011920929
BeatDivisor: 2
GridSize: 8

[Metadata]
Title:Hoshizora he Kakaru Hashi
Artist:Nomiko
Creator:SnowWhite
Version:Easy
Source:Hoshizora he Kakaru Hashi
Tags:Clement Cyborg

[Difficulty]
HPDrainRate:1
CircleSize:3
OverallDifficulty:2
SliderMultiplier:1
SliderTickRate:1

[Events]
//Background and Video events
0,0,"BG.png"
//Break Periods
2,73664,75786
//Storyboard Layer 0 (Background)
//Storyboard Layer 1 (Fail)
//Storyboard Layer 2 (Pass)
//Storyboard Layer 3 (Foreground)
//Storyboard Sound Samples
//Background Colour Transformations
3,100,163,162,255

[TimingPoints]
26523,352.941176470588,4,1,0,69,1,0
77346,-100,4,1,0,76,0,1
97111,-100,4,1,0,80,0,0

[Colours]
Combo1 : 255,0,0
Combo2 : 255,128,255
Combo3 : 128,0,128

[HitObjects]
32,176,26523,2,0,B|64:56|208:64,2,200
128,256,28464,1,2
312,328,29346,2,0,B|432:312|432:168,1,200
360,48,30758,2,0,B|256:16|128:48,1,200
64,168,32170,2,0,B|184:200,1,100
240,184,32875,1,0
376,264,33581,2,0,B|456:200|440:56,2,200
232,344,35699,5,0
128,224,36405,1,0
232,104,37111,1,0
80,56,37817,2,0,B|8:128|16:256,1,200
176,272,39228,1,0
320,336,39934,2,0,B|432:288,1,100,2|0
368,232,40640,6,0,B|224:48,1,200
88,40,42052,1,0
40,152,42581,1,0
168,320,43464,6,0,B|280:304|280:160,1,200
248,104,44523,1,0
304,48,44875,1,0
440,128,45581,2,0,B|464:240,1,100
400,280,46287,6,0,B|280:264|200:352,1,200
72,272,47699,1,4
104,112,48405,1,0
248,192,49111,2,0,B|472:96,1,200
392,264,50523,1,0
248,336,51228,1,0
248,336,51581,1,0
184,288,51934,6,0,B|88:248|80:120,1,200
208,24,53346,1,4
368,40,54052,1,0
424,192,54758,2,0,B|368:288|240:304,1,200
184,296,55817,1,0
112,256,56170,2,0,B|16:200,1,100
96,160,56875,2,0,B|208:224,1,100
208,136,57581,6,0,B|248:32|416:56,1,200,2|0
456,192,58993,1,0
368,320,59699,2,0,B|280:384,1,100
224,336,60405,2,0,B|104:312|104:176,1,200
160,48,61817,1,8
320,48,62523,1,0
432,160,63228,6,0,B|320:200,1,100
288,256,63934,2,0,B|160:312|96:168,2,200
232,128,66052,1,0
360,32,66758,1,0
440,168,67464,2,0,B|368:256|216:248,1,200
192,152,68699,6,0,B|32:256|200:352,1,250,2|0
264,256,70111,2,0,B|424:144|256:56,1,250,2|0
256,192,71523,12,0,73464
32,176,77346,6,0,B|64:56|208:88,3,200,2|0|0|0
192,240,80170,2,0,B|216:360|360:336,3,200
416,200,82993,1,0
344,56,83699,1,0
208,136,84405,2,0,B|104:168,1,100
40,128,85111,2,0,B|32:240|120:320,1,200
184,320,86170,5,8
336,272,86875,1,0
216,168,87581,1,0
240,88,87934,2,0,B|320:16,1,100
384,56,88640,2,0,B|496:112|480:240,2,200,2|0|0
344,208,90758,1,0
216,304,91464,6,0,B|80:320|32:208,2,200
176,152,93581,2,0,B|240:48,1,100
304,48,94287,6,0,B|408:88|416:208,1,200
304,256,95522,1,0
232,296,95875,2,0,B|240:352,2,50
128,232,96758,1,0
88,160,97111,6,0,B|72:32|224:32,2,200,2|0|0
160,192,98875,1,0
232,232,99228,2,0,B|344:232,1,100
304,152,99934,6,0,B|232:48|40:64|8:232|144:296,1,400,2|0
184,304,101699,1,0
256,344,102052,1,0
328,304,102405,1,0
408,320,102758,6,0,B|488:248|448:104,3,200
384,96,105228,1,2
312,64,105581,2,0,B|176:88,1,100
152,32,106287,2,0,B|80:112,1,100
96,184,106993,2,0,B|48:304|192:360,2,200
152,128,108758,5,2
296,56,109464,1,0
400,184,110170,1,0
456,240,110522,2,0,B|424:344,1,100
344,352,111228,2,0,B|224:376|120:296,1,200,2|0
88,264,112287,1,0
72,184,112640,5,0
176,64,113346,1,0
280,184,114052,2,0,B|320:224|400:208,1,100
408,136,114758,1,2
408,136,115111,1,2
464,200,115464,6,0,B|448:320|320:304,1,200
168,256,116875,1,0
96,112,117581,1,0
248,64,118287,2,0,B|344:32,1,100,2|0
344,112,118993,2,0,B|448:144,1,100
392,208,119699,2,0,B|360:336|224:296,1,200
176,256,120758,1,0
256,192,120934,12,4,122346
