osu file format v5

[General]
AudioFilename: Bad Apple.mp3
AudioLeadIn: 0
PreviewTime: -1
Countdown: 1
SampleSet: Normal
StackLeniency: 0.7
Mode: 0
EditorBookmarks: 6781,54462

[Metadata]
Title:Bad Apple!!
Artist:Nomico
Creator:borisxiao
Version:Normal

[Difficulty]
HPDrainRate:4
CircleSize:5
OverallDifficulty:6
SliderMultiplier:1.4
SliderTickRate:1

[Events]
//Background and Video events
//Break Periods
2,42053,53992
2,139444,151383
//Storyboard Layer 0 (Background)
//Storyboard Layer 1 (Failing)
//Storyboard Layer 2 (Passing)
//Storyboard Layer 3 (Foreground)
//Storyboard Sound Samples
//Background Colour Transformations
3,100,163,162,255

[TimingPoints]
3800,434.7815648,4,1,0,100

[HitObjects]
256,192,3737,2,0,B|160:64,1,140
288,96,4669,1,0
192,160,5104,1,0
192,160,5212,1,0
192,160,5321,1,0
192,160,5430,1,0
192,160,5538,1,0
224,256,5973,6,0,B|352:160,1,140
288,320,6843,1,0
320,288,7060,1,0
352,256,7277,1,0
256,192,7713,6,0,B|128:288,1,140
95,194,8582,1,0
96,192,8691,1,0
96,192,8799,1,0
96,192,8908,1,0
96,192,9017,1,0
192,192,9452,5,0
224,224,9669,1,0
256,192,9886,1,0
224,160,10104,1,0
192,192,10321,1,0
224,224,10539,1,0
256,192,10756,2,0,B|512:0,3,280
384,64,13799,5,4
256,128,14234,2,0,B|128:192,1,140
128,224,14886,1,0
128,256,15104,2,0,B|256:320,1,140
288,320,15756,1,0
320,320,15973,2,0,B|448:256,1,140
416,192,16626,1,0
352,192,16843,1,0
288,192,17060,1,0
224,192,17278,1,0
160,192,17495,1,0
96,192,17713,6,0,B|96:96|96:96|160:96|128:96,1,140
192,96,18365,1,0
256,96,18582,2,0,B|352:96|352:96|352:160,1,140
352,192,19234,1,0
352,256,19452,2,0,B|352:352|352:352|256:352,1,140
256,352,20104,1,0
224,320,20321,1,0
192,288,20539,1,0
160,256,20756,1,0
128,224,20973,1,0
96,192,21191,5,0
96,192,21299,1,0
96,192,21408,1,0
160,192,21626,1,0
224,192,21843,1,0
288,192,22060,1,0
288,192,22169,1,0
288,192,22278,1,0
352,192,22495,1,0
416,192,22712,1,0
416,128,22930,1,0
416,128,23039,1,0
416,128,23147,1,0
352,128,23365,1,0
288,128,23582,1,0
224,128,23799,1,0
160,96,24089,1,0
96,128,24379,1,0
96,192,24669,6,0,B|416:192,2,280
32,192,26843,1,0
128,160,27278,5,0
160,192,27423,1,0
192,224,27568,1,0
224,192,27712,1,0
256,224,27857,1,0
288,256,28002,1,0
320,288,28147,6,0,B|512:288|512:96,1,280
416,192,29452,1,0
416,128,29886,2,0,B|224:128|224:320,1,280
160,288,31191,1,0
160,288,31408,1,0
96,288,31626,2,0,B|96:96|288:96,1,280
320,96,32930,1,0
320,192,33365,1,0
221,138,33799,1,0
333,138,34234,2,0,B|398:138,5,46.6666666666667
256,192,35104,12,0,38147
288,160,38582,1,0
256,128,38799,1,0
224,160,39017,1,0
128,96,39452,5,0
96,128,39669,1,0
64,160,39886,1,0
96,256,40321,5,0
128,288,40539,1,0
160,320,40756,1,0
160,192,41191,5,0
192,192,41336,1,0
224,192,41481,1,0
256,192,41625,1,0
288,192,41770,1,0
320,192,41915,1,0
256,192,55104,5,0
256,192,55249,1,0
256,192,55394,1,0
256,192,55539,1,0
256,192,55683,1,0
256,192,55828,1,0
256,224,55973,6,4,B|320:192|320:192|352:256|352:256|384:96,1,280
256,96,57278,1,2
224,128,57495,1,0
192,160,57712,1,2
192,256,58147,1,0
256,192,58582,12,0,59017
256,256,59452,6,0,B|384:192|256:96|128:320|96:256,1,280
128,192,60756,1,0
256,192,61191,1,2
384,192,61625,1,2
352,160,62060,5,2
288,160,62278,1,2
224,160,62495,1,2
160,160,62712,1,2
96,160,62930,6,0,B|256:32|416:32|352:32,1,280
384,128,64234,1,2
384,192,64452,1,0
384,256,64669,1,2
288,320,65104,1,0
256,192,65538,12,0,65973
224,64,66408,2,0,B|320:64,4,70
224,160,67712,1,2
224,224,67930,1,0
224,288,68147,1,2
416,192,68582,1,2
224,32,69017,1,2
32,192,69452,1,6
224,320,69886,6,0,B|192:288|192:288|320:224|320:224|224:192,1,280
224,96,71191,1,0
256,128,71408,1,0
288,160,71625,1,0
384,160,72060,1,0
256,192,72495,12,0,72930
96,320,73365,2,0,B|32:128|128:32,1,280
384,64,74669,2,0,B|480:192|352:352,1,280
256,320,75973,5,0
256,256,76191,1,0
256,192,76408,1,0
256,128,76625,1,0
256,192,76843,12,0,77712
224,64,78147,2,0,B|320:64,2,70
224,64,79017,1,0
224,160,79451,5,2
288,160,79669,1,0
320,192,79886,1,2
384,192,80104,1,0
256,192,80321,12,0,80756
256,192,81191,12,0,81625
256,192,82060,12,0,82495
256,192,82930,12,0,83365
128,192,83799,5,0
192,192,84017,1,0
256,192,84234,1,0
320,192,84451,1,0
384,192,84669,1,0
256,0,85104,5,0
256,64,85321,1,0
256,128,85538,1,0
256,192,85756,1,0
256,256,85973,1,0
256,320,86191,1,0
256,384,86408,1,0
64,192,86843,5,0
128,192,87060,1,0
192,192,87278,1,0
256,192,87495,1,0
320,192,87712,1,0
384,192,87930,1,0
448,192,88147,1,0
256,128,88582,5,0
192,160,88799,1,0
192,224,89017,1,0
256,256,89234,1,0
320,224,89451,1,0
320,160,89669,1,0
256,128,89886,1,0
256,192,90321,6,0,B|256:96,1,70
256,192,90756,2,0,B|320:160,1,70
256,192,91191,2,0,B|320:224,1,70
256,192,91625,2,0,B|256:288,1,70
256,192,92060,2,0,B|192:224,1,70
256,192,92495,2,0,B|192:160,1,70
256,192,92930,2,0,B|256:96,2,70
256,32,93799,2,0,B|512:0|512:192|512:384|256:352|0:384|0:0|352:160,1,980
256,192,97278,5,0
320,224,97495,1,0
256,256,97712,1,0
192,224,97930,1,0
192,160,98147,1,0
256,128,98364,1,0
320,160,98582,1,0
256,192,99017,5,0
192,224,99234,1,0
256,256,99451,1,0
320,224,99669,1,0
320,160,99886,1,0
256,128,100104,1,0
192,160,100321,1,0
256,192,100756,6,0,B|128:256|128:256|256:320|256:320|384:256|384:256|384:128|384:128|256:64|256:64|128:128|128:128|128:288,1,980
160,288,104234,5,0
192,256,104451,1,0
224,224,104669,1,0
256,192,104886,1,0
288,160,105104,1,0
320,128,105321,1,0
352,96,105538,1,0
352,288,105973,5,0
320,256,106191,1,0
288,224,106408,1,0
256,192,106625,1,0
224,160,106843,1,0
192,128,107060,1,0
160,96,107278,1,0
256,192,107712,12,0,109017
256,32,109451,2,0,B|256:128,1,70
256,128,109886,2,0,B|256:224,1,70
256,224,110321,2,0,B|256:320,1,70
256,352,110756,1,0
480,352,111625,5,0
480,32,112495,1,0
32,32,113364,1,0
32,352,114234,1,0
256,352,115104,5,0
512,192,115973,1,0
256,0,116843,1,0
0,192,117712,1,0
256,320,118582,6,0,B|448:192|448:192|256:64|256:64|64:192|64:192|192:288,1,840
256,320,122060,6,0,B|64:192|64:192|256:64|256:64|448:192|448:192|320:288,1,840
256,192,125538,5,0
256,192,127277,1,0
256,192,129017,1,0
256,192,130756,1,0
256,96,132495,5,0
256,160,133364,1,0
256,224,134234,1,0
256,288,135104,1,0
288,256,135973,1,0
224,192,136843,1,0
288,128,137712,1,0
224,160,138582,5,2
224,192,138727,1,0
224,224,138872,1,2
288,192,139017,1,0
288,224,139161,1,2
288,256,139306,1,0
320,160,152495,1,0
256,256,152785,1,0
192,160,153075,1,0
