osu file format v14

[General]
AudioFilename: Death Parade ED - Ending [HD 720P].mp3
AudioLeadIn: 0
PreviewTime: -1
Countdown: 1
SampleSet: Soft
StackLeniency: 0.7
Mode: 0
LetterboxInBreaks: 1
WidescreenStoryboard: 0

[Editor]
DistanceSpacing: 1.8
BeatDivisor: 4
GridSize: 4
TimelineZoom: 1.4

[Metadata]
Title:Last Theater
TitleUnicode:Last Theater
Artist:NoisyCell
ArtistUnicode:NoisyCell
Creator:DerThan
Version:Insane
Source:Death Parade Anime
Tags:
BeatmapID:676621
BeatmapSetID:301791

[Difficulty]
HPDrainRate:8.6
CircleSize:5
OverallDifficulty:7.5
ApproachRate:9.2
SliderMultiplier:1.4
SliderTickRate:1

[Events]
//Background and Video events
//Break Periods
2,36004,37170
//Storyboard Layer 0 (Background)
//Storyboard Layer 1 (Fail)
//Storyboard Layer 2 (Pass)
//Storyboard Layer 3 (Foreground)
//Storyboard Sound Samples

[TimingPoints]
0,387.096774193548,4,2,0,60,1,0
28745,387.096774193548,4,2,0,60,1,0
42777,387.096774193548,4,2,0,60,1,0

[Colours]
Combo1 : 149,0,119
Combo2 : 201,201,201
Combo3 : 72,72,72
Combo4 : 27,0,74

[HitObjects]
124,176,193,5,0,0:0:0:0:
124,176,387,1,0,0:0:0:0:
148,292,580,1,0,0:0:0:0:
148,292,677,1,0,0:0:0:0:
148,292,774,2,0,P|204:300|232:288,1,70
328,236,1161,5,0,0:0:0:0:
416,148,1354,1,0,0:0:0:0:
444,272,1548,1,0,0:0:0:0:
356,184,1741,1,0,0:0:0:0:
356,184,1838,1,0,0:0:0:0:
356,184,1935,2,0,P|332:132|304:124,1,70
216,60,2322,5,0,0:0:0:0:
216,60,2419,1,0,0:0:0:0:
216,60,2516,2,0,P|160:60|120:84,1,70
132,188,2903,1,0,0:0:0:0:
132,188,2999,1,0,0:0:0:0:
132,188,3096,2,0,P|176:192|204:180,1,70
300,104,3483,6,0,L|356:108,1,35
372,52,3677,2,0,L|312:44,1,35
272,44,3870,2,0,P|236:44|196:64,1,70
208,184,4258,1,0,0:0:0:0:
100,116,4451,1,0,0:0:0:0:
108,244,4645,2,0,L|148:260,1,35
128,320,4838,2,0,L|76:304,1,35
212,312,5032,2,0,P|256:312|304:280,1,70
252,180,5419,5,0,0:0:0:0:
348,260,5612,1,0,0:0:0:0:
224,280,5806,1,0,0:0:0:0:
308,184,5999,1,0,0:0:0:0:
332,308,6193,1,0,0:0:0:0:
260,204,6387,1,0,0:0:0:0:
248,180,6483,1,0,0:0:0:0:
232,156,6580,1,0,0:0:0:0:
216,132,6677,1,0,0:0:0:0:
196,112,6774,1,0,0:0:0:0:
176,96,6870,1,0,0:0:0:0:
152,80,6967,1,4,0:0:0:0:
276,52,7161,5,0,0:0:0:0:
320,168,7354,1,0,0:0:0:0:
376,52,7548,1,0,0:0:0:0:
376,52,7645,1,0,0:0:0:0:
376,52,7741,2,0,P|408:84|416:112,1,70
292,136,8129,5,0,0:0:0:0:
292,136,8225,1,0,0:0:0:0:
292,136,8322,2,0,P|264:88|236:76,1,70
176,184,8709,1,0,0:0:0:0:
176,184,8806,1,0,0:0:0:0:
176,184,8903,2,0,P|192:236|204:244,1,70
280,144,9290,6,0,L|328:144,1,35
324,80,9483,2,0,L|280:80,1,35
224,88,9677,2,0,L|200:120,1,35
260,140,9870,2,0,L|284:104,1,35
320,64,10064,2,0,P|356:40|400:32,1,70
336,152,10451,5,0,0:0:0:0:
328,280,10645,1,0,0:0:0:0:
224,208,10838,2,0,P|208:160|184:140,1,70
144,260,11225,2,0,P|156:200|232:152,1,140
328,100,11806,1,0,0:0:0:0:
328,224,11999,1,0,0:0:0:0:
432,152,12193,1,0,0:0:0:0:
304,156,12387,1,0,0:0:0:0:
412,224,12580,1,0,0:0:0:0:
408,96,12774,1,0,0:0:0:0:
292,48,12967,5,0,0:0:0:0:
292,48,13064,1,0,0:0:0:0:
292,48,13161,2,0,P|220:40|164:72,1,140
163,72,13677,2,0,P|180:144|148:208,1,140
153,202,14322,2,0,P|188:255|380:196,1,280
152,96,15483,5,0,0:0:0:0:
192,216,15677,1,0,0:0:0:0:
284,132,15870,1,0,0:0:0:0:
156,128,16064,1,0,0:0:0:0:
156,128,16161,1,0,0:0:0:0:
156,128,16258,2,0,P|96:156|84:232,1,140
81,223,16838,2,0,P|76:292|136:312,1,140
133,312,17419,2,0,B|192:280|264:200|392:272,1,280
264,52,18580,5,0,0:0:0:0:
332,160,18774,1,0,0:0:0:0:
208,152,18967,1,0,0:0:0:0:
268,40,19161,1,0,0:0:0:0:
356,128,19354,2,0,P|388:176|380:272,1,140
444,232,19935,2,0,P|424:188|328:204,1,140
392,240,20516,2,0,P|400:184|352:104,2,140
280,296,21483,5,0,0:0:0:0:
248,172,21677,1,0,0:0:0:0:
156,256,21870,1,0,0:0:0:0:
156,256,21967,1,0,0:0:0:0:
156,256,22064,2,0,P|136:212|148:184,1,70
244,120,22451,5,0,0:0:0:0:
288,240,22645,1,0,0:0:0:0:
344,128,22838,1,0,0:0:0:0:
384,248,23032,1,0,0:0:0:0:
384,248,23129,1,0,0:0:0:0:
384,248,23225,1,0,0:0:0:0:
256,256,23419,1,0,0:0:0:0:
256,256,23516,1,0,0:0:0:0:
256,256,23612,2,0,B|206:287|154:282|119:230,1,140
204,140,24193,1,0,0:0:0:0:
292,232,24387,6,0,B|352:248|400:232|416:192,1,140
324,108,24967,1,0,0:0:0:0:
232,196,25161,2,0,B|177:161|160:111|182:59,2,140
280,76,26129,1,0,0:0:0:0:
336,188,26322,1,0,0:0:0:0:
396,76,26516,1,0,0:0:0:0:
432,196,26709,1,0,0:0:0:0:
360,92,26903,5,0,0:0:0:0:
360,92,26999,1,0,0:0:0:0:
360,92,27096,2,0,P|332:52|292:44,2,70
240,300,27967,1,0,0:0:0:0:
240,300,28064,1,0,0:0:0:0:
152,264,28209,1,0,0:0:0:0:
128,216,28354,1,0,0:0:0:0:
124,164,28499,1,0,0:0:0:0:
140,112,28645,1,0,0:0:0:0:
176,76,28885,1,0,0:0:0:0:
472,36,29998,5,0,0:0:0:0:
120,320,31546,1,0,0:0:0:0:
440,336,33095,1,0,0:0:0:0:
196,156,34643,1,0,0:0:0:0:
196,156,34836,1,0,0:0:0:0:
388,72,35417,2,0,P|432:120|448:220,1,140
108,96,37740,5,0,0:0:0:0:
108,96,37933,2,0,B|184:72|268:84|320:112|352:172|356:232|352:280|332:324|260:352|192:328|152:288|160:248|196:184|236:160|304:144|364:116|420:96|476:240,1,840
256,192,40643,12,0,42385,0:0:0:0:
184,188,42777,5,0,0:0:0:0:
292,188,43164,1,0,0:0:0:0:
244,56,43551,1,0,0:0:0:0:
240,312,43938,1,0,0:0:0:0:
444,164,44325,2,0,P|368:296|268:312,1,245
148,104,45482,1,0,0:0:0:0:
372,136,45777,5,0,0:0:0:0:
288,232,45971,1,0,0:0:0:0:
412,260,46164,1,0,0:0:0:0:
340,156,46358,1,0,0:0:0:0:
340,156,46455,1,0,0:0:0:0:
340,156,46551,1,0,0:0:0:0:
240,236,46745,2,0,P|192:252|164:232,1,70
140,124,47132,2,0,P|184:112|224:132,2,70
104,244,47713,1,0,0:0:0:0:
220,192,47906,1,0,0:0:0:0:
344,212,48100,1,0,0:0:0:0:
236,316,48293,5,0,0:0:0:0:
236,316,48390,1,0,0:0:0:0:
236,316,48486,2,0,P|288:312|304:292,1,70
364,192,48874,1,0,0:0:0:0:
344,68,49068,1,0,0:0:0:0:
216,68,49261,2,0,P|180:72|158:97,1,70
156,168,49648,2,0,P|156:216|164:248,1,70
364,204,50035,6,0,L|376:164,1,35
436,180,50229,2,0,L|428:232,1,35
424,276,50422,2,0,P|384:288|336:280,1,70
256,208,50810,1,0,0:0:0:0:
252,80,51004,1,0,0:0:0:0:
144,144,51197,1,0,0:0:0:0:
304,136,51390,2,0,P|336:156|356:200,2,70
200,68,51971,5,0,0:0:0:0:
196,196,52164,1,0,0:0:0:0:
296,120,52358,1,0,0:0:0:0:
328,244,52551,1,0,0:0:0:0:
268,132,52745,1,0,0:0:0:0:
392,120,52939,1,0,0:0:0:0:
392,120,53036,1,0,0:0:0:0:
392,120,53133,2,0,P|408:164|404:208,1,70
308,264,53519,5,0,0:0:0:0:
308,264,53708,1,0,0:0:0:0:
180,264,53906,1,0,0:0:0:0:
180,264,54000,1,0,0:0:0:0:
180,264,54096,2,0,P|128:232|128:200,1,70
180,116,54483,5,0,0:0:0:0:
180,116,54580,1,0,0:0:0:0:
180,116,54677,2,0,P|228:100|264:104,1,70
244,224,55064,6,0,L|216:264,1,35
284,276,55258,2,0,L|304:240,1,35
364,256,55451,2,0,L|344:296,1,35
292,320,55645,1,0,0:0:0:0:
264,324,55741,1,0,0:0:0:0:
236,316,55838,1,0,0:0:0:0:
216,296,55935,1,0,0:0:0:0:
208,268,56032,1,0,0:0:0:0:
208,240,56129,1,0,0:0:0:0:
216,212,56225,1,0,0:0:0:0:
224,184,56322,1,0,0:0:0:0:
232,156,56419,1,0,0:0:0:0:
244,132,56516,1,0,0:0:0:0:
260,108,56612,1,0,0:0:0:0:
152,80,57000,5,0,0:0:0:0:
216,188,57193,1,0,0:0:0:0:
296,92,57387,1,0,0:0:0:0:
176,124,57580,1,0,0:0:0:0:
176,124,57677,1,0,0:0:0:0:
176,124,57774,1,0,0:0:0:0:
272,204,57967,1,0,0:0:0:0:
372,124,58161,1,0,0:0:0:0:
372,124,58258,1,0,0:0:0:0:
372,124,58354,1,0,0:0:0:0:
364,252,58552,5,0,0:0:0:0:
248,300,58745,1,0,0:0:0:0:
248,300,58842,1,0,0:0:0:0:
248,300,58939,1,0,0:0:0:0:
368,264,59133,1,0,0:0:0:0:
336,144,59326,1,0,0:0:0:0:
332,116,59423,1,0,0:0:0:0:
320,92,59520,1,0,0:0:0:0:
304,68,59616,1,0,0:0:0:0:
280,52,59713,1,0,0:0:0:0:
156,80,59907,5,0,0:0:0:0:
220,188,60100,1,0,0:0:0:0:
308,100,60294,1,0,0:0:0:0:
184,116,60487,1,0,0:0:0:0:
136,232,60681,2,0,P|156:264|200:280,1,70
244,168,61068,5,0,0:0:0:0:
344,244,61262,1,0,0:0:0:0:
220,248,61455,2,0,P|180:220|168:176,1,70
224,88,61842,1,0,0:0:0:0:
348,108,62036,2,0,P|392:128|408:176,1,70
300,216,62423,6,0,L|292:176,1,35
232,180,62616,2,0,L|240:216,1,35
180,232,62810,2,0,P|160:181|178:145,1,70
252,76,63197,5,0,0:0:0:0:
300,192,63391,1,0,0:0:0:0:
368,88,63584,1,0,0:0:0:0:
368,88,63681,1,0,0:0:0:0:
368,88,63778,1,0,0:0:0:0:
364,216,63971,1,0,0:0:0:0:
244,256,64165,1,0,0:0:0:0:
244,256,64262,1,0,0:0:0:0:
244,256,64358,2,0,P|192:216|192:188,1,70
296,144,64745,5,0,0:0:0:0:
344,260,64939,1,0,0:0:0:0:
396,144,65133,2,0,P|384:80|368:60,1,70
256,72,65520,1,0,0:0:0:0:
256,72,65616,1,0,0:0:0:0:
256,72,65713,2,0,P|224:116|232:152,1,70
404,320,66100,5,0,0:0:0:0:
408,192,66294,1,0,0:0:0:0:
180,80,66681,5,0,0:0:0:0:
108,184,66875,1,0,0:0:0:0:
136,252,67164,6,0,B|140:164|192:96|316:144|364:256|432:128|320:48|212:40|56:104,1,560
