osu file format v12

[General]
AudioFilename: stigma.mp3
AudioLeadIn: 0
PreviewTime: 89116
Countdown: 0
SampleSet: Soft
StackLeniency: 0.7
Mode: 0
LetterboxInBreaks: 1
WidescreenStoryboard: 1

[Editor]
Bookmarks: 33651,44814,55976,67139,78302,89465,111790,134116,145279,156442,178767
DistanceSpacing: 0.5
BeatDivisor: 4
GridSize: 4
TimelineZoom: 3.699998

[Metadata]
Title:Stigma
TitleUnicode:Stigma
Artist:Noisia
ArtistUnicode:Noisia
Creator:Natteke
Version:Nsane
Source:
Tags:dnb Split The Atom W_h_i_t_e TicClick
BeatmapID:356498
BeatmapSetID:143281

[Difficulty]
HPDrainRate:6
CircleSize:4
OverallDifficulty:7
ApproachRate:9
SliderMultiplier:1.8
SliderTickRate:1

[Events]
//Background and Video events
0,0,"bg.jpg",0,0
//Break Periods
2,67339,77702
//Storyboard Layer 0 (Background)
//Storyboard Layer 1 (Fail)
//Storyboard Layer 2 (Pass)
//Storyboard Layer 3 (Foreground)
//Storyboard Sound Samples
//Background Colour Transformations
3,100,0,0,0

[TimingPoints]
163,348.837209302326,4,2,1,5,1,0
33476,-100,4,2,1,90,0,0
78128,-100,4,2,2,75,0,0
88069,-100,4,2,2,70,0,0
89465,-100,4,2,2,90,0,0
100715,-100,4,2,2,5,0,0
100802,-100,4,2,2,90,0,0
111354,-100,4,2,0,50,0,0
111529,-100,4,2,2,5,0,0
111703,-100,4,2,2,90,0,0
111878,-100,4,2,2,5,0,0
112052,-100,4,2,2,90,0,0
128360,-125,4,2,2,90,0,0
129843,-142.857142857143,4,2,2,70,0,0
130540,-142.857142857143,4,2,2,30,0,0
131238,-142.857142857143,4,2,2,5,0,0
134116,-90.9090909090909,4,1,0,80,0,1
153564,-111.111111111111,4,1,0,50,0,1
156093,-100,4,1,0,80,0,0
156267,-100,4,2,2,80,0,0
178942,-100,4,1,0,5,0,0

[Colours]
Combo1 : 17,254,176
Combo2 : 173,255,95
Combo3 : 255,88,100
Combo4 : 255,94,55

[HitObjects]
256,192,31732,12,0,33302,0:0:0:0:
403,71,33651,6,0,L|394:258,2,180,2|2|8,0:0|0:0|0:0,0:0:0:0:
288,140,34523,2,0,P|248:120|191:131,1,90,2|0,0:0|0:0,0:0:0:0:
32,196,34872,6,0,P|105:245|203:208,1,180,8|0,0:0|0:0,0:0:0:0:
296,324,35395,2,0,L|186:341,1,90,2|0,0:0|0:0,0:0:0:0:
352,224,35744,2,0,L|456:212,1,90,8|2,0:0|0:0,0:0:0:0:
412,320,36093,1,0,0:0:0:0:
412,120,36267,1,8,0:0:0:0:
255,205,36442,6,0,B|184:192|184:192|148:199|148:199|55:181,1,180,2|2,0:0|0:0,0:0:0:0:
144,84,36965,1,0,0:0:0:0:
104,288,37139,2,0,P|148:302|200:302,2,90,8|2|0,0:0|0:0|0:0,0:0:0:0:
284,352,37663,6,0,P|307:275|410:237,1,180,8|0,0:0|0:0,0:0:0:0:
392,332,38186,1,2,0:0:0:0:
292,172,38360,1,0,0:0:0:0:
408,32,38535,2,0,L|413:132,1,90,8|2,0:0|0:0,0:0:0:0:
196,260,38883,2,0,L|192:144,1,90,0|8,0:0|0:0,0:0:0:0:
124,48,39232,6,0,P|79:93|70:214,2,180,2|2|8,0:0|0:0|0:0,0:0:0:0:
268,148,40104,2,0,L|171:140,1,90,2|0,0:0|0:0,0:0:0:0:
197,261,40453,6,0,P|281:267|391:273,1,180,8|0,0:0|0:0,0:0:0:0:
428,168,40976,2,0,P|438:121|436:69,1,90,2|0,0:0|0:0,0:0:0:0:
272,32,41325,2,0,P|262:79|264:131,1,90,8|2,0:0|0:0,0:0:0:0:
328,296,41674,2,0,P|338:249|336:197,1,90,0|8,0:0|0:0,0:0:0:0:
216,232,42023,6,0,B|176:200|128:204|128:204|72:216|28:192,1,180,2|2,0:0|0:0,0:0:0:0:
88,124,42546,2,0,P|84:78|68:35,2,90,0|8|2,0:0|0:0|0:0,0:0:0:0:
140,292,43069,1,0,0:0:0:0:
168,184,43244,2,0,L|354:201,1,180,8|0,0:0|0:0,0:0:0:0:
412,120,43767,5,2,0:0:0:0:
440,228,43942,1,0,0:0:0:0:
256,224,44116,1,8,0:0:0:0:
284,116,44291,1,2,0:0:0:0:
344,304,44465,1,0,0:0:0:0:
348,200,44639,1,8,0:0:0:0:
284,116,44814,6,0,L|176:108,1,90,2|0,0:0|0:0,0:0:0:0:
194,109,45075,1,0,0:0:0:0:
194,109,45163,1,2,0:0:0:0:
64,208,45337,1,0,0:0:0:0:
136,340,45511,1,8,0:0:0:0:
276,264,45686,1,2,0:0:0:0:
280,263,45773,1,4,0:3:0:0:
284,262,45860,1,4,0:3:0:0:
288,261,45947,1,4,0:3:0:0:
292,260,46035,2,0,L|469:231,1,180,8|0,0:0|0:0,0:0:0:0:
340,160,46558,6,0,L|228:180,1,90,2|0,0:0|0:0,0:0:0:0:
392,340,46907,2,0,L|504:320,1,90,8|2,0:0|0:0,0:0:0:0:
448,176,47256,1,4,0:3:0:0:
458,146,47343,1,4,0:3:0:0:
452,115,47430,1,12,0:3:0:0:
430,92,47517,1,4,0:3:0:0:
400,81,47604,5,2,0:0:0:0:
294,90,47779,1,0,0:0:0:0:
289,89,47866,1,0,0:0:0:0:
284,88,47953,2,0,L|98:70,1,180,2|8,0:0|0:0,0:0:0:0:
232,172,48476,2,0,P|248:207|250:268,1,90,2|0,0:0|0:0,0:0:0:0:
376,321,48825,2,0,P|381:232|344:152,1,180,8|0,0:0|0:0,0:0:0:0:
142,162,49349,6,0,L|232:172,1,90,2|0,0:0|0:0,0:0:0:0:
148,328,49697,2,0,L|237:318,1,90,8|2,0:0|0:0,0:0:0:0:
344,252,50046,1,4,0:3:0:0:
368,232,50133,1,4,0:3:0:0:
379,202,50221,1,8,0:0:0:0:
375,170,50308,1,4,0:3:0:0:
358,143,50395,5,2,0:0:0:0:
224,52,50569,1,0,0:0:0:0:
224,52,50657,1,0,0:0:0:0:
224,52,50744,2,0,L|236:240,1,180,2|8,0:0|0:0,0:0:0:0:
152,328,51267,2,0,L|52:324,1,90,2|0,0:0|0:0,0:0:0:0:
248,312,51616,2,0,B|319:317|319:317|353:312|353:312|441:319,1,180,8|0,0:0|0:0,0:0:0:0:
340,216,52139,6,0,L|343:126,1,90,2|0,0:0|0:0,0:0:0:0:
168,48,52488,2,0,L|171:137,1,90,8|2,0:0|0:0,0:0:0:0:
171,137,52750,1,0,0:0:0:0:
171,137,52837,1,0,0:0:0:0:
112,344,53011,1,8,0:0:0:0:
64,232,53186,6,0,P|147:223|228:275,1,180,2|2,0:0|0:0,0:0:0:0:
320,340,53709,2,0,P|372:341|420:321,1,90,0|8,0:0|0:0,0:0:0:0:
300,168,54058,2,0,P|333:207|346:253,1,90,2|0,0:0|0:0,0:0:0:0:
457,67,54407,6,0,P|392:79|278:24,1,180,8|0,0:0|0:0,0:0:0:0:
72,90,54930,1,2,0:0:0:0:
80,88,55017,1,4,0:3:0:0:
88,86,55104,1,4,0:3:0:0:
97,84,55192,1,4,0:3:0:0:
105,83,55279,1,8,0:0:0:0:
208,156,55453,1,4,0:3:0:0:
182,181,55540,1,4,0:3:0:0:
176,216,55628,1,0,0:0:0:0:
184,250,55715,1,4,0:3:0:0:
206,278,55802,1,8,0:0:0:0:
348,341,55976,6,0,B|360:288|360:288|336:148,1,180,2|2,0:0|0:0,0:0:0:0:
396,32,56500,2,0,L|409:124,1,90,0|8,0:0|0:0,0:0:0:0:
164,43,56849,2,0,B|152:96|152:96|176:236,1,180,2|8,0:0|0:0,0:0:0:0:
173,219,57285,1,0,0:0:0:0:
173,219,57372,6,0,L|64:215,1,90,2|0,0:0|0:0,0:0:0:0:
348,340,57721,2,0,L|457:344,1,90,2|0,0:0|0:0,0:0:0:0:
316,112,58069,1,8,0:0:0:0:
316,112,58157,1,0,0:0:0:0:
316,112,58244,2,0,B|292:176|292:176|288:216|288:216|256:292,1,180,2|8,0:0|0:0,0:0:0:0:
460,120,58767,6,0,L|388:179,1,90,2|0,0:0|0:0,0:0:0:0:
200,40,59116,2,0,L|208:132,1,90,2|0,0:0|0:0,0:0:0:0:
236,336,59465,1,8,0:0:0:0:
188,256,59639,2,0,P|272:248|328:328,1,180,2|8,0:0|0:0,0:0:0:0:
64,240,60163,6,0,L|58:51,1,180,2|2,0:0|0:0,0:0:0:0:
276,88,60686,1,0,0:0:0:0:
276,88,60773,1,0,0:0:0:0:
276,88,60860,2,0,L|168:100,1,90,8|2,0:0|0:0,0:0:0:0:
300,192,61209,1,0,0:0:0:0:
339,201,61296,1,0,0:0:0:0:
361,234,61383,1,8,0:0:0:0:
360,274,61471,1,0,0:0:0:0:
336,307,61558,5,2,0:0:0:0:
220,264,61732,1,0,0:0:0:0:
211,266,61819,1,0,0:3:0:0:
202,268,61907,1,4,0:2:0:0:
193,270,61994,1,0,0:3:0:0:
184,272,62081,1,0,0:0:0:0:
56,340,62256,1,8,0:0:0:0:
56,200,62430,2,0,P|77:150|198:114,1,180,2|8,0:0|0:0,0:0:0:0:
296,192,62953,5,2,0:0:0:0:
432,156,63128,1,0,0:0:0:0:
444,117,63215,1,0,0:0:0:0:
430,78,63302,1,4,0:2:0:0:
395,56,63389,1,0,0:0:0:0:
354,57,63476,1,0,0:0:0:0:
220,52,63651,1,8,0:0:0:0:
168,172,63825,2,0,L|150:356,1,180,2|8,0:0|0:0,0:0:0:0:
56,240,64349,5,2,0:0:0:0:
248,272,64523,1,0,0:0:0:0:
283,291,64610,1,0,0:0:0:0:
323,295,64697,1,4,0:2:0:0:
362,285,64785,1,0,0:0:0:0:
392,258,64872,1,0,0:0:0:0:
320,68,65046,1,8,0:0:0:0:
452,168,65221,2,0,B|412:152|364:160|364:160|304:176|268:156,1,180,2|8,0:0|0:0,0:0:0:0:
100,56,65744,6,0,P|91:101|95:149,1,90,2|4,0:0|0:3,0:0:0:0:
94,144,66006,1,4,0:3:0:0:
94,144,66093,1,4,0:2:0:0:
144,260,66267,1,0,0:0:0:0:
152,259,66354,1,0,0:0:0:0:
161,258,66442,1,8,0:0:0:0:
169,257,66529,1,0,0:0:0:0:
177,256,66616,1,2,0:0:0:0:
298,161,66790,1,8,0:0:0:0:
340,187,66878,1,0,0:0:0:0:
360,232,66965,1,0,0:0:0:0:
358,281,67052,1,0,0:0:0:0:
336,325,67139,1,4,0:1:0:0:
104,304,78302,6,0,P|115:250|138:215,1,90,4|2,0:0|0:0,0:0:0:0:
220,128,78651,2,0,L|320:120,1,90,8|2,0:0|0:0,0:0:0:0:
428,212,79000,2,0,L|320:224,1,90,2|4,0:0|0:0,0:0:0:0:
168,208,79349,6,0,P|129:140|101:28,1,180,8|2,0:0|0:0,0:0:0:0:
102,42,79872,1,4,0:0:0:0:
268,184,80046,2,0,P|245:270|202:349,1,180,8|2,0:0|0:0,0:0:0:0:
202,349,80569,1,4,0:0:0:0:
392,116,80744,2,0,P|393:155|381:219,1,90,8|0,0:0|0:0,0:0:0:0:
448,352,81093,6,0,P|447:313|459:249,1,90,4|2,0:0|0:0,0:0:0:0:
356,280,81442,2,0,L|255:277,1,90,8|2,0:0|0:0,0:0:0:0:
96,304,81790,2,0,L|197:307,1,90,2|4,0:0|0:0,0:0:0:0:
199,155,82139,6,0,P|112:155|48:216,1,180,8|2,0:0|0:0,0:0:0:0:
47,216,82663,1,4,0:0:0:0:
256,96,82837,2,0,P|343:95|407:35,1,180,8|2,0:0|0:0,0:0:0:0:
407,35,83361,1,4,0:0:0:0:
436,164,83535,2,0,L|416:268,1,90,8|0,0:0|0:0,0:0:0:0:
320,344,83883,6,0,L|311:244,1,90,4|2,0:0|0:0,0:0:0:0:
208,232,84232,2,0,P|163:220|106:245,1,90,8|2,0:0|0:0,0:0:0:0:
156,336,84581,1,2,0:0:0:0:
228,120,84756,1,0,0:0:0:0:
384,272,84930,6,8,P|401:178|385:77,1,180,8|2,0:0|0:0,0:0:0:0:
480,232,85453,1,4,0:0:0:0:
284,40,85628,2,8,P|273:129|290:217,1,180,8|2,0:0|0:0,0:0:0:0:
164,76,86151,1,4,0:0:0:0:
88,156,86325,2,0,P|90:200|106:254,1,90,8|0,0:0|0:0,0:0:0:0:
224,344,86674,6,0,P|222:300|206:246,1,90,4|2,0:0|0:0,0:0:0:0:
324,124,87023,2,0,P|312:167|310:212,1,90,8|2,0:0|0:0,0:0:0:0:
310,212,87285,1,0,0:0:0:0:
310,212,87372,1,2,0:0:0:0:
384,324,87546,1,4,0:0:0:0:
464,224,87721,2,0,P|478:148|477:34,1,180,8|0,0:0|0:0,0:0:0:0:
451,76,88157,5,2,0:3:0:0:
414,92,88244,1,0,0:0:0:0:
373,87,88331,1,2,0:3:0:0:
343,59,88418,1,0,0:0:0:0:
304,44,88506,1,2,0:3:0:0:
263,46,88593,1,0,0:0:0:0:
231,70,88680,1,0,0:0:0:0:
219,108,88767,1,2,0:3:0:0:
192,138,88854,1,0,0:0:0:0:
152,148,88942,1,0,0:0:0:0:
111,142,89029,1,0,0:0:0:0:
82,112,89116,2,0,L|74:54,3,45,8|8|4|4,0:0|0:0|0:3|0:3,0:0:0:0:
44,54,89465,6,0,L|64:192,1,135,4|0,0:0|0:0,0:0:0:0:
63,187,89814,2,0,L|173:197,1,90,8|0,0:0|0:0,0:0:0:0:
153,195,90075,1,4,0:0:0:0:
153,195,90163,1,0,0:0:0:0:
304,300,90337,1,0,0:0:0:0:
304,300,90424,1,4,0:0:0:0:
304,300,90511,2,0,P|258:310|214:302,1,90,8|0,0:0|0:0,0:0:0:0:
320,184,90860,6,0,P|368:171|456:196,1,135,0|4,0:0|0:0,0:0:0:0:
468,184,91209,2,0,L|453:290,1,90,8|0,0:0|0:0,0:0:0:0:
455,273,91471,1,4,0:0:0:0:
455,273,91558,1,0,0:0:0:0:
240,240,91732,1,0,0:0:0:0:
240,240,91819,1,4,0:0:0:0:
240,240,91907,2,0,L|132:228,1,90,8|0,0:0|0:0,0:0:0:0:
84,116,92256,5,4,0:0:0:0:
196,32,92430,1,0,0:0:0:0:
332,100,92604,2,0,P|337:170|334:255,1,135,8|4,0:0|0:0,0:0:0:0:
335,234,92953,1,0,0:0:0:0:
224,344,93128,1,0,0:0:0:0:
224,344,93215,1,4,0:0:0:0:
224,344,93302,2,0,P|222:295|224:237,1,90,8|0,0:0|0:0,0:0:0:0:
116,208,93651,5,0,0:0:0:0:
184,112,93825,2,0,L|180:14,1,90,0|8,0:0|0:0,0:0:0:0:
284,160,94174,1,0,0:0:0:0:
319,178,94261,1,4,0:0:0:0:
359,175,94349,1,0,0:0:0:0:
395,156,94436,1,0,0:0:0:0:
411,118,94523,1,0,0:0:0:0:
405,77,94610,1,4,0:0:0:0:
376,48,94697,2,0,B|342:35|286:59|286:59|241:102|184:88,1,180,8|4,0:0|0:0,0:0:0:0:
48,184,95221,5,2,0:0:0:0:
176,256,95395,1,8,0:0:0:0:
184,112,95569,1,2,0:0:0:0:
164,104,95657,1,4,0:0:0:0:
144,96,95744,1,2,0:0:0:0:
44,272,95918,1,4,0:0:0:0:
212,184,96093,1,8,0:0:0:0:
40,96,96267,1,2,0:0:0:0:
44,272,96442,6,0,P|104:271|190:332,1,135,0|4,0:0|0:0,0:0:0:0:
156,324,96790,2,0,L|267:326,1,90,8|0,0:0|0:0,0:0:0:0:
245,325,97052,1,4,0:0:0:0:
245,325,97139,1,0,0:0:0:0:
380,232,97314,1,0,0:0:0:0:
372,252,97401,1,4,0:0:0:0:
364,272,97488,1,8,0:0:0:0:
432,128,97663,1,2,0:0:0:0:
460,312,97837,5,4,0:0:0:0:
264,208,98011,1,2,0:0:0:0:
240,208,98099,1,0,0:0:0:0:
216,208,98186,1,10,0:0:0:0:
64,108,98360,1,0,0:0:0:0:
64,108,98447,1,4,0:0:0:0:
64,108,98535,2,0,P|86:143|90:251,1,135,0|4,0:0|0:0,0:0:0:0:
120,340,98883,2,0,P|138:297|184:270,1,90,8|2,0:0|0:0,0:0:0:0:
292,312,99232,5,0,0:0:0:0:
329,296,99319,1,0,0:0:0:0:
351,262,99407,1,2,0:0:0:0:
355,221,99494,1,4,0:0:0:0:
340,183,99581,1,8,0:0:0:0:
192,136,99756,1,0,0:0:0:0:
192,136,99843,2,0,P|256:125|297:53,1,135,4|0,0:0|0:0,0:0:0:0:
232,32,100192,2,0,P|204:33|172:40,1,45,4|8,0:0|0:0,0:0:0:0:
120,76,100366,2,0,P|96:88|80:116,1,45
64,180,100540,1,0,0:0:0:0:
64,180,100628,5,4,0:0:0:0:
171,187,100976,2,0,L|279:194,1,90,8|0,0:0|0:0,0:0:0:0:
260,192,101238,1,0,0:0:0:0:
260,192,101325,1,0,0:0:0:0:
368,304,101500,1,0,0:0:0:0:
196,336,101674,2,0,L|88:329,1,90,8|0,0:0|0:0,0:0:0:0:
248,236,102023,6,0,P|266:192|361:154,1,135,0|4,0:0|0:0,0:0:0:0:
412,176,102372,2,0,P|407:124|382:82,1,90,8|0,0:0|0:0,0:0:0:0:
389,91,102633,1,4,0:0:0:0:
389,91,102721,1,0,0:0:0:0:
252,32,102895,1,0,0:0:0:0:
252,32,102982,1,4,0:0:0:0:
252,32,103069,1,8,0:0:0:0:
140,120,103244,1,0,0:0:0:0:
384,256,103418,6,0,L|232:283,1,135,4|0,0:0|0:0,0:0:0:0:
232,304,103767,1,8,0:0:0:0:
60,256,103942,1,0,0:0:0:0:
60,256,104029,1,4,0:0:0:0:
60,256,104116,2,0,P|105:214|195:213,1,135,0|4,0:0|0:0,0:0:0:0:
252,176,104465,2,0,L|232:80,1,90,8|0,0:0|0:0,0:0:0:0:
400,36,104814,5,0,0:0:0:0:
420,200,104988,1,0,0:0:0:0:
387,169,105075,1,4,0:0:0:0:
353,137,105163,1,8,0:0:0:0:
368,292,105337,1,0,0:0:0:0:
368,292,105424,1,4,0:0:0:0:
368,292,105511,2,0,P|434:292|493:260,1,135,0|4,0:0|0:0,0:0:0:0:
288,260,105860,2,0,P|242:242|196:248,1,90,8|0,0:0|0:0,0:0:0:0:
48,280,106209,6,0,P|94:298|140:292,1,90,4|2,0:0|0:0,0:0:0:0:
128,204,106558,2,0,L|116:111,1,90,8|2,0:0|0:0,0:0:0:0:
159,127,106819,1,0,0:0:0:0:
204,122,106907,1,2,0:0:0:0:
239,94,106994,1,0,0:0:0:0:
246,49,107081,1,4,0:0:0:0:
472,144,107256,1,8,0:0:0:0:
312,272,107430,1,2,0:0:0:0:
303,270,107517,1,0,0:0:0:0:
294,268,107604,1,2,0:0:0:0:
285,266,107692,1,4,0:0:0:0:
276,264,107779,1,0,0:0:0:0:
267,262,107866,1,4,0:0:0:0:
258,260,107953,1,8,0:0:0:0:
128,316,108128,6,0,P|111:275|110:171,1,135,2|4,0:0|0:0,0:0:0:0:
116,152,108476,1,0,0:0:0:0:
116,36,108651,1,8,0:0:0:0:
236,48,108825,1,2,0:0:0:0:
240,47,108913,1,0,0:0:0:0:
244,46,109000,6,0,L|347:38,1,90,4|0,0:0|0:0,0:0:0:0:
448,164,109349,1,8,0:0:0:0:
352,308,109523,1,2,0:0:0:0:
309,321,109610,1,0,0:0:0:0:
265,308,109697,1,2,0:0:0:0:
237,271,109785,1,0,0:0:0:0:
235,226,109872,1,4,0:0:0:0:
96,244,110046,1,8,0:0:0:0:
128,64,110221,1,2,0:0:0:0:
142,106,110308,1,0,0:0:0:0:
156,148,110395,6,0,B|212:124|224:76|224:76|252:112|304:136|284:224|284:224|176:224|160:336,1,450,2|0,0:0|0:0,0:0:0:0:
259,315,111442,2,0,P|302:300|362:306,1,90,2|0,0:2|0:0,0:0:0:0:
445,224,111790,6,0,P|450:168|448:130,1,90,4|0,0:0|0:0,0:0:0:0:
448,134,112139,2,0,L|304:124,1,135,8|4,0:0|0:0,0:0:0:0:
240,128,112488,2,0,P|239:86|271:44,1,90
265,47,112750,1,4,0:0:0:0:
265,47,112837,1,8,0:0:0:0:
124,116,113011,1,0,0:0:0:0:
320,224,113186,6,0,L|216:212,1,90,0|0,0:0|0:0,0:0:0:0:
156,224,113447,1,4,0:0:0:0:
156,224,113535,2,0,P|109:243|77:281,1,90,8|0,0:0|0:0,0:0:0:0:
156,328,113796,2,0,L|304:328,1,135,4|0,0:0|0:0,0:0:0:0:
291,328,114145,1,4,0:0:0:0:
291,328,114232,1,8,0:0:0:0:
236,168,114407,1,0,0:0:0:0:
376,56,114581,6,0,P|394:95|388:147,1,90,4|0,0:0|0:0,0:0:0:0:
376,264,114930,2,0,P|412:289|456:294,1,90,8|0,0:0|0:0,0:0:0:0:
340,196,115192,2,0,P|273:186|187:256,1,180,4|4,0:0|0:0,0:0:0:0:
128,304,115628,2,0,L|107:207,1,90,8|0,0:0|0:0,0:0:0:0:
108,216,115889,1,0,0:0:0:0:
108,216,115976,5,0,0:0:0:0:
48,56,116151,1,0,0:0:0:0:
48,56,116238,1,4,0:0:0:0:
48,56,116325,2,0,P|83:89|144:90,1,90,8|0,0:0|0:0,0:0:0:0:
192,48,116587,2,0,L|222:196,1,135,4|0,0:0|0:0,0:0:0:0:
218,180,116936,1,4,0:0:0:0:
218,180,117023,1,8,0:0:0:0:
356,344,117197,1,4,0:0:0:0:
412,160,117372,5,4,0:0:0:0:
464,48,117546,1,2,0:0:0:0:
316,224,117721,1,8,0:0:0:0:
342,67,117895,1,2,0:0:0:0:
336,107,117982,1,4,0:0:0:0:
330,147,118069,1,2,0:0:0:0:
464,308,118244,1,0,0:0:0:0:
464,308,118331,1,4,0:0:0:0:
464,308,118418,2,0,P|432:263|399:251,1,90,8|2,0:0|0:0,0:0:0:0:
248,336,118767,6,0,P|299:333|331:304,1,90,0|2,0:0|0:0,0:0:0:0:
327,309,119029,1,4,0:0:0:0:
327,309,119116,2,0,L|252:188,1,135,8|4,0:0|0:0,0:0:0:0:
192,156,119465,6,0,P|173:201|137:230,1,90,0|2,0:0|0:0,0:0:0:0:
116,232,119726,1,4,0:0:0:0:
88,236,119814,1,8,0:0:0:0:
188,48,119988,1,0,0:0:0:0:
212,59,120075,1,0,0:0:0:0:
236,70,120163,6,0,L|328:114,1,90,4|2,0:0|0:0,0:0:0:0:
472,128,120511,1,8,0:0:0:0:
422,136,120599,1,0,0:0:0:0:
389,172,120686,1,2,0:0:0:0:
380,220,120773,1,4,0:0:0:0:
390,268,120860,1,0,0:0:0:0:
484,220,121035,1,0,0:0:0:0:
296,248,121209,2,0,P|259:271|209:275,1,90,8|2,0:0|0:0,0:0:0:0:
24,176,121558,6,0,P|76:185|140:246,1,135,0|4,0:0|0:0,0:0:0:0:
140,276,121907,1,8,0:0:0:0:
192,176,122081,1,2,0:0:0:0:
199,127,122168,1,4,0:0:0:0:
235,92,122256,1,0,0:0:0:0:
282,80,122343,1,0,0:0:0:0:
330,89,122430,1,0,0:0:0:0:
472,108,122604,2,0,P|431:135|412:180,1,90,8|0,0:0|0:0,0:0:0:0:
388,328,122953,5,4,0:0:0:0:
388,328,123302,2,0,L|248:326,1,135,8|4,0:0|0:0,0:0:0:0:
220,336,123651,2,0,P|209:292|215:228,1,90
210,247,123913,1,4,0:0:0:0:
210,247,124000,1,8,0:0:0:0:
48,188,124174,1,0,0:0:0:0:
280,112,124349,6,0,L|136:104,1,135,0|4,0:0|0:0,0:0:0:0:
136,128,124697,2,0,P|130:172|137:216,1,90,8|0,0:0|0:0,0:0:0:0:
137,216,124959,1,4,0:0:0:0:
137,216,125046,1,0,0:0:0:0:
220,32,125221,1,0,0:0:0:0:
268,36,125308,1,4,0:0:0:0:
316,40,125395,1,8,0:0:0:0:
428,204,125569,1,0,0:0:0:0:
296,304,125744,6,0,P|283:249|291:202,1,90,4|0,0:0|0:0,0:0:0:0:
412,32,126093,2,0,P|425:87|417:134,1,90,8|0,0:0|0:0,0:0:0:0:
421,119,126354,1,4,0:0:0:0:
421,119,126442,1,0,0:0:0:0:
284,160,126616,1,0,0:0:0:0:
234,158,126703,1,4,0:0:0:0:
184,156,126790,1,8,0:0:0:0:
134,155,126878,1,0,0:0:0:0:
84,154,126965,1,0,0:0:0:0:
44,304,127139,6,0,P|83:269|132:262,1,90,0|0,0:0|0:0,0:0:0:0:
132,272,127401,1,4,0:0:0:0:
148,288,127488,2,0,L|246:287,1,90,8|0,0:0|0:0,0:0:0:0:
296,244,127750,2,0,P|333:278|414:293,1,135,4|0,0:0|0:0,0:0:0:0:
414,293,128099,1,4,0:0:0:0:
414,293,128186,1,8,0:0:0:0:
416,292,128535,6,0,L|426:217,1,72,4|0,0:0|0:0,0:0:0:0:
296,48,128883,2,0,L|288:125,1,72,8|0,0:0|0:0,0:0:0:0:
288,119,129145,1,4,0:0:0:0:
288,119,129232,1,0,0:0:0:0:
220,256,129407,1,0,0:0:0:0:
220,256,129494,1,4,0:0:0:0:
220,256,129581,2,0,P|180:255|126:238,1,72,8|0,0:0|0:0,0:0:0:0:
56,120,129930,6,0,P|99:126|161:140,1,94.499997116089,0|4,0:0|0:0,0:0:0:0:
168,128,130279,2,0,P|172:86|174:40,1,62.9999980773926,8|0,0:0|0:0,0:0:0:0:
412,188,130628,2,0,P|369:194|307:208,1,94.499997116089,0|4,0:0|0:0,0:0:0:0:
300,196,130977,2,0,P|296:154|293:108,1,62.9999980773926,8|0,0:0|0:0,0:0:0:0:
256,192,131325,12,0,133767,0:0:0:0:
96,64,134116,6,0,P|90:113|93:175,1,99.0000030212403,4|2,0:0|2:0,0:0:0:0:
168,272,134465,1,8,0:0:0:0:
252,144,134639,1,2,2:0:0:0:
277,107,134726,1,0,2:0:0:0:
320,94,134814,1,2,2:0:0:0:
364,99,134901,1,0,2:0:0:0:
402,121,134988,1,0,0:0:0:0:
448,256,135163,2,0,L|344:250,1,99.0000030212403,8|0,0:0|2:0,0:0:0:0:
168,272,135511,5,2,2:0:0:0:
168,272,135599,1,0,2:0:0:0:
168,272,135686,2,0,L|274:277,1,99.0000030212403,0|8,0:0|0:0,0:0:0:0:
92,324,136035,1,2,2:0:0:0:
56,289,136122,1,0,2:0:0:0:
53,239,136209,1,2,2:0:0:0:
80,197,136296,1,0,0:0:0:0:
127,182,136383,1,0,0:0:0:0:
216,64,136558,2,0,L|220:168,1,99.0000030212403,8|0,0:0|2:0,0:0:0:0:
288,332,136907,6,0,L|292:228,1,99.0000030212403,4|0,0:0|2:0,0:0:0:0:
464,152,137256,1,8,0:0:0:0:
340,60,137430,1,2,2:0:0:0:
291,67,137517,1,0,2:0:0:0:
242,74,137604,1,2,2:0:0:0:
192,82,137692,1,0,2:0:0:0:
143,90,137779,1,0,0:0:0:0:
64,224,137953,2,0,P|70:277|85:327,1,99.0000030212403,8|0,0:0|2:0,0:0:0:0:
328,244,138302,5,2,2:0:0:0:
328,244,138389,1,0,2:0:0:0:
328,244,138476,2,0,P|322:191|307:141,1,99.0000030212403,0|8,0:0|0:0,0:0:0:0:
236,295,138825,1,2,2:0:0:0:
264,336,138913,1,0,2:0:0:0:
311,349,139000,1,2,2:0:0:0:
360,344,139087,1,0,0:0:0:0:
403,319,139174,1,0,0:0:0:0:
428,168,139349,2,0,L|432:62,1,99.0000030212403,8|0,0:0|2:0,0:0:0:0:
148,220,139697,6,0,L|156:325,1,99.0000030212403,4|0,0:0|2:0,0:0:0:0:
248,120,140046,2,0,P|216:78|160:62,1,99.0000030212403,8|0,0:0|2:0,0:0:0:0:
173,62,140308,1,0,2:0:0:0:
173,62,140395,1,2,2:0:0:0:
80,120,140569,1,0,0:0:0:0:
336,60,140744,1,8,0:0:0:0:
440,180,140918,5,2,2:0:0:0:
431,229,141006,1,0,2:0:0:0:
391,258,141093,1,2,2:0:0:0:
341,261,141180,1,0,2:0:0:0:
296,239,141267,1,0,0:0:0:0:
68,272,141442,2,0,L|191:279,1,99.0000030212403,8|2,0:0|2:0,0:0:0:0:
199,240,141703,1,0,2:0:0:0:
199,190,141790,1,2,2:0:0:0:
171,148,141878,1,0,2:0:0:0:
124,131,141965,1,0,0:0:0:0:
236,64,142139,2,0,L|352:72,1,99.0000030212403,8|0,0:0|2:0,0:0:0:0:
480,120,142488,6,0,P|395:142|333:240,1,198.000006042481,4|8,0:0|0:0,0:0:0:0:
276,320,143011,1,2,2:0:0:0:
227,329,143099,1,0,2:0:0:0:
179,315,143186,1,2,2:0:0:0:
148,276,143273,1,0,0:0:0:0:
148,226,143360,1,0,0:0:0:0:
228,72,143535,2,0,P|245:124|247:176,1,99.0000030212403,8|0,0:0|2:0,0:0:0:0:
48,280,143883,6,0,P|31:228|29:176,1,99.0000030212403,4|0,2:0|0:0,0:0:0:0:
88,60,144232,1,8,0:0:0:0:
228,72,144407,1,4,2:0:0:0:
277,73,144494,1,0,2:0:0:0:
326,75,144581,1,2,2:0:0:0:
376,77,144668,1,0,2:0:0:0:
425,79,144755,1,0,0:0:0:0:
484,200,144930,2,0,P|430:199|342:251,1,148.50000453186,4|0,0:2|2:0,0:0:0:0:
332,260,145279,6,0,L|228:257,1,99.0000030212403,4|0,0:0|2:0,0:0:0:0:
76,332,145628,1,8,0:0:0:0:
72,180,145802,1,2,2:0:0:0:
82,131,145889,1,0,2:0:0:0:
120,99,145976,1,2,2:0:0:0:
168,88,146064,1,0,2:0:0:0:
216,98,146151,1,0,0:0:0:0:
320,164,146325,2,0,L|440:160,1,99.0000030212403,8|0,0:0|2:0,0:0:0:0:
348,296,146674,6,0,L|249:292,1,99.0000030212403,2|0,2:0|0:0,0:0:0:0:
440,220,147023,1,8,0:0:0:0:
216,176,147197,1,2,2:0:0:0:
216,176,147285,1,0,2:0:0:0:
216,176,147372,2,0,L|344:184,1,99.0000030212403,2|0,2:0|0:0,0:0:0:0:
104,288,147721,2,0,P|85:238|90:177,1,99.0000030212403,8|0,0:0|2:0,0:0:0:0:
36,64,148069,6,0,L|160:56,1,99.0000030212403,4|0,0:0|2:0,0:0:0:0:
364,60,148418,1,8,0:0:0:0:
252,132,148593,1,2,2:0:0:0:
215,164,148680,1,0,2:0:0:0:
205,212,148767,1,2,2:0:0:0:
221,258,148854,1,0,2:0:0:0:
258,290,148942,1,0,0:0:0:0:
368,224,149116,2,0,L|468:231,1,99.0000030212403,8|0,0:0|2:0,0:0:0:0:
272,56,149465,5,2,2:0:0:0:
272,56,149552,1,0,2:0:0:0:
272,56,149639,2,0,L|168:48,1,99.0000030212403,0|8,0:0|0:0,0:0:0:0:
52,144,149988,1,2,2:0:0:0:
57,145,150075,1,0,2:0:0:0:
61,146,150163,1,2,2:0:0:0:
65,146,150250,1,0,2:0:0:0:
69,147,150337,1,0,0:0:0:0:
208,172,150511,2,0,L|317:183,1,99.0000030212403,8|0,0:0|2:0,0:0:0:0:
448,248,150860,6,0,P|411:318|295:328,1,198.000006042481,4|8,0:0|0:0,0:0:0:0:
72,296,151383,1,2,2:0:0:0:
98,259,151471,1,0,2:0:0:0:
140,245,151558,1,2,2:0:0:0:
184,247,151645,1,0,2:0:0:0:
223,267,151732,1,0,0:0:0:0:
336,200,151907,2,0,P|343:139|339:84,1,99.0000030212403,8|0,0:0|2:0,0:0:0:0:
192,28,152256,6,0,P|185:89|189:144,1,99.0000030212403,2|0,2:0|0:0,0:0:0:0:
56,160,152604,1,8,0:0:0:0:
320,152,152779,1,2,2:0:0:0:
334,194,152866,1,0,2:0:0:0:
330,238,152953,1,2,2:0:0:0:
315,280,153040,1,0,0:0:0:0:
284,312,153128,1,0,0:0:0:0:
168,272,153302,2,0,L|60:268,1,99.0000030212403,8|0,0:0|2:0,0:0:0:0:
56,160,153651,6,0,L|64:71,1,80.9999975280763,0|0,1:0|2:0,0:0:0:0:
164,28,154000,1,8,0:2:0:0:
232,112,154174,1,2,2:0:0:0:
256,109,154261,1,0,2:0:0:0:
280,106,154349,1,2,2:0:0:0:
304,104,154436,1,0,2:0:0:0:
328,102,154523,1,0,0:0:0:0:
444,116,154697,6,0,L|440:200,1,80.9999975280763,8|2,0:2|2:0,0:0:0:0:
440,196,154959,1,0,2:0:0:0:
440,196,155046,1,2,2:0:0:0:
440,196,155133,1,0,0:0:0:0:
440,196,155221,1,0,2:0:0:0:
383,294,155395,2,0,P|338:295|277:277,1,80.9999975280763,8|0,0:2|2:0,0:0:0:0:
271,264,155657,2,0,L|175:269,1,80.9999975280763
48,224,156006,1,0,0:0:0:0:
48,224,156093,1,8,0:0:0:0:
48,224,156442,5,4,0:0:0:0:
136,68,156616,1,0,0:0:0:0:
136,68,156703,1,0,0:0:0:0:
136,68,156790,2,0,P|148:124|160:224,1,135,8|4,0:0|0:0,0:0:0:0:
158,201,157139,2,0,L|254:204,1,90
275,208,157401,1,4,0:0:0:0:
300,216,157488,1,8,0:0:0:0:
456,284,157663,1,0,0:0:0:0:
440,88,157837,6,0,P|395:55|310:61,1,135,0|4,0:0|0:0,0:0:0:0:
244,56,158186,2,0,P|259:103|306:128,1,90,8|0,0:0|0:0,0:0:0:0:
291,124,158447,1,4,0:0:0:0:
291,124,158535,1,0,0:0:0:0:
84,88,158709,1,0,0:0:0:0:
84,88,158796,1,4,0:0:0:0:
84,88,158883,2,0,P|136:99|179:129,1,90,8|0,0:0|0:0,0:0:0:0:
200,240,159232,5,4,0:0:0:0:
328,332,159407,1,0,0:0:0:0:
420,208,159581,2,0,P|415:134|390:62,1,135,8|4,0:0|0:0,0:0:0:0:
408,44,159930,1,0,0:0:0:0:
200,80,160104,1,0,0:0:0:0:
200,80,160192,1,4,0:0:0:0:
200,80,160279,2,0,L|291:89,1,90,8|0,0:0|0:0,0:0:0:0:
140,160,160628,2,0,L|49:151,1,90,0|0,0:0|0:0,0:0:0:0:
50,151,160889,1,4,0:0:0:0:
50,151,160976,1,8,0:0:0:0:
88,268,161151,5,0,0:0:0:0:
128,260,161238,1,4,0:0:0:0:
168,248,161325,2,0,L|192:312,1,45
264,220,161500,2,0,L|272:164,1,45,0|4,0:0|0:0,0:0:0:0:
364,244,161674,2,0,P|407:227|402:97,1,180,8|4,0:0|0:0,0:0:0:0:
188,40,162197,5,2,0:0:0:0:
188,40,162285,1,0,0:0:0:0:
188,40,162372,2,0,L|286:48,1,90,8|2,0:0|0:0,0:0:0:0:
296,76,162633,2,0,L|282:219,1,135,4|2,0:0|0:0,0:0:0:0:
216,248,162982,1,4,0:0:0:0:
216,248,163069,2,0,L|208:348,1,90,8|2,0:0|0:0,0:0:0:0:
72,152,163418,5,0,0:0:0:0:
88,172,163506,1,0,0:0:0:0:
104,192,163593,2,0,L|116:88,1,90,2|8,0:0|0:0,0:0:0:0:
96,300,163942,1,2,0:0:0:0:
96,300,164029,1,4,0:0:0:0:
96,300,164116,1,0,0:0:0:0:
216,144,164290,1,2,0:0:0:0:
216,144,164378,1,4,0:0:0:0:
216,144,164465,2,0,P|260:158|289:198,1,90,8|2,0:0|0:0,0:0:0:0:
380,344,164814,6,0,L|391:198,1,135,4|0,0:0|0:0,0:0:0:0:
476,136,165163,2,0,L|480:237,1,90,8|0,0:0|0:0,0:0:0:0:
476,252,165424,1,4,0:0:0:0:
472,280,165511,1,0,0:0:0:0:
304,224,165686,1,2,0:0:0:0:
180,120,165860,1,8,0:0:0:0:
48,200,166035,1,2,0:0:0:0:
162,311,166209,5,0,0:0:0:0:
159,265,166296,1,0,0:0:0:0:
176,224,166383,1,2,0:0:0:0:
208,192,166471,1,4,0:0:0:0:
250,175,166558,1,8,0:0:0:0:
360,52,166732,1,2,0:0:0:0:
360,52,166819,1,4,0:0:0:0:
360,52,166907,2,0,P|381:95|380:150,1,90,0|2,0:0|0:0,0:0:0:0:
296,328,167256,2,0,P|318:251|438:230,1,180,8|4,0:0|0:0,0:0:0:0:
228,240,167953,6,0,L|120:247,1,90,8|0,0:0|0:0,0:0:0:0:
139,245,168215,1,0,0:0:0:0:
139,245,168302,1,0,0:0:0:0:
36,208,168477,1,0,0:0:0:0:
216,332,168651,2,0,L|324:325,1,90,8|0,0:0|0:0,0:0:0:0:
424,264,169000,6,0,P|406:220|311:182,1,135,0|4,0:0|0:0,0:0:0:0:
260,204,169349,2,0,P|265:152|290:110,1,90,8|0,0:0|0:0,0:0:0:0:
283,119,169610,1,4,0:0:0:0:
283,119,169698,1,0,0:0:0:0:
400,48,169872,1,0,0:0:0:0:
400,48,169959,1,4,0:0:0:0:
400,48,170046,1,8,0:0:0:0:
204,148,170221,1,0,0:0:0:0:
424,264,170395,6,0,L|272:291,1,135,4|0,0:0|0:0,0:0:0:0:
272,312,170744,1,8,0:0:0:0:
176,264,170919,1,0,0:0:0:0:
176,264,171006,1,4,0:0:0:0:
176,264,171093,2,0,P|131:222|41:221,1,135,0|4,0:0|0:0,0:0:0:0:
40,240,171442,2,0,L|60:144,1,90,8|0,0:0|0:0,0:0:0:0:
144,96,171791,5,0,0:0:0:0:
308,76,171965,1,0,0:0:0:0:
277,109,172052,1,4,0:0:0:0:
245,143,172140,1,8,0:0:0:0:
428,172,172314,1,0,0:0:0:0:
428,172,172401,1,4,0:0:0:0:
428,172,172488,2,0,P|428:106|396:47,1,135,0|4,0:0|0:0,0:0:0:0:
344,160,172837,2,0,P|340:204|358:245,1,90,8|0,0:0|0:0,0:0:0:0:
304,312,173186,6,0,P|258:330|212:324,1,90,4|2,0:0|0:0,0:0:0:0:
444,280,173535,2,0,L|456:187,1,90,8|2,0:0|0:0,0:0:0:0:
457,55,173883,1,2,0:0:0:0:
407,58,173971,1,0,0:0:0:0:
364,83,174058,1,0,0:0:0:0:
342,127,174145,1,4,0:0:0:0:
344,176,174232,1,8,0:0:0:0:
168,256,174407,1,0,0:0:0:0:
168,256,174494,1,0,0:0:0:0:
168,256,174581,6,0,L|72:251,1,90,2|0,0:0|0:0,0:0:0:0:
64,252,174843,1,4,0:0:0:0:
52,252,174930,1,8,0:0:0:0:
272,324,175104,1,0,0:0:0:0:
272,324,175192,1,4,0:0:0:0:
272,324,175279,2,0,L|280:252,1,45
256,208,175453,1,2,0:0:0:0:
412,100,175628,1,8,0:0:0:0:
276,48,175802,1,2,0:0:0:0:
272,47,175890,1,0,0:0:0:0:
268,46,175977,6,0,L|165:38,1,90,4|0,0:0|0:0,0:0:0:0:
64,164,176326,1,8,0:0:0:0:
200,304,176500,1,2,0:0:0:0:
202,259,176587,1,4,0:0:0:0:
230,222,176675,1,2,0:0:0:0:
274,209,176762,1,0,0:0:0:0:
317,222,176849,1,2,0:0:0:0:
416,244,177023,1,8,0:0:0:0:
384,148,177197,1,0,0:0:0:0:
384,148,177285,1,0,0:0:0:0:
384,148,177372,6,0,P|393:96|388:55,1,90,2|0,0:0|0:0,0:0:0:0:
388,59,177633,1,4,0:0:0:0:
388,59,177721,1,8,0:0:0:0:
308,100,177895,1,2,0:0:0:0:
263,97,177982,1,4,0:0:0:0:
218,94,178069,1,2,0:0:0:0:
173,91,178156,1,0,0:0:0:0:
128,88,178243,1,0,0:0:0:0:
83,85,178331,1,4,0:0:0:0:
38,82,178418,2,0,B|70:111|70:111|64:280,1,180,8|4,0:0|1:0,0:0:0:0:
256,192,179116,12,4,187139,0:0:0:0:
