osu file format v7

[General]
AudioFilename: DJ HERO - Noisia Groundhog (Beat Juggle).mp3
AudioLeadIn: 0
PreviewTime: -1
Countdown: 0
SampleSet: Normal
StackLeniency: 0.7
Mode: 0
LetterboxInBreaks: 0
EpilepsyWarning: 1

[Editor]
Bookmarks: 56785,99347,198660,212404,227035
DistanceSpacing: 0.899999976158142
BeatDivisor: 4
GridSize: 8

[Metadata]
Title:Groundhog (Beat Juggle)
Artist:Noisia
Creator:Takuma
Version:SPIN'S TAG!!
Source:DJ Hero OST
Tags:Agent Spin Here Mashley Larto Emdyion Doomsday ignorethis DJ Hero

[Difficulty]
HPDrainRate:4
CircleSize:4
OverallDifficulty:8
SliderMultiplier:1.9
SliderTickRate:2

[Events]
//Background and Video events
0,0,"djherobg.png"
//Break Periods
2,57650,70222
2,99547,126972
2,184672,197910
//Storyboard Layer 0 (Background)
//Storyboard Layer 1 (Fail)
//Storyboard Layer 2 (Pass)
//Storyboard Layer 3 (Foreground)
//Storyboard Sound Samples
//Background Colour Transformations
3,100,163,162,255

[TimingPoints]
28410,221.680336954112,4,1,0,80,1,0
130272,-200,4,1,0,80,0,0
131380,-100,4,1,0,80,0,0
144515,-200,4,1,0,80,0,0
145623,-100,4,1,0,80,0,0
173315,-200,4,1,0,80,0,0
173758,-100,4,1,0,80,0,0
199214,-50,4,1,0,80,0,0
199658,-100,4,1,0,80,0,0
200156,-50,4,1,0,80,0,0
200877,-100,4,1,0,80,0,0
202706,-50,4,1,0,80,0,0
203204,-100,4,1,0,80,0,0
203703,-50,4,1,0,80,0,0
204147,-100,4,1,0,80,0,0
204535,-50,4,1,0,80,0,0
212072,-100,4,1,0,80,0,0
219886,-50,4,1,0,80,0,0
225206,-100,4,1,0,80,0,0
226038,-100,4,1,0,90,0,0
226481,-100,4,1,0,100,0,0
226924,-100,4,1,0,80,0,0
238064,-200,4,1,0,80,0,0
238452,-100,4,1,0,80,0,0
241167,-50,4,1,0,80,0,0
241943,-100,4,1,0,80,0,0
242497,-50,4,1,0,80,0,0
243883,-100,4,1,0,80,0,0
244271,-50,4,1,0,80,0,0
252140,-200,4,1,0,80,0,0
252861,-100,4,1,0,80,0,0

[Colours]
Combo1 : 0,0,255
Combo2 : 0,223,56
Combo3 : 255,0,0

[HitObjects]
64,336,28409,6,0,B|8:248|72:144,1,190,4|8
136,192,28742,1,0
168,120,28853,1,8
96,88,28964,1,0
160,40,29075,6,0,B|232:56|280:8,2,95,0|8|0
168,120,29407,1,0
232,168,29518,2,0,B|328:136|408:224,1,190,4|0
336,256,29850,2,6,B|344:144|240:96,1,190,6|0
312,56,30183,5,0
456,16,30405,1,8
488,88,30515,1,0
456,160,30626,1,8
488,232,30737,1,0
416,224,30848,2,2,B|416:280|384:312,2,95,2|0|2
384,72,31291,5,0
336,128,31402,1,0
264,112,31513,2,0,B|144:80|64:168,1,190,6|0
200,248,31956,1,8
96,360,32178,6,0,B|-8:376,3,95,8|0|8|0
16,296,32621,1,0
8,224,32732,1,8
80,200,32843,1,8
128,256,32954,1,0
88,320,33065,1,4
312,336,33397,6,2,B|208:208|304:72,1,285,2|0
448,32,33952,1,8
400,88,34062,1,0
448,32,34173,1,8
400,88,34284,1,0
472,104,34395,6,0,B|488:224,1,95,0|8
424,248,34617,2,0,B|411:153,1,95,0|8
344,128,34838,2,0,B|272:80|240:152|152:96,1,190,0|6
304,320,35503,6,0,B|192:368|104:248|176:128|328:128|344:256,1,380
256,248,36168,2,0,B|256:32,1,190,12|0
400,96,36612,2,0,B|96:96,1,285,0|6
40,312,37277,5,4
152,336,37498,1,8
152,336,37609,1,0
224,320,37720,1,8
224,320,37831,1,0
304,320,37942,6,2,B|368:240,1,95
288,232,38163,2,2,B|352:152,1,95,2|0
344,80,38385,2,0,B|304:40|200:136|152:80,2,190,0|6|0
488,128,39050,5,8
384,240,39272,2,8,B|448:336,2,95,8|0|8
240,280,39715,1,8
240,280,39826,1,0
240,280,39937,1,8
112,0,40159,6,0,B|112:328,1,285,0|6
400,384,40824,6,0,B|400:56,1,285,0|6
32,384,41489,6,0,B|32:56,1,285,0|6
480,26,42154,6,0,B|480:216,1,190,6|0
256,192,42597,5,4
144,72,42819,1,8
216,32,42930,1,0
296,32,43040,1,8
368,72,43151,1,0
304,112,43262,2,2,B|208:112,3,95
256,192,43705,5,4
32,224,44038,2,0,B|192:240|104:352|296:320,1,285,6|0
480,336,44592,5,8
440,272,44703,1,0
480,208,44814,1,8
440,144,44925,1,0
392,208,45036,2,0,B|368:256|304:248,2,95,2|0|2
480,80,45479,1,0
480,80,45701,1,6
32,48,46144,5,4
32,48,46365,1,8
72,112,46476,1,0
32,176,46587,1,8
72,240,46698,1,0
120,176,46809,2,0,B|144:128|208:136,2,95,2|0|2
72,240,47141,1,0
24,296,47252,1,0
256,192,47585,5,12
256,192,47807,1,0
256,192,47917,1,0
96,336,48139,5,8
176,336,48250,1,0
256,336,48361,1,8
336,336,48472,1,0
416,336,48582,1,4
416,336,48693,1,0
416,336,48804,1,8
352,192,49026,6,0,B|136:192,1,190,0|6
56,40,49691,6,0,B|160:40,1,95
152,112,49912,2,8,B|248:112,1,95
256,40,50134,2,0,B|360:40,1,95
352,112,50355,2,8,B|448:112,3,95,8|0|8|0
256,192,50799,5,12
256,192,51021,1,0
256,192,51131,1,6
256,192,51464,12,6,52794
24,128,53238,5,8
128,240,53460,2,8,B|64:336,2,95,8|0|8
272,280,53903,1,8
272,280,54014,1,0
272,280,54125,1,8
400,0,54347,6,0,B|400:328,1,285,0|6
112,384,55012,6,0,B|112:56,1,285,0|6
480,384,55677,6,0,B|480:56,1,285,0|6
32,26,56342,6,0,B|32:216,1,190,6|0
256,192,56785,5,12
256,192,57450,1,4
0,56,70972,6,0,B|40:8|120:112|192:40,1,190,0|8
232,32,71268,1,0
288,48,71342,1,0
288,104,71415,1,4
480,248,71637,5,2
480,336,71748,1,4
256,248,71970,5,2
256,336,72080,1,4
32,248,72302,5,2
32,336,72413,1,4
128,96,72746,5,8
168,264,72967,1,8
256,248,73078,1,0
344,264,73189,1,8
384,96,73411,1,8
256,8,73632,5,0
256,104,73743,1,8
208,184,73854,1,0
312,184,73965,1,4
256,336,74297,1,6
256,336,74519,1,8
256,192,74741,12,4,75184
16,40,75406,5,4
496,32,75627,5,8
496,32,75738,1,8
496,32,75849,1,4
256,336,76071,5,0
256,0,76292,6,0,B|256:96,1,95
256,96,76514,2,0,B|256:192,1,95,0|0
0,280,76736,6,0,B|56:336|112:240|184:288,1,190,4|8
256,336,77068,1,0
312,272,77179,1,0
240,224,77290,1,8
240,224,77512,1,4
496,104,77844,5,6
448,32,77955,1,0
360,32,78066,1,8
448,176,78343,2,0,B|488:208,4,47.5,0|0|0|0|6
16,368,78842,5,4
496,368,79063,5,8
496,368,79174,1,0
256,48,79396,5,12
256,48,79618,1,0
24,192,79839,5,8
488,192,80061,1,8
488,192,80172,1,0
488,192,80283,1,8
256,368,80504,5,8
256,280,80615,1,8
256,192,80726,1,0
256,104,80837,1,8
256,16,80948,1,0
256,16,81059,1,4
0,40,81613,5,4
0,40,81834,1,4
512,40,82056,5,12
512,40,82277,1,12
512,384,82500,5,12
512,384,82721,1,12
0,384,82943,5,4
0,384,83164,1,4
256,192,83386,5,6
256,192,83608,5,6
256,192,83830,5,0
256,192,84273,12,10,85160
128,264,85381,5,2
128,264,85437,1,2
128,264,85492,1,0
128,264,85548,2,12,B|160:368|256:360|352:368|384:264,1,332.5,12|0
504,192,86157,5,4
256,192,86379,5,8
256,192,86490,1,4
8,192,86711,5,4
56,56,86933,5,8
184,144,87155,1,8
256,120,87266,1,0
328,144,87376,1,8
456,56,87598,1,8
304,352,87820,6,0,B|184:352,1,95,0|8
208,272,88042,2,0,B|304:272,1,95,0|4
328,48,88485,5,6
256,32,88596,1,0
184,48,88707,1,8
256,224,88928,6,2,B|256:176,8,47.5,2|0|2|0|2|0|2|0|4
48,344,89593,6,0,B|152:344|152:200,1,190,0|8
80,192,89926,1,8
8,168,90037,2,0,B|7:36|111:36,1,190,0|8
256,192,90480,12,4,90923
56,192,91145,5,8
136,192,91256,1,8
216,192,91367,1,0
296,192,91478,1,8
376,192,91588,1,0
456,192,91699,1,4
168,80,92032,6,6,B|296:56|216:144|368:96,1,190,6|8
256,344,92475,5,2
256,344,92531,1,2
256,344,92586,1,0
256,344,92641,1,12
40,344,92918,5,0
40,344,93029,1,4
256,16,93251,5,4
472,344,93473,5,8
472,344,93584,1,4
472,344,93805,1,8
440,88,94027,5,8
312,256,94249,1,8
256,168,94359,1,0
200,256,94470,1,8
72,88,94692,1,8
96,344,94914,5,0
200,344,95024,5,8
312,344,95135,5,0
416,344,95245,5,4
256,192,95800,12,6,99347
120,320,127722,6,6,B|24:296|0:176,1,190,6|0
160,80,128166,1,0
160,80,128276,1,8
392,320,128498,5,0
392,320,128609,2,6,B|488:296|512:176,1,190,6|0
352,80,129053,1,0
352,80,129163,1,8
256,320,129385,5,0
256,320,129496,2,6,B|208:256|288:208|256:128,1,190,6|0
256,0,129939,1,0
256,0,130050,1,8
352,80,130272,5,0
352,80,130382,2,0,B|160:80,2,190,0|0|6
344,272,131491,5,0
488,144,131713,1,0
456,56,131823,1,8
264,80,132045,5,0
176,40,132156,1,6
40,176,132378,1,0
128,344,132599,1,0
216,304,132710,1,8
400,336,132932,5,0
480,280,133043,1,6
304,216,133264,1,0
112,240,133486,1,0
40,176,133597,1,8
256,24,133819,5,0
256,24,133929,1,6
256,360,134151,1,0
488,192,134373,5,4
24,192,134594,1,0
80,40,134816,6,0,B|152:120,1,95,6|0
256,120,135038,2,0,B|328:200,1,95,2|0
320,304,135259,1,8
320,304,135370,1,8
432,40,135592,5,0
432,40,135703,2,0,B|360:120,1,95,6|0
256,120,135925,2,0,B|184:200,1,95,2|0
200,304,136146,1,8
200,304,136257,1,8
24,192,136479,5,0
144,192,136590,2,2,B|264:192,1,95,6|0
360,192,136811,2,2,B|480:192,1,95,2|0
512,80,137033,1,8
512,80,137144,1,8
256,192,137476,12,4,138141
8,72,138363,6,0,B|96:24|200:72,1,190,4|8
256,112,138695,1,8
320,152,138806,2,0,B|415:196|503:148,1,190,4|8
504,224,139139,1,8
504,304,139250,6,0,B|416:352|312:304,1,190,4|8
256,264,139582,1,8
192,224,139693,2,0,B|96:179|8:227,1,190,4|8
8,152,140026,1,8
8,72,140136,6,0,B|96:24|200:72,1,190,4|8
256,112,140468,1,8
320,152,140579,2,0,B|415:196|503:148,1,190,4|8
504,224,140912,1,8
504,304,141023,6,0,B|416:352|312:304,1,190,4|8
256,264,141355,1,8
192,224,141466,1,4
120,320,141910,6,6,B|24:296|0:176,1,190,6|0
160,80,142354,1,0
160,80,142464,1,8
392,320,142686,5,0
392,320,142797,2,6,B|488:296|512:176,1,190,6|0
352,80,143241,1,0
352,80,143351,1,8
256,320,143573,5,0
256,320,143684,2,6,B|208:256|288:208|256:128,1,190,6|0
256,0,144127,1,0
256,0,144238,1,8
352,80,144460,5,0
352,80,144570,2,0,B|160:80,2,190,0|0|6
344,272,145679,5,0
488,144,145901,1,0
456,56,146011,1,8
264,80,146233,5,0
176,40,146344,1,6
40,176,146566,1,0
128,344,146787,1,0
216,304,146898,1,8
400,336,147120,5,0
480,280,147231,1,6
304,216,147452,1,0
112,240,147674,1,0
40,176,147785,1,8
256,24,148007,5,0
256,24,148117,1,6
256,360,148339,1,0
488,192,148561,5,4
24,192,148782,1,0
80,40,149004,6,0,B|152:120,1,95,6|0
256,120,149226,2,0,B|328:200,1,95,2|0
320,304,149447,1,8
320,304,149558,1,8
432,40,149780,5,0
432,40,149891,2,0,B|360:120,1,95,6|0
256,120,150113,2,0,B|184:200,1,95,2|0
200,304,150334,1,8
200,304,150445,1,8
24,192,150667,5,0
144,192,150778,2,2,B|264:192,1,95,6|0
360,192,150999,2,2,B|480:192,1,95,2|0
512,80,151221,1,8
512,80,151332,1,8
256,192,151664,12,4,152329
504,72,152550,6,0,B|416:24|312:72,1,190,4|8
256,112,152882,1,8
192,152,152993,2,0,B|97:196|9:148,1,190,4|8
8,224,153326,1,8
8,304,153437,6,0,B|96:352|200:304,1,190,4|8
256,264,153769,1,8
320,224,153880,2,0,B|416:179|504:227,1,190,4|8
504,152,154213,1,8
504,72,154323,6,0,B|416:24|312:72,1,190,4|8
256,112,154655,1,8
192,152,154766,2,0,B|97:196|9:148,1,190,4|8
8,224,155099,1,8
8,304,155210,6,0,B|96:352|200:304,1,190,4|8
256,264,155542,1,8
320,224,155654,1,4
496,352,156097,6,0,B|368:352,2,126.666666666667
368,288,156541,2,0,B|504:288,2,126.666666666667,0|0|0
496,224,156984,6,0,B|368:224,2,126.666666666667
368,160,157428,2,0,B|504:160,2,126.666666666667,0|0|0
496,96,157871,6,0,B|360:96,2,126.666666666667
368,32,158315,2,0,B|504:32,2,126.666666666667,0|0|0
272,32,158758,6,8,B|224:32,1,47.5
272,32,159201,1,12
16,352,159644,6,0,B|168:352,2,126.666666666667
144,288,160088,2,0,B|8:288,2,126.666666666667,0|0|0
16,224,160531,6,0,B|144:224,2,126.666666666667
144,160,160975,2,0,B|8:160,2,126.666666666667,0|0|0
16,96,161418,6,0,B|144:96,2,126.666666666667
144,32,161862,2,0,B|8:32,2,126.666666666667,0|0|0
256,192,162304,12,4,162748
416,16,163191,6,0,B|416:144,2,126.666666666667
352,144,163635,2,0,B|352:16,2,126.666666666667
288,16,164078,6,0,B|288:160,2,126.666666666667
224,144,164522,2,0,B|224:16,2,126.666666666667
160,16,164965,6,0,B|160:144,2,126.666666666667
96,144,165409,2,0,B|96:9,2,126.666666666667
96,240,165851,6,8,B|96:312,1,47.5,8|8
96,240,166295,1,12
416,368,166738,6,0,B|416:240,2,126.666666666667
352,240,167182,2,0,B|352:368,2,126.666666666667
288,368,167625,6,0,B|288:224,2,126.666666666667
224,240,168069,2,0,B|224:368,2,126.666666666667
160,368,168512,6,0,B|160:240,2,126.666666666667
96,240,168956,2,0,B|96:375,2,126.666666666667
80,136,169398,5,4
136,72,169546,5,0
216,40,169694,5,2
296,40,169842,5,4
376,72,169989,5,0
432,136,170137,5,2
23,40,170285,6,0,B|150:40,1,126.666666666667
256,112,170580,1,0
361,40,170728,2,0,B|488:40,2,126.666666666667
488,344,171172,6,0,B|361:344,1,126.666666666667
256,272,171467,1,0
150,344,171615,2,0,B|24:344,2,126.666666666667
488,40,172058,6,0,B|361:40,1,126.666666666667
256,112,172353,1,0
150,40,172501,2,0,B|24:40,2,126.666666666667
24,344,172945,6,0,B|150:344,1,126.666666666667
256,272,173240,1,0
361,344,173388,2,2,B|488:344,1,126.666666666667,2|0
488,344,173832,6,0,B|361:344,1,126.666666666667,0|0
256,272,174127,1,0
150,344,174275,2,0,B|24:344,2,126.666666666667
24,40,174719,6,0,B|150:40,1,126.666666666667,0|0
256,112,175014,1,0
361,40,175162,2,0,B|488:40,2,126.666666666667
23,344,175605,6,0,B|150:344,2,126.666666666667
256,272,176048,1,0
361,344,176196,2,0,B|488:344,1,126.666666666667
256,192,176492,12,4,176935
256,272,177379,5,0
150,344,177526,2,0,B|23:344,2,126.666666666667
361,344,177970,2,0,B|488:344,1,126.666666666667
256,112,178265,5,0
361,40,178412,2,0,B|488:40,2,126.666666666667
150,40,178856,2,0,B|24:40,1,126.666666666667
150,344,179152,6,0,B|24:344,2,126.666666666667
361,344,179595,2,0,B|488:344,2,126.666666666667
256,112,180039,5,0
256,112,180187,5,0
256,112,180334,5,0
256,112,180408,1,0
256,112,180482,1,4
256,192,180926,12,4,184472
32,48,198660,6,0,B|128:8|232:48,1,190,4|0
288,112,198993,1,0
200,136,199103,1,8
448,192,199325,6,2,B|48:192,1,380,2|4
294,341,199768,5,0
224,272,199879,1,0
312,248,199989,1,8
294,341,200101,1,0
64,192,200212,6,2,B|464:192,1,380,2|4
256,32,200655,6,0,B|256:144,2,95,8|0|8
256,32,200821,1,4
480,352,201098,5,14
480,352,201320,2,14,B|336:352|336:224,1,190,14|2
336,120,201653,5,0
256,88,201764,1,8
176,112,201874,1,0
256,144,201985,2,2,B|256:192,4,47.5,2|0|2|0|2
32,352,202429,5,12
120,344,202539,1,0
208,336,202650,1,8
448,192,202872,6,2,B|48:192,1,380,2|4
480,32,203315,5,8
416,88,203426,1,0
480,32,203537,1,8
400,8,203648,1,0
64,192,203759,6,2,B|464:192,1,380,2|4
32,32,204202,5,12
120,40,204312,1,0
208,48,204423,1,8
64,192,204645,6,2,B|464:192,1,380,2|4
444,192,205200,1,4
444,192,205310,1,14
368,144,205754,6,0,B|376:32|248:-48|136:32|144:144,1,380,4|0
216,136,206086,2,0,B|184:72|256:48|328:72|296:136,1,190
296,134,206419,1,14
144,240,206640,6,0,B|136:352|264:432|376:352|368:240,1,380,4|0
296,248,206972,2,0,B|328:312|256:336|184:312|216:248,2,190
296,248,207306,1,14
504,192,207527,5,0
8,192,207749,1,0
8,192,207804,1,0
8,192,207860,1,0
8,192,207915,1,6
256,24,208192,5,12
256,24,208414,1,12
504,352,208857,1,12
8,352,209301,1,0
256,192,209356,12,4,210187
256,216,210409,5,0
256,208,210520,5,0
256,200,210631,5,0
256,192,210742,5,0
256,192,210852,12,14,212626
0,376,212848,6,0,B|0:264,1,95
0,208,213069,1,0
0,208,213180,1,0
72,376,213291,6,0,B|72:264,1,95
72,208,213512,1,0
72,208,213623,1,0
144,376,213734,6,0,B|144:264,1,95
144,208,213955,1,0
144,208,214066,1,0
216,376,214178,6,0,B|216:264,1,95
216,208,214399,1,0
216,208,214510,1,0
288,376,214621,6,0,B|288:264,1,95,12|0
288,208,214842,1,0
288,208,214953,1,0
360,376,215064,6,0,B|360:264,1,95,12|0
360,208,215285,1,0
360,208,215396,1,0
432,376,215508,6,0,B|432:264,1,95,12|0
432,208,215729,1,0
432,208,215840,1,0
504,376,215951,6,0,B|504:264,1,95,12|0
504,208,216172,1,0
504,208,216283,1,0
504,8,216394,6,0,B|504:120,1,95
504,176,216615,1,0
504,176,216726,1,0
432,8,216837,6,0,B|432:120,1,95
432,176,217058,1,0
432,176,217169,1,0
360,8,217280,6,0,B|360:120,1,95
360,176,217501,1,0
360,176,217612,1,0
288,8,217724,6,0,B|288:120,1,95
288,176,217945,1,0
288,176,218056,1,0
216,8,218167,6,0,B|216:120,1,95,12|0
216,176,218388,1,0
216,176,218499,1,0
144,8,218610,6,0,B|144:120,1,95,12|0
144,176,218831,1,0
144,176,218942,1,0
72,8,219054,6,0,B|72:120,1,95,12|0
72,176,219275,1,0
72,176,219386,1,0
0,8,219497,6,0,B|0:120,1,95,12|0
0,176,219718,1,0
0,176,219829,1,0
0,352,219941,6,0,B|176:248,2,190
512,352,220385,6,0,B|336:248,2,190
512,32,220828,6,0,B|336:136,2,190
0,32,221272,6,0,B|176:136,2,190
256,192,221715,6,8,B|256:382,2,190
256,190,222158,6,8,B|256:0,2,190
254,192,222601,6,8,B|64:192,2,190
258,192,223044,6,8,B|448:192,2,190
464,336,223488,5,0
464,336,223599,1,0
464,336,223710,1,0
464,336,223821,1,0
48,336,223932,5,0
48,336,224043,1,0
48,336,224154,1,0
48,336,224265,1,0
48,48,224375,5,0
48,48,224486,1,0
48,48,224597,1,0
48,48,224708,1,0
464,48,224819,5,0
464,48,224930,1,0
464,48,225041,1,0
464,48,225152,1,0
256,192,225262,6,0,B|208:256|304:336|256:376,1,190,4|0
256,192,225705,6,0,B|192:144|112:240|72:192,1,190,4|0
256,192,226148,6,0,B|304:128|208:48|256:8,1,190,4|0
256,192,226591,6,0,B|320:240|400:144|440:192,1,190,4|0
144,48,227035,6,0,B|96:8|40:56,1,95,4|0
368,336,227257,2,0,B|416:376|472:328,1,95,4|0
112,304,227478,2,8,B|72:352|120:408,1,95
400,80,227700,2,8,B|440:32|392:-24,1,95
328,32,227922,5,2
88,192,228143,1,2
88,192,228254,1,2
368,336,228476,1,2
368,336,228587,1,2
504,192,228809,6,0,B|400:192,1,95,4|0
8,192,229030,2,0,B|112:192,1,95,4|0
256,0,229252,2,8,B|256:96,1,95
256,289,229474,2,8,B|256:384,1,95
256,192,229695,5,2
256,192,229806,1,0
256,192,230028,1,2
256,192,230360,1,2
256,192,230471,1,0
512,384,230582,6,0,B|512:264,1,95,4|0
0,0,230804,2,0,B|0:120,1,95,4|0
417,0,231025,2,8,B|512:0,1,95
95,384,231247,2,8,B|0:384,1,95
256,192,231469,12,0,232134
256,192,232245,5,0
16,240,232355,6,0,B|-8:192|16:144,1,95,4|0
496,240,232577,2,0,B|520:192|496:144,1,95
304,8,232799,2,8,B|256:-16|208:8,1,95
296,376,233020,2,8,B|253:398|205:374,1,95
88,64,233242,5,2
424,64,233464,1,2
424,64,233575,1,2
256,304,233796,1,2
256,304,233907,1,2
248,144,234240,6,0,B|248:240,2,95
280,64,234572,2,0,B|392:40|320:136|464:120,1,190,4|0
496,328,235016,5,2
16,328,235237,1,2
16,328,235348,1,2
496,328,235570,1,2
496,328,235681,1,2
496,328,235791,1,2
416,72,235902,6,0,B|448:24|512:24,1,95,4|0
96,312,236124,2,0,B|64:360|0:360,1,95
256,192,236346,1,8
256,192,236567,1,8
8,0,236789,6,0,B|8:104,1,95,4|0
72,40,237011,2,0,B|72:152,1,95,0|8
72,135,237454,1,2
72,135,237565,1,2
328,120,237676,5,4
184,120,237787,1,0
328,264,237897,1,4
184,264,238008,1,0
256,240,238119,6,8,B|232:192|288:176|248:128,1,95
480,49,238562,6,8,B|480:153,1,95
480,144,238784,2,8,B|480:249,1,95
480,239,239006,2,8,B|480:361,2,95
0,352,239449,5,0
88,352,239560,1,0
0,352,239671,1,0
512,272,239893,5,0
336,272,240003,1,0
512,272,240114,1,0
0,192,240336,5,0
264,192,240447,1,0
0,192,240558,1,12
512,112,240779,5,0
160,120,240890,1,0
512,112,241001,1,0
440,48,241223,6,0,B|280:-16|200:120|56:32,1,380,4|0
64,208,241555,1,0
224,152,241666,1,12
224,152,241888,1,0
256,352,242109,6,0,B|256:248,3,95
408,344,242553,6,0,B|296:240|488:112|312:-8,1,380,12|0
72,48,242996,6,0,B|232:-16|312:120|456:32,1,380,4|0
448,208,243328,1,0
288,152,243439,1,12
288,152,243661,1,0
256,352,243994,6,0,B|256:248,2,95
104,344,244326,2,0,B|216:240|24:112|200:-8,1,380,12|0
496,32,244770,5,4
16,32,245102,1,0
16,32,245213,2,12,B|200:48|120:256|320:232,1,380,12|0
352,16,245656,5,0
464,144,245767,1,0
296,176,245878,1,0
352,16,245989,1,0
184,56,246100,2,4,B|48:160|168:344|352:296,1,380,12|0
480,344,246543,5,4
32,40,246875,1,0
32,40,246986,1,12
32,40,247208,1,0
32,40,247319,2,0,B|112:104,2,95
248,24,247928,6,12,B|96:128|432:208|248:352,1,380,12|0
0,328,248316,6,2,B|128:312|168:160|80:32|-16:56,2,380,2|0|2
512,328,248981,2,2,B|384:312|344:160|432:32|528:56,2,380,2|0|2
256,192,249646,1,12
256,192,249868,1,0
112,120,250090,6,0,B|192:16|264:-56|320:16|400:120,1,380,4|0
496,184,250478,1,0
400,264,250533,2,0,B|320:368|248:440|192:368|112:264,1,380,12|0
32,184,250866,1,0
120,344,250977,5,0
256,192,251087,1,0
392,40,251198,1,0
256,192,251309,1,0
120,344,251420,2,12,B|-16:224|288:120|112:16,1,380,12|0
464,344,251863,5,4
392,40,252085,1,0
392,40,252196,1,8
392,40,252307,6,0,B|312:56|392:176|272:184,1,190,0|12
120,344,252972,1,0
120,344,253083,1,8
120,344,253193,1,4
48,32,253637,5,10
48,32,253748,1,10
464,32,253858,5,10
464,32,253969,1,10
464,352,254080,5,10
464,352,254191,1,10
48,352,254301,5,10
48,352,254412,1,10
48,192,254523,5,10
48,192,254634,1,10
464,192,254744,5,10
464,192,254855,1,10
256,32,254967,5,10
256,32,255078,1,10
256,352,255188,5,10
256,352,255299,1,10
256,192,255410,5,12
