osu file format v9

[General]
AudioFilename: DJ HERO - Noisia Groundhog (Beat Juggle).mp3
AudioLeadIn: 0
PreviewTime: -1
Countdown: 0
SampleSet: Normal
StackLeniency: 0.7
Mode: 0
LetterboxInBreaks: 0
EpilepsyWarning: 1

[Editor]
DistanceSpacing: 0.6
BeatDivisor: 4
GridSize: 16

[Metadata]
Title:Groundhog (Beat Juggle)
Artist:Noisia
Creator:Takuma
Version:Insane
Source:DJ Hero OST
Tags:Agent Spin Here Mashley Larto Emdyion Doomsday ignorethis DJ Hero

[Difficulty]
HPDrainRate:7
CircleSize:5
OverallDifficulty:9
ApproachRate:9
SliderMultiplier:2.4
SliderTickRate:2

[Events]
//Background and Video events
0,0,"djherobg.png"
//Break Periods
2,57650,70372
2,99547,127122
2,184672,198060
//Storyboard Layer 0 (Background)
//Storyboard Layer 1 (Fail)
//Storyboard Layer 2 (Pass)
//Storyboard Layer 3 (Foreground)
//Storyboard Sound Samples
//Background Colour Transformations
3,100,163,162,255

[TimingPoints]
28410,443.360673908224,4,1,0,80,1,0
56895,-100,4,2,0,0,0,0
57560,-100,4,1,0,80,0,0
67314,-200,4,1,0,80,0,0
70861,-100,4,1,0,80,0,0
76182,-50,4,1,0,80,0,0
76847,-100,4,1,0,80,0,0
90369,-50,4,1,0,80,0,0
91034,-100,4,1,0,80,0,0
130382,-200,4,1,0,80,0,0
130603,-100,4,2,0,0,0,0
130937,-100,4,1,0,80,0,0
134262,-200,4,1,0,80,0,0
134484,-100,4,2,0,0,0,0
134705,-100,4,1,0,80,0,0
141466,-100,4,2,0,80,0,0
141688,-100,4,1,0,80,0,0
144570,-200,4,1,0,80,0,0
144680,-100,4,2,0,0,0,0
145124,-100,4,1,0,80,0,0
148449,-200,4,1,0,80,0,0
148671,-100,4,2,0,0,0,0
148892,-100,4,1,0,80,0,0
155654,-200,4,1,0,80,0,0
155987,-100,4,1,0,80,0,0
159090,-200,4,1,0,80,0,0
159312,-100,4,2,0,0,0,0
159533,-100,4,1,0,80,0,0
166073,-200,4,1,0,40,0,0
166184,-100,4,2,0,0,0,0
166406,-100,4,1,0,80,0,0
169398,-200,4,1,0,80,0,0
169509,-100,4,2,0,0,0,0
170285,-100,4,1,0,80,0,0
173388,-200,4,1,0,80,0,0
173832,-100,4,1,0,80,0,0
176935,-200,4,1,0,80,0,0
177045,-100,4,2,0,0,0,0
177379,-100,4,1,0,80,0,0
180482,-200,4,1,0,80,0,0
180592,-100,4,2,0,0,0,0
180926,-100,4,1,0,80,0,0
184472,-100,4,2,0,0,0,0
184693,-100,4,1,0,80,0,0
201985,-50,4,1,0,80,0,0
202207,-100,4,1,0,80,0,0
205310,-50,4,1,0,80,0,0
205753,-100,4,1,0,80,0,0
209079,-50,4,1,0,80,0,0
209300,-100,4,1,0,80,0,0
212848,-100,4,1,0,20,0,0
213291,-100,4,1,0,30,0,0
213734,-100,4,1,0,40,0,0
214177,-100,4,1,0,50,0,0
214620,-100,4,1,0,60,0,0
215063,-100,4,1,0,70,0,0
215506,-100,4,1,0,80,0,0
215949,-100,4,1,0,90,0,0
216394,-100,4,1,0,20,0,0
216837,-100,4,1,0,30,0,0
217280,-100,4,1,0,40,0,0
217723,-100,4,1,0,50,0,0
218166,-100,4,1,0,60,0,0
218609,-100,4,1,0,70,0,0
219052,-100,4,1,0,80,0,0
219495,-100,4,1,0,90,0,0
219938,-100,4,1,0,80,0,0
227035,-50,4,1,0,80,0,0

[Colours]
Combo1 : 0,0,255
Combo2 : 0,223,56
Combo3 : 255,0,0

[HitObjects]
48,96,28409,2,0,L|192:96,1,112.5,4|0
192,32,28742,1,0
256,32,28853,1,0
288,96,28964,1,0
256,160,29075,2,0,L|256:288,1,120
320,272,29407,1,0
352,336,29518,2,0,L|480:336,1,120
464,336,29850,1,2
464,160,30183,6,0,L|320:160,1,120,4|0
304,208,30515,1,0
256,160,30626,1,0
304,112,30737,1,0
256,64,30848,2,0,L|128:64,1,120
80,48,31181,1,0
80,48,31291,2,0,L|80:176,1,120,0|6
256,336,31956,6,0,L|128:336,1,120,4|0
80,304,32289,1,0
80,240,32400,2,0,L|208:240,1,120
256,208,32732,1,0
256,144,32843,2,0,L|256:80,2,60
384,176,33286,1,0
384,176,33397,1,2
384,352,33730,6,0,L|384:224,1,120,4|0
448,208,34062,1,0
448,144,34173,1,0
384,112,34284,1,0
384,176,34395,2,0,L|256:176,1,120
224,224,34727,1,0
256,288,34838,1,0
256,48,35060,1,6
256,48,35503,6,0,L|128:48,1,120,4|0
80,80,35836,1,0
48,144,35947,1,0
80,208,36057,1,0
144,176,36168,2,0,L|144:304,1,120
208,272,36501,1,0
256,320,36612,2,0,L|384:320,1,120
368,320,36944,1,2
256,176,37277,6,0,L|384:176,1,120,4|0
416,224,37609,1,0
480,208,37720,2,0,L|480:80,1,120
432,48,38053,1,0
368,80,38163,2,0,L|304:80,2,60
256,32,38607,1,6
256,336,39050,6,0,L|128:336,1,120,4|0
112,272,39383,1,0
48,272,39494,1,0
16,208,39604,1,0
48,144,39715,2,0,L|48:16,1,120
48,31,40048,1,0
48,31,40159,1,0
240,32,40491,6,0,L|416:32,1,120,2|4
304,192,41156,2,0,L|112:192,1,180,2|4
240,352,41821,2,0,L|416:352,1,120,2|4
464,96,42597,6,0,L|320:96,1,120,4|0
320,32,42930,1,0
256,32,43041,1,0
224,96,43152,1,0
256,160,43263,2,0,L|256:288,1,120
192,272,43595,1,0
160,336,43706,2,0,L|32:336,1,120
48,336,44038,1,2
48,160,44371,6,0,L|192:160,1,120,4|0
208,208,44703,1,0
256,160,44814,1,0
208,112,44925,1,0
256,64,45036,2,0,L|384:64,1,120
432,48,45369,1,0
432,48,45479,2,0,L|432:176,1,120,0|6
256,336,46144,6,0,L|384:336,1,120,4|0
432,304,46477,1,0
432,240,46588,2,0,L|304:240,1,120
256,208,46920,1,0
256,144,47031,2,0,L|256:80,2,60
128,176,47474,1,0
128,176,47585,1,2
128,352,47918,6,0,L|128:224,1,120,4|0
64,208,48250,1,0
64,144,48361,1,0
128,112,48472,1,0
128,176,48583,2,0,L|256:176,1,120
288,224,48915,1,0
256,288,49026,1,0
256,48,49248,1,6
256,48,49691,6,0,L|384:48,1,120,4|0
432,80,50024,1,0
464,144,50135,1,0
432,208,50245,1,0
368,176,50356,2,0,L|368:304,1,120
304,272,50689,1,0
256,320,50800,2,0,L|128:320,1,120
143,320,51132,1,2
256,176,51465,6,0,L|128:176,1,120,4|0
96,224,51797,1,0
32,208,51908,2,0,L|32:80,1,120
80,48,52241,1,0
144,80,52351,2,0,L|208:80,2,60
256,32,52795,1,6
256,336,53238,6,0,L|384:336,1,120,4|0
400,272,53571,1,0
464,272,53682,1,0
496,208,53792,1,0
464,144,53903,2,0,L|464:16,1,120
464,31,54236,1,0
464,31,54347,1,0
272,32,54679,6,0,L|96:32,1,120,2|4
208,192,55344,2,0,L|400:192,1,180,2|4
272,352,56009,2,0,L|96:352,1,120,2|4
256,192,56674,12,0,57450
32,192,70972,6,0,B|117:184|144:80,1,168.75,4|0
192,32,71415,2,2,B|320:32,1,112.5,2|0
336,96,71748,2,0,B|464:96,2,112.5
304,160,72302,1,0
336,272,72524,1,0
336,272,72746,6,0,L|256:299|176:272,1,168.75,0|0
176,272,73189,1,0
208,160,73411,1,0
416,224,73632,5,0
256,32,73965,1,0
96,224,74297,1,2
256,192,74519,5,4
256,192,74630,12,0,75406
256,192,75627,5,0
256,192,75738,1,0
256,192,75849,1,4
256,192,76182,12,0,76957
256,192,77179,5,0
128,320,77512,1,0
384,64,77844,1,2
384,192,78066,5,4
384,192,78509,2,2,L|368:201|354:187|336:202|320:188|306:204|287:188|270:203|256:192,1,168.75,2|0
176,96,79063,2,0,L|48:96,1,112.5
16,144,79396,2,0,B|85:160|80:224,1,112.5
168,304,79839,6,0,L|248:304|344:304,1,168.75,0|0
384,304,80283,1,0
448,192,80504,1,0
512,160,80615,1,0
512,96,80726,1,0
448,64,80837,2,0,B|320:64,1,112.5
335,64,81391,1,2
176,64,81613,5,4
335,64,81834,1,4
176,128,82056,5,4
336,128,82278,1,4
176,192,82500,5,4
336,192,82721,1,4
176,256,82943,5,4
336,256,83165,1,4
176,320,83386,5,4
336,320,83608,1,4
256,224,83830,1,4
256,224,83940,1,0
256,192,84162,12,0,84716
480,192,85160,6,0,B|395:184|368:80,1,168.75,4|0
320,32,85603,2,2,B|192:32,1,112.5,2|0
176,96,85936,2,0,B|48:96,2,112.5
208,160,86490,1,0
176,272,86712,1,0
176,272,86934,6,0,L|256:299|336:272,1,168.75,0|0
336,272,87377,1,0
304,160,87599,1,0
96,224,87820,5,0
256,32,88153,1,0
416,224,88485,1,2
256,192,88707,5,4
256,192,88818,12,0,89594
256,192,89815,5,0
256,192,89926,1,0
256,192,90037,1,4
256,192,90370,12,0,91145
256,192,91367,5,0
384,320,91700,1,0
128,64,92032,1,2
128,192,92254,5,4
128,192,92697,2,2,L|144:201|158:187|176:202|192:188|206:204|225:188|242:203|256:192,1,168.75,2|0
336,96,93251,2,0,L|464:96,1,112.5
496,144,93584,2,0,B|427:160|432:224,1,112.5
344,304,94027,6,0,L|264:304|168:304,1,168.75,0|0
128,304,94471,1,0
64,192,94692,1,0
0,160,94803,1,0
0,96,94914,1,0
64,64,95025,2,0,B|192:64,1,112.5
176,64,95579,1,2
335,64,95801,5,4
176,64,96022,1,4
256,96,96133,1,0
336,128,96244,5,4
176,128,96466,1,4
336,192,96688,5,4
176,192,96909,1,4
336,256,97131,5,4
176,256,97353,1,4
256,288,97463,1,0
336,320,97574,5,4
176,320,97796,1,4
256,288,97906,1,0
336,256,98017,1,0
256,224,98128,1,0
256,192,98350,12,0,98904
256,192,99347,5,6
32,32,127722,5,4
32,32,127944,2,0,L|160:32,1,112.5
192,80,128276,1,0
32,112,128498,1,0
80,160,128609,5,4
80,160,128831,2,0,L|208:160,1,112.5
240,208,129163,1,0
80,240,129385,1,0
128,288,129496,5,4
128,288,129718,2,0,L|256:288,1,112.5
288,336,130050,1,0
336,208,130272,1,0
384,256,130382,6,0,L|512:256,1,112.5
480,32,131269,5,4
480,32,131491,2,0,L|352:32,1,112.5
320,80,131823,1,0
480,112,132045,1,0
432,160,132156,5,4
432,160,132378,2,0,L|304:160,1,112.5
272,208,132710,1,0
432,240,132932,1,0
384,288,133043,5,4
384,288,133265,2,0,L|256:288,1,112.5
224,336,133597,1,0
176,208,133819,1,0
128,256,133929,6,0,L|0:256,1,112.5
64,144,134373,2,0,L|64:16,1,112.5,0|4
192,32,135038,5,0
320,32,135259,1,0
320,96,135370,1,0
192,96,135592,1,0
256,64,135703,1,4
384,64,135924,5,0
256,128,136146,1,0
256,64,136257,1,0
384,128,136479,1,0
320,160,136590,1,4
192,160,136811,5,0
256,256,137033,1,0
192,224,137144,1,0
320,224,137365,1,0
256,192,137476,1,0
256,192,137587,12,0,138141
256,192,138363,5,4
144,144,138585,1,0
32,192,138806,1,8
256,96,139250,5,4
368,144,139471,1,0
480,96,139693,1,8
480,336,140136,5,4
416,224,140358,1,0
352,336,140580,1,8
256,272,140801,1,0
160,336,141023,1,4
96,224,141245,1,0
32,336,141467,1,0
480,32,141910,5,4
480,32,142132,2,0,L|352:32,1,112.5
320,80,142464,1,0
480,112,142686,1,0
432,160,142797,5,4
432,160,143019,2,0,L|304:160,1,112.5
272,208,143351,1,0
432,240,143573,1,0
384,288,143684,5,4
384,288,143906,2,0,L|256:288,1,112.5
224,336,144238,1,0
176,208,144460,1,0
128,256,144570,6,0,L|0:256,1,112.5
32,32,145457,5,4
32,32,145679,2,0,L|160:32,1,112.5
192,80,146011,1,0
32,112,146233,1,0
80,160,146344,5,4
80,160,146566,2,0,L|208:160,1,112.5
240,208,146898,1,0
80,240,147120,1,0
128,288,147231,5,4
128,288,147453,2,0,L|256:288,1,112.5
288,336,147785,1,0
336,208,148007,1,0
384,256,148117,6,0,L|512:256,1,112.5
448,144,148561,2,0,L|448:16,1,112.5,0|4
320,32,149226,5,0
192,32,149447,1,0
192,96,149558,1,0
320,96,149780,1,0
256,64,149891,1,4
128,64,150112,5,0
256,128,150334,1,0
256,64,150445,1,0
128,128,150667,1,0
192,160,150778,1,4
320,160,150999,5,0
256,256,151221,1,0
320,224,151332,1,0
192,224,151553,1,0
256,192,151664,1,0
256,192,151775,12,0,152329
256,192,152551,5,4
368,144,152773,1,0
480,192,152994,1,8
256,96,153438,5,4
144,144,153659,1,0
32,96,153881,1,8
32,336,154324,5,4
96,224,154546,1,0
160,336,154768,1,8
256,272,154989,1,0
352,336,155211,1,4
416,224,155433,1,0
480,336,155655,1,0
48,96,156097,6,0,L|32:176,1,80,4|0
16,224,156393,1,0
32,272,156541,2,0,L|112:272,1,80,8|0
160,256,156836,1,0
224,320,156984,6,0,L|288:272,1,80,4|0
320,240,157280,1,0
288,208,157427,2,0,L|288:128,1,80,8|0
288,80,157723,1,0
368,48,157871,6,0,L|448:64,1,80,4|0
480,96,158166,1,0
464,144,158314,2,0,L|480:224,1,80,8|0
432,240,158610,2,0,L|352:240,1,80
320,240,158868,1,0
352,240,158979,1,0
320,320,159201,2,0,B|256:320,1,60
128,320,159644,6,0,L|96:240,1,80,4|0
48,272,159940,1,0
32,224,160088,2,0,L|32:128,1,80,8|0
32,96,160383,1,0
96,64,160531,6,0,L|176:64,1,80,4|0
208,96,160827,1,0
256,80,160974,2,0,L|336:48,1,80,8|0
368,32,161270,1,0
464,80,161418,6,0,L|384:112,1,80,4|0
400,160,161713,1,0
368,192,161861,2,0,L|288:192,1,80,8|0
256,224,162157,1,0
256,224,162304,1,0
256,224,163191,6,0,L|256:304,1,80,4|0
224,336,163487,1,0
272,352,163635,2,0,L|352:320,1,80,8|0
384,304,163930,1,0
464,272,164078,6,0,L|464:192,1,80,4|0
432,160,164373,1,0
448,128,164521,2,0,L|368:96,1,80,8|0
336,80,164817,1,0
256,96,164965,6,0,L|256:192,1,80,4|0
224,208,165260,1,0
192,192,165408,2,0,L|112:224,1,80,8|0
80,240,165704,1,0
80,240,165851,2,0,L|80:304,1,60
144,288,166073,2,0,B|176:304|176:336,1,60
288,304,166738,6,0,L|304:208,1,80,4|0
304,192,167034,1,0
336,176,167181,2,0,L|416:176,1,80,8|0
464,176,167477,1,0
480,96,167625,6,0,L|400:64,1,80,4|0
384,96,167920,1,0
352,80,168068,2,0,L|288:128,1,80,8|0
256,160,168364,1,0
192,208,168511,6,0,L|96:192,1,80,4|0
80,192,168807,1,0
48,208,168955,2,0,L|48:128,2,80,8|0|0
48,304,169398,2,0,L|80:320|224:272|272:320,1,240,0|4
320,336,170433,5,0
352,320,170581,1,0
384,336,170728,2,0,L|464:304,1,80,8|0
480,272,171024,1,0
464,192,171172,6,0,L|384:224,1,80,4|0
368,192,171467,1,0
336,208,171615,2,0,L|336:112,1,80,8|0
336,96,171911,1,0
272,144,172058,6,0,L|240:128|240:80,1,80,4|0
208,64,172354,1,0
176,80,172502,2,0,L|160:160,1,80,8|0
144,192,172797,1,0
64,160,172945,6,0,L|80:256,1,80,4|0
64,272,173241,1,0
96,288,173388,2,0,L|128:304|160:272|208:288,1,120,0|4
272,304,173980,5,0
304,288,174127,1,0
272,256,174275,2,0,L|256:176,1,80,8|0
224,192,174571,1,0
144,176,174719,6,0,L|160:96,1,80,4|0
128,64,175014,1,0
160,32,175162,2,0,L|240:48,1,80,8|0
256,80,175457,1,0
336,64,175605,6,0,L|304:144,1,80,4|0
320,176,175901,1,0
352,160,176049,2,0,L|448:176,1,80,8|0
464,192,176344,1,0
480,272,176492,6,0,L|400:272,1,80,4|0
368,256,176788,1,0
352,288,176935,2,0,B|288:320|224:288,1,120,0|4
192,224,177526,5,0
160,240,177674,1,0
128,224,177822,2,0,L|80:304,1,80,8|0
64,320,178118,1,0
32,256,178265,6,0,L|32:160,1,80,4|0
64,160,178561,1,0
32,128,178709,2,0,L|112:80,1,80,8|0
128,64,179004,1,0
176,128,179152,6,0,L|272:128,1,80,4|0
288,144,179448,1,0
272,176,179595,2,0,L|256:256,1,80,8|0
272,288,179891,1,0
336,336,180039,6,0,L|432:336,1,80,4|0
448,320,180334,1,0
432,288,180482,2,0,L|432:128,1,120,0|4
464,96,181073,5,0
432,64,181221,1,0
400,80,181369,2,0,L|320:112,1,80,8|0
288,80,181665,1,0
256,160,181812,6,0,L|256:240,1,80,4|0
256,288,182108,1,0
224,272,182256,2,0,L|160:320,1,80,8|0
128,336,182551,1,0
64,288,182699,6,0,L|80:208,1,80,4|0
112,192,182995,1,0
128,160,183142,2,0,L|48:144,1,80,8|0
32,112,183438,1,0
80,48,183586,6,0,L|176:48,1,80,4|0
192,32,183881,1,0
208,64,184029,2,0,L|240:144,1,80,0|0
256,176,184325,2,0,L|352:192,1,80,0|0
32,32,198660,5,4
32,144,198882,1,0
80,112,198993,1,0
128,144,199103,1,8
176,176,199214,1,0
224,144,199325,2,2,B|272:192|256:256,1,120,2|4
352,352,199768,6,0,B|384:288,1,60
416,352,199990,2,0,B|448:288,1,60,8|0
464,240,200212,2,2,B|400:224|416:144,1,120,2|0
320,80,200655,2,0,B|352:64,4,30
256,256,201098,2,0,L|256:128,1,120,2|2
144,192,201542,1,0
96,144,201653,1,0
48,192,201764,1,8
96,240,201874,1,0
144,192,201985,2,2,L|384:192,1,240,2|4
480,256,202429,5,0
432,224,202539,1,0
432,160,202650,1,8
480,128,202761,1,0
480,192,202872,2,2,L|480:320,1,120,2|4
368,320,203315,2,0,L|320:272,1,60
288,320,203537,2,0,L|240:272,1,60,0|0
208,240,203759,2,2,L|80:240,1,120,2|4
32,128,204202,5,0
96,112,204313,1,0
96,48,204424,1,8
208,80,204645,2,2,B|224:121|294:119|304:80,1,120,2|0
304,16,204978,1,0
416,16,205200,1,0
464,64,205310,2,2,L|432:80|464:96|432:112|464:128|432:144|464:160|432:176|464:192|432:208|464:224|432:240|464:256|432:272|464:288,1,480,2|4
336,336,205975,5,0
304,288,206085,1,0
272,240,206196,1,8
240,288,206307,1,0
208,336,206418,1,2
96,288,206640,1,4
176,192,206862,2,0,L|144:128,1,60
112,192,207084,2,0,L|80:128,1,60,8|0
64,80,207306,2,2,L|192:80,1,120,2|4
256,192,207749,5,0
304,144,207860,1,0
256,96,207971,1,0
368,144,208192,2,8,L|464:224,1,120,2|2
459,316,208636,1,0
427,268,208746,1,0
459,220,208857,2,8,L|459:156,1,60,8|0
459,99,209079,2,2,B|404:-30|256:25,1,240,2|4
208,64,209411,5,0
256,112,209522,1,0
304,144,209633,1,0
272,192,209744,1,8
224,160,209855,2,0,L|160:192,1,60,0|2
48,192,210187,1,0
80,304,210409,5,0
112,320,210520,1,0
144,336,210631,1,0
176,352,210742,1,0
224,288,210852,2,2,L|384:288,1,120,2|4
448,336,211296,1,0
480,288,211407,1,0
448,240,211517,2,0,L|448:112,1,120,12|2
400,80,211850,1,0
448,32,211961,1,0
448,32,212072,1,0
336,80,212293,1,0
272,64,212404,2,0,L|192:64,1,60,8|0
208,128,212626,2,0,L|144:128,1,60,2|0
32,32,212848,5,0
32,48,212958,1,0
32,64,213069,1,0
32,80,213180,1,0
96,80,213291,5,0
96,96,213402,1,0
96,112,213513,1,0
96,128,213623,1,0
160,32,213734,5,0
160,64,213845,1,0
160,96,213956,1,0
160,128,214067,1,0
224,128,214178,5,0
224,160,214289,1,0
224,192,214400,1,0
224,224,214511,1,0
288,32,214621,5,4
288,80,214732,1,0
288,128,214843,1,0
288,176,214954,1,0
352,176,215064,5,8
352,224,215175,1,0
352,272,215286,1,0
352,320,215397,1,0
432,352,215508,6,0,L|496:336,1,60,4|0
496,256,215729,2,0,L|432:224,1,60
442,154,215951,2,0,L|496:128,1,60,8|0
490,46,216173,2,0,L|432:32,1,60
352,32,216394,5,0
336,32,216505,1,0
320,32,216616,1,0
304,32,216727,1,0
304,96,216838,5,0
288,96,216948,1,0
272,96,217059,1,0
256,96,217170,1,0
352,160,217281,5,0
320,160,217392,1,0
288,160,217503,1,0
256,160,217614,1,0
256,224,217725,5,0
224,224,217836,1,0
192,224,217947,1,0
160,224,218058,1,0
352,288,218168,5,4
304,288,218279,1,0
256,288,218390,1,0
208,288,218501,1,0
208,352,218611,5,8
160,352,218722,1,0
112,352,218833,1,0
64,352,218944,1,0
32,288,219055,6,0,L|32:224,1,60,4|0
32,160,219276,2,0,L|32:96,1,60
112,48,219498,2,0,L|112:112,1,60,8|0
112,176,219720,2,0,L|112:240,1,60
160,304,219941,6,0,B|224:304|240:224,1,120
384,304,220385,2,0,B|320:304|304:224,1,120
384,80,220828,2,0,B|320:80|304:160,1,120
160,80,221271,2,0,B|224:80|240:160,1,120
432,192,221715,6,0,B|384:224|304:192,1,120,4|0
256,32,222158,2,0,B|288:96|256:160,1,120,8|0
80,192,222601,2,0,B|144:176|208:192,1,120,4|0
256,352,223045,2,0,B|224:288|256:224,1,120,8|0
288,224,223488,5,0
288,224,223599,1,0
288,224,223710,1,0
288,224,223821,1,0
288,224,223932,1,0
288,224,224042,1,0
288,224,224153,1,0
288,224,224264,1,0
288,224,224375,1,0
288,224,224486,1,0
288,224,224597,1,0
288,224,224707,1,0
288,224,224818,1,0
288,224,224929,1,0
288,224,225040,1,0
288,224,225151,1,0
256,192,225262,12,4,227035
256,192,227257,5,0
224,256,227368,1,0
256,320,227478,2,0,B|384:320,1,120,8|0
448,304,227700,2,2,B|496:240|448:160,1,120,2|0
432,128,227922,2,0,B|304:144|240:0,1,240
244,9,228254,1,0
96,32,228476,1,0
48,80,228587,1,4
112,112,228698,1,0
80,176,228809,6,0,B|32:224|80:288,1,120,8|0
144,320,229030,2,0,B|192:272|144:192,1,120
192,144,229252,2,2,B|320:160|320:320,1,240,2|0
384,320,229584,1,0
448,304,229695,2,0,B|416:224|512:144|464:64,1,240,8|0
468,71,230028,1,0
400,96,230139,1,4
304,208,230360,6,0,B|240:176|256:96,1,120
208,48,230582,2,0,B|64:64,1,120
16,80,230804,1,0
64,128,230914,1,0
32,192,231025,2,2,B|176:240|128:384,1,240,10|0
208,368,231358,1,0
256,304,231469,2,0,B|176:192|272:80,1,240,0|0
336,64,231801,2,0,B|368:128|320:176,1,120,0|4
384,304,232134,5,0
416,240,232245,1,0
480,272,232355,2,0,L|512:128,1,120,8|0
464,96,232577,1,0
400,128,232688,2,0,L|256:144,1,120,0|2
160,64,233020,1,0
192,128,233131,1,0
128,160,233242,2,0,B|0:224|64:368,1,240,4|0
128,352,233575,1,0
144,288,233685,1,8
208,336,233796,2,0,B|272:320|272:240,1,120
256,176,234018,1,0
320,192,234129,6,0,B|448:192|480:352,1,240,4|0
400,352,234461,1,0
352,304,234572,2,2,B|464:224|448:96,1,240,10|0
432,32,234905,1,0
368,64,235016,2,0,B|224:-16|112:112,1,240
96,128,235348,1,0
80,64,235459,1,12
32,192,235681,6,0,B|96:240|80:304,1,120,4|0
80,368,235902,2,0,B|224:368,1,120,8|0
256,320,236124,2,0,B|208:272|224:208,1,120
240,144,236346,2,2,B|464:256,1,240,2|4
454,251,236789,1,0
496,128,237011,1,0
496,128,237122,1,0
496,128,237232,1,8
400,32,237454,5,0
336,80,237565,1,0
272,48,237676,2,2,B|240:192|368:272,1,240,6|0
384,320,238008,1,0
320,320,238119,2,0,B|256:288|192:320,1,120,8|0
144,336,238341,1,2
80,304,238452,1,0
80,240,238562,2,0,B|160:144|96:0,1,240,8|0
32,48,238895,1,0
48,112,239006,2,0,B|176:64|272:192,1,240,4|0
464,304,239449,6,0,L|464:48,1,240
48,64,239893,2,0,L|48:304,1,240
368,32,240336,6,0,L|112:32,1,240
128,352,240779,2,0,L|368:352,1,240
256,112,241223,5,4
144,192,241444,1,8
192,256,241555,1,0
240,192,241666,2,0,B|352:288|464:192,1,240,2|2
464,48,242109,5,0
400,32,242220,1,0
352,80,242331,1,0
288,48,242442,1,0
256,112,242553,2,0,L|16:112,1,240,10|2
16,256,242996,5,4
144,208,243218,1,8
176,272,243329,1,0
144,336,243439,2,0,B|272:336|304:160,1,240,2|2
320,80,243883,1,0
384,64,243994,1,0
448,80,244104,1,0
480,144,244215,1,0
480,224,244326,2,0,B|336:208|320:384,1,240,10|2
256,240,244770,5,4
128,304,244991,1,8
64,288,245102,1,0
48,224,245213,2,0,B|144:128|96:0,1,240,2|2
240,16,245656,2,0,B|368:16,1,120,4|0
320,80,245878,2,0,B|448:80,1,120
464,144,246100,2,0,B|352:224|416:368,1,240,10|2
304,272,246543,5,0
176,352,246765,1,8
112,320,246875,1,0
96,256,246986,2,0,B|176:128|320:176,1,240,2|2
400,272,247430,1,0
448,224,247541,1,0
400,176,247651,1,0
464,144,247762,1,0
448,80,247873,2,0,B|192:48,1,240,2|2
64,32,248316,5,4
64,176,248538,2,0,B|128:64,2,120,0|0|2
96,240,248871,1,0
160,208,248981,1,8
160,352,249203,2,0,B|352:352,2,180
192,288,249646,2,0,B|448:288,1,240,10|2
464,144,250090,5,4
320,192,250312,1,8
256,160,250422,1,0
224,224,250533,1,2
160,208,250644,1,0
96,192,250755,1,0
32,176,250866,1,0
48,112,250977,2,0,B|64:48|144:48,1,120
160,112,251198,2,0,B|240:112|256:32,1,120
320,16,251420,2,0,B|480:208,1,240,2|2
400,320,251863,5,4
288,224,252085,1,0
320,288,252196,1,0
256,336,252307,1,8
208,288,252417,2,0,B|144:272|96:320,1,120,0|8
32,192,252750,1,0
96,64,252972,1,8
144,112,253083,1,0
192,64,253193,5,0
256,80,253304,1,0
304,32,253415,1,0
448,80,253637,6,0,B|352:160,1,120
384,224,253858,2,0,B|432:288|384:352,1,120
320,352,254080,2,0,B|288:208,1,120
224,208,254302,2,0,B|144:240|160:320,1,120
80,304,254523,2,0,B|112:240|64:176,1,120
32,128,254745,2,0,B|144:80,1,120
176,144,254967,2,0,B|304:80|416:176,1,240
401,164,255410,1,6
