osu file format v7

[General]
AudioFilename: DJ HERO - Noisia Groundhog (Beat Juggle).mp3
AudioLeadIn: 0
PreviewTime: -1
Countdown: 0
SampleSet: Normal
StackLeniency: 0.7
Mode: 0
LetterboxInBreaks: 0
EpilepsyWarning: 1

[Editor]
Bookmarks: 57671,70972,99347,157871,164078,164226,178265,184472,198660,212848,241222
DistanceSpacing: 0.699999988079071
BeatDivisor: 4
GridSize: 8

[Metadata]
Title:Groundhog (Beat Juggle)
Artist:Noisia
Creator:Takuma
Version:Emdyion's Level
Source:DJ Hero OST
Tags:Agent Spin Here Mashley Larto Emdyion Doomsday ignorethis DJ Hero

[Difficulty]
HPDrainRate:4
CircleSize:4
OverallDifficulty:6
SliderMultiplier:2.2
SliderTickRate:2

[Events]
//Background and Video events
0,0,"djherobg.png"
//Break Periods
2,57760,69922
2,99547,126672
2,154524,155047
2,184672,197610
//Storyboard Layer 0 (Background)
//Storyboard Layer 1 (Fail)
//Storyboard Layer 2 (Pass)
//Storyboard Layer 3 (Foreground)
//Storyboard Sound Samples
//Background Colour Transformations
3,100,163,162,255

[TimingPoints]
28410,443.360673908224,4,1,0,80,1,0
34904,-100,4,1,0,0,0,0
35050,-100,4,1,0,80,0,0
38496,-100,4,1,0,0,0,0
38551,-100,4,1,0,80,0,0
57413,-100,4,2,0,0,0,0
57634,-100,4,1,0,80,0,0
127722,-100,4,1,0,80,0,0
130382,-200,4,1,0,0,0,0
131158,-100,4,1,0,80,0,0
134040,-100,4,1,0,0,0,0
134705,-100,4,1,0,80,0,0
137476,-200,4,1,0,0,0,0
138252,-100,4,1,0,80,0,0
141134,-100,4,2,0,0,0,0
141799,-100,4,1,0,80,0,0
144570,-200,4,2,0,0,0,0
145346,-100,4,1,0,80,0,0
148228,-100,4,2,0,0,0,0
148893,-100,4,1,0,80,0,0
151664,-200,4,2,0,0,0,0
152440,-100,4,1,0,80,0,0
158758,-200,4,2,0,0,0,0
159349,-100,4,1,0,80,0,0
162304,-100,4,2,0,0,0,0
163043,-100,4,1,0,80,0,0
165999,-100,4,2,0,0,0,0
166442,-100,4,1,0,80,0,0
169398,-100,4,1,0,80,0,0
169694,-200,4,2,0,0,0,0
170284,-100,4,1,0,80,0,0
180039,-200,4,2,0,0,0,0
180630,-100,4,1,0,80,0,0
183586,-100,4,2,0,0,0,0
196887,-50,4,1,0,80,0,0
212737,-100,4,1,0,40,0,0
214621,-50,4,1,0,80,0,0
216394,-100,4,1,0,40,0,0
218057,-50,4,1,0,80,0,0
223488,-50,4,1,0,80,0,0
225262,221.680336954112,4,1,0,50,1,0
227478,-50,4,1,0,80,0,0
227700,-100,4,1,0,80,0,0
234572,-50,4,1,0,80,0,0
234905,-100,4,1,0,80,0,0
245213,-50,4,1,0,80,0,0
245545,-100,4,1,0,80,0,0
246099,-50,4,1,0,80,0,0
246432,-100,4,1,0,80,0,0
246986,-50,4,1,0,80,0,0
247319,-100,4,1,0,80,0,0
247873,-50,4,1,0,80,0,0
248205,-100,4,1,0,80,0,0
255298,-100,4,1,0,80,0,0
255410,-200,4,1,0,10,0,0

[Colours]
Combo1 : 0,0,255
Combo2 : 0,223,56
Combo3 : 255,0,0

[HitObjects]
120,56,28409,1,4
384,56,29075,1,4
376,232,29518,5,8
256,288,29850,1,2
136,232,30183,1,4
128,56,30626,5,0
48,88,30848,2,0,B|104:168|128:168|152:168|224:72,1,220,8|8
296,88,31513,2,2,B|352:168|376:168|400:168|472:72,1,220,2|4
376,56,32178,1,8
408,232,32621,5,4
256,320,33065,5,8
256,192,33397,1,0
256,56,33730,1,4
104,232,34173,5,8
24,200,34395,2,0,B|80:120|104:120|128:120|200:216,1,220,4|8
176,288,35060,2,2,B|232:368|256:368|280:368|352:272,1,220,2|4
324,199,35725,2,0,B|384:120|408:120|432:120|488:200,1,220,8|4
408,232,36390,5,8
368,312,36612,1,4
256,248,36944,1,12
144,312,37277,1,4
104,232,37498,1,8
96,144,37720,6,0,B|456:144,1,330
368,72,38607,2,2,B|120:72,1,220,6|4
56,72,39272,2,0,B|128:136|16:200|128:304,1,220,8|4
168,336,39937,1,0
256,312,40159,6,4,B|256:120,2,165,4|2|4
328,200,41156,2,4,B|328:392,2,165,2|4|2
448,152,42154,2,2,B|448:296,1,110,6|0
392,328,42597,5,4
128,328,43263,1,4
136,152,43706,5,8
256,96,44038,1,2
376,152,44371,1,4
384,328,44814,5,0
464,296,45036,2,0,B|408:216|384:216|360:216|288:312,1,220,8|8
216,296,45701,2,2,B|160:216|136:216|112:216|40:312,1,220,2|4
136,328,46366,1,8
104,152,46809,5,4
256,64,47253,5,8
256,192,47585,1,0
256,328,47918,1,4
408,152,48361,5,8
488,184,48583,2,0,B|432:264|408:264|384:264|312:168,1,220,4|8
336,96,49248,2,2,B|280:16|256:16|232:16|160:112,1,220,2|4
187,184,49913,2,0,B|128:264|104:264|80:264|24:184,1,220,8|4
104,152,50578,5,8
144,72,50800,1,4
256,136,51132,1,12
368,72,51465,1,4
408,152,51686,1,8
416,240,51908,6,0,B|56:240,1,330
144,312,52795,2,2,B|392:312,1,220,6|4
456,312,53460,2,0,B|384:248|496:184|384:80,1,220,8|4
344,48,54125,1,0
256,72,54347,6,4,B|256:264,2,165,4|2|4
184,184,55344,2,4,B|184:-8,2,165,2|4|2
64,232,56341,2,2,B|64:88,1,110,6|0
256,192,56785,12,0,57560
128,40,70972,5,4
72,104,71194,1,8
128,168,71415,1,2
192,232,71637,1,8
192,232,71748,2,0,B|104:272|232:328,2,110
192,232,72302,1,4
256,168,72524,5,0
320,232,72746,5,12
320,232,72967,1,8
320,232,73078,1,8
320,232,73189,2,0,B|408:272|280:328,2,110
384,168,73854,1,2
440,104,74075,1,4
384,40,74297,1,8
256,192,74519,12,4,75184
168,192,75406,5,0
344,192,75849,1,2
256,192,76071,1,8
256,104,76292,2,0,B|296:64|296:64|320:120|320:120|352:72|352:72|392:128|392:128|416:72|416:72|472:128|472:128,1,330
448,176,77179,2,0,B|480:248|432:304,1,110,2|10
384,224,77623,2,0,B|352:296|400:352,1,110,2|8
296,328,78066,5,4
256,200,78398,1,0
256,200,78509,1,8
208,80,78842,2,0,B|80:80,2,110
208,80,79396,1,4
296,80,79618,2,0,B|424:80,2,110,8|8|8
296,80,80172,1,8
296,80,80283,2,0,B|336:200,2,110,4|8|4
216,80,80948,2,0,B|176:200,2,110,8|4|8
128,96,81613,6,0,B|32:152,1,110,4|0
120,168,82056,2,0,B|216:224,1,110,4|0
128,248,82500,2,0,B|32:304,1,110,4|0
120,320,82943,2,0,B|216:376,1,110,4|0
256,296,83386,5,4
208,224,83608,1,0
224,136,83830,1,8
352,136,84162,1,0
352,136,84273,2,0,B|432:176|320:224,1,110,2|0
288,272,84716,2,0,B|208:312|320:360,1,110,2|0
384,344,85160,5,4
440,280,85382,1,8
384,216,85603,1,2
320,152,85825,1,8
320,152,85936,2,0,B|408:112|280:56,2,110
320,152,86490,1,4
256,216,86712,5,0
192,152,86934,5,12
192,152,87155,1,8
192,152,87266,1,8
192,152,87377,2,0,B|104:112|232:56,2,110
128,216,88042,1,2
72,280,88263,1,4
128,344,88485,1,8
256,192,88707,12,4,89372
344,192,89594,5,0
168,192,90037,1,2
256,192,90259,1,8
256,280,90480,2,0,B|216:320|216:320|192:264|192:264|160:312|160:312|120:256|120:256|96:312|96:312|40:256|40:256,1,330
64,208,91367,2,0,B|32:136|80:80,1,110,2|10
128,160,91811,2,0,B|160:88|112:32,1,110,2|8
216,56,92254,5,4
256,184,92586,1,0
256,184,92697,1,8
304,304,93030,2,0,B|432:304,2,110
304,304,93584,1,4
216,304,93806,2,0,B|88:304,2,110,8|8|8
216,304,94360,1,8
216,304,94471,2,0,B|176:184,2,110,4|8|4
296,304,95136,2,0,B|336:184,2,110,8|4|8
384,288,95801,6,0,B|480:232,1,110,4|0
392,216,96244,2,0,B|296:160,1,110,4|0
384,136,96688,2,0,B|480:80,1,110,4|0
392,64,97131,2,0,B|296:8,1,110,4|0
256,88,97574,5,4
304,160,97796,1,0
288,248,98018,1,8
160,248,98350,1,0
160,248,98461,2,0,B|80:208|192:160,1,110,2|0
224,112,98904,2,0,B|304:72|192:24,1,110,2|0
128,40,99347,5,4
456,40,127722,6,0,B|336:40,1,110,6|0
256,40,128166,1,8
56,40,128498,5,8
56,40,128609,2,0,B|176:40,1,110,6|0
256,40,129053,1,8
256,240,129385,5,8
256,240,129496,2,0,B|256:120,1,110,6|0
256,40,129940,1,8
160,128,130272,5,0
160,128,130382,2,0,B|56:192|192:280,1,165
56,344,131269,6,0,B|176:344,1,110,6|0
256,344,131713,1,8
456,344,132045,5,8
456,344,132156,2,0,B|336:344,1,110,6|0
256,344,132600,1,8
256,144,132932,5,8
256,144,133043,2,0,B|256:264,1,110,6|0
256,344,133487,1,8
352,256,133819,5,0
352,256,133929,1,6
256,56,134151,5,0
160,256,134373,5,0
256,56,134595,5,0
256,192,134816,6,0,B|152:120,1,110,6|0
96,72,135259,1,8
256,192,135592,5,0
256,192,135703,2,0,B|256:304,1,110,6|0
256,384,136146,1,8
256,192,136479,5,0
256,192,136590,2,0,B|360:120,1,110,6|0
416,72,137033,1,8
256,192,137365,5,8
256,192,137476,2,0,B|192:112|320:128|248:40,1,165,4|0
176,96,138363,5,4
96,144,138585,1,0
96,144,138695,1,0
96,144,138806,1,4
176,184,139028,1,0
176,184,139139,1,0
176,184,139250,1,4
256,144,139471,1,0
256,144,139582,1,0
256,144,139693,1,4
336,184,139915,1,0
336,184,140026,1,0
336,184,140137,1,4
416,144,140359,1,0
416,144,140470,1,0
416,144,140580,1,4
336,96,140801,1,0
336,96,140912,1,0
336,96,141023,1,4
256,192,141134,12,0,141688
56,344,141910,6,0,B|176:344,1,110,6|0
256,344,142354,1,8
456,344,142686,5,8
456,344,142797,2,0,B|336:344,1,110,6|0
256,344,143241,1,8
256,144,143573,5,8
256,144,143684,2,0,B|256:264,1,110,6|0
256,344,144128,1,8
352,256,144460,5,0
352,256,144570,2,0,B|456:192|320:104,1,165
456,40,145457,6,0,B|336:40,1,110,6|0
256,40,145901,1,8
56,40,146233,5,8
56,40,146344,2,0,B|176:40,1,110,6|0
256,40,146788,1,8
256,240,147120,5,8
256,240,147231,2,0,B|256:120,1,110,6|0
256,40,147675,1,8
160,128,148007,5,0
160,128,148117,1,6
256,328,148339,5,0
352,128,148561,5,0
256,328,148783,5,0
256,192,149004,6,0,B|360:264,1,110,6|0
416,312,149447,1,8
256,192,149780,5,0
256,192,149891,2,0,B|256:80,1,110,6|0
256,0,150334,1,8
256,192,150667,5,0
256,192,150778,2,0,B|152:264,1,110,6|0
96,312,151221,1,8
256,192,151553,5,8
256,192,151664,2,0,B|320:272|192:256|264:344,1,165,4|0
256,192,152550,12,4,154324
384,48,156097,6,0,B|296:48,2,73.3333333333333,4|0|0
384,104,156541,2,0,B|488:104,2,73.3333333333333,4|0|0
384,160,156984,2,0,B|296:160,2,73.3333333333333,4|0|0
384,216,157428,2,0,B|488:216,2,73.3333333333333,4|0|0
384,272,157871,2,0,B|296:272,2,73.3333333333333,4|0|0
384,328,158315,2,0,B|488:328,2,73.3333333333333,4|0|0
328,328,158758,2,0,B|232:328,1,73.3333333333333
254,328,159201,1,0
128,48,159644,6,0,B|216:48,2,73.3333333333333,4|0|0
128,104,160088,2,0,B|24:104,2,73.3333333333333,4|0|0
128,160,160531,2,0,B|216:160,2,73.3333333333333,4|0|0
128,216,160975,2,0,B|24:216,2,73.3333333333333,4|0|0
128,272,161418,2,0,B|216:272,2,73.3333333333333,4|0|0
128,328,161862,2,0,B|24:328,2,73.3333333333333,4|0|0
256,192,162304,12,0,162896
40,40,163191,5,4
40,96,163339,1,0
40,152,163487,1,0
112,264,163635,5,4
112,208,163783,1,0
112,152,163931,1,0
184,40,164078,5,4
184,96,164226,1,0
184,152,164374,1,0
256,264,164522,5,4
256,208,164670,1,0
256,152,164818,1,0
328,40,164965,5,4
328,96,165113,1,0
328,152,165261,1,0
400,264,165409,5,4
400,208,165557,1,0
400,152,165705,1,0
472,40,165852,5,4
472,96,166000,1,0
472,152,166148,1,0
472,208,166295,1,0
472,344,166738,5,4
472,288,166886,1,0
472,232,167034,1,0
400,120,167182,5,4
400,176,167330,1,0
400,232,167478,1,0
328,344,167625,5,4
328,288,167773,1,0
328,232,167921,1,0
256,120,168069,5,4
256,176,168217,1,0
256,232,168365,1,0
184,344,168512,5,4
184,288,168660,1,0
184,232,168808,1,0
112,120,168956,5,4
112,176,169104,1,0
112,232,169252,1,0
256,192,169398,12,0,170137
288,48,170285,5,4
336,80,170432,1,0
384,112,170580,1,0
384,168,170728,5,4
336,200,170875,1,0
288,232,171023,1,0
232,232,171172,5,4
184,200,171319,1,0
136,168,171467,1,0
136,112,171615,5,4
184,80,171762,1,0
232,48,171910,1,0
256,104,172058,5,4
304,136,172206,1,0
256,168,172354,1,0
208,136,172502,1,4
128,216,172797,5,0
72,240,172945,2,0,B|120:352|208:200|256:296,1,220,4|0
224,48,173832,5,4
176,80,173979,1,0
128,112,174127,1,0
128,168,174275,5,4
176,200,174422,1,0
224,232,174570,1,0
280,232,174719,5,4
328,200,174866,1,0
376,168,175014,1,0
376,112,175162,5,4
328,80,175309,1,0
280,48,175457,1,0
256,104,175605,5,4
208,136,175753,1,0
256,168,175901,1,0
304,136,176049,1,4
384,216,176344,5,0
440,240,176492,2,0,B|392:352|304:200|256:296,1,220,4|0
128,48,177379,6,0,B|216:48,2,73.3333333333333,4|0|0
392,48,177822,2,0,B|304:48,2,73.3333333333333,4|0|0
128,120,178265,6,0,B|216:120,2,73.3333333333333,4|0|0
392,120,178708,2,0,B|304:120,2,73.3333333333333,4|0|0
128,192,179152,6,0,B|216:192,2,73.3333333333333,4|0|0
392,192,179595,2,0,B|304:192,2,73.3333333333333,4|0|0
256,192,180039,6,0,B|256:336,1,110,4|0
384,336,180926,6,0,B|296:336,2,73.3333333333333,4|0|0
120,336,181369,2,0,B|208:336,2,73.3333333333333,4|0|0
384,264,181812,6,0,B|296:264,2,73.3333333333333,4|0|0
120,264,182255,2,0,B|208:264,2,73.3333333333333,4|0|0
384,192,182699,6,0,B|296:192,2,73.3333333333333,4|0|0
120,192,183142,2,0,B|208:192,2,73.3333333333333,4|0|0
256,192,183586,12,0,184472
120,40,198660,5,4
80,192,198882,1,0
160,192,198993,1,0
120,256,199103,2,0,B|120:376,2,110,0|0|2
392,344,199547,5,4
432,192,199769,1,0
352,192,199880,1,0
392,128,199990,2,0,B|392:8,2,110,0|0|2
256,200,200433,5,4
120,128,200655,5,0
184,88,200766,1,0
256,56,200877,1,0
328,88,200988,1,0
392,128,201098,1,2
392,256,201320,5,6
328,296,201431,1,8
256,328,201542,1,2
184,296,201653,1,8
120,256,201763,1,2
168,192,201874,2,0,B|256:112|256:112|360:192|360:192|232:192|232:192,1,330,0|4
168,80,202429,5,0
88,80,202539,1,0
128,144,202650,1,0
48,144,202761,1,0
88,208,202872,1,2
168,208,202983,1,0
208,144,203094,1,4
344,80,203315,5,0
424,80,203425,1,0
384,144,203536,1,0
464,144,203647,1,0
424,208,203758,1,2
344,208,203869,1,0
304,144,203980,1,4
296,296,204202,5,0
216,296,204313,1,0
256,232,204424,2,0,B|256:8,1,220,0|2
120,88,204867,6,0,B|16:192|128:288,1,220,4|2
394,278,205310,6,0,B|496:192|392:88,1,220,4|2
392,344,205754,5,4
432,192,205976,1,0
352,192,206087,1,0
392,128,206197,2,0,B|392:8,2,110,0|0|2
120,40,206641,5,4
80,192,206863,1,0
160,192,206974,1,0
120,256,207084,2,0,B|120:376,2,110,0|0|2
256,184,207527,5,4
392,256,207749,5,0
328,296,207860,1,0
256,328,207971,1,0
184,296,208082,1,0
120,256,208192,1,2
120,128,208414,5,6
184,88,208525,1,8
256,56,208636,1,2
328,88,208747,1,8
392,128,208857,1,2
344,192,208968,2,0,B|256:272|256:272|152:192|152:192|280:192|280:192,1,330,0|4
344,304,209523,5,0
424,304,209633,1,0
384,240,209744,1,0
464,240,209855,1,0
424,176,209966,1,2
344,176,210077,1,0
304,240,210188,1,4
168,304,210409,5,0
88,304,210519,1,0
128,240,210630,1,0
48,240,210741,1,0
88,176,210852,1,2
168,176,210963,1,0
208,240,211074,1,4
216,88,211296,5,0
296,88,211407,1,0
256,152,211518,2,0,B|256:376,1,220,0|2
392,296,211961,6,0,B|496:192|384:96,1,220,4|2
120,296,212404,6,0,B|16:192|128:96,1,220,4|2
192,88,212848,6,0,B|192:8,3,55
248,88,213291,2,0,B|248:168,3,55,0|0|0|0
304,88,213734,2,0,B|304:8,3,55
360,88,214177,2,0,B|360:168,3,55,0|0|0|0
280,160,214621,6,0,B|120:160,3,110,4|0|0|0
280,224,215064,2,0,B|440:224,3,110,4|0|0|0
280,288,215508,2,0,B|120:288,3,110,4|0|0|0
280,352,215951,2,0,B|440:352,3,110,4|0|0|0
424,280,216394,6,0,B|504:280,3,55
424,224,216837,2,0,B|344:224,3,55,0|0|0|0
424,168,217280,2,0,B|504:168,3,55
424,112,217723,2,0,B|344:112,3,55,0|0|0|0
352,192,218167,6,0,B|352:352,3,110,4|0|0|0
288,192,218610,2,0,B|288:32,3,110,4|0|0|0
224,192,219054,2,0,B|224:352,3,110,4|0|0|0
160,192,219497,2,0,B|160:32,3,110,4|0|0|0
48,192,220052,5,0
136,320,220274,1,0
256,224,220496,1,0
376,320,220717,1,0
464,192,220939,1,0
384,192,221050,1,0
424,128,221161,1,0
296,48,221382,5,0
216,48,221493,1,0
256,112,221604,1,0
256,112,221715,1,4
336,112,221826,1,0
296,176,221936,1,0
216,176,222047,1,0
176,112,222158,1,4
128,56,222269,6,0,B|8:88,1,110
24,160,222491,2,0,B|144:192,1,110,0|4
168,120,222712,2,0,B|288:152,1,110
272,224,222934,2,0,B|152:256,1,110,0|4
216,312,223156,2,0,B|352:312,1,110
352,240,223377,2,0,B|488:240,1,110,0|0
256,192,223599,12,4,225262
104,40,225705,5,4
408,40,226148,1,4
408,352,226592,1,4
104,352,227035,1,4
64,288,227146,5,0
144,288,227257,1,0
104,224,227367,1,0
184,224,227478,2,2,B|224:160|224:160|256:264|256:264|312:160|312:160|344:240|344:240|416:128|416:128|408:136,1,495
496,48,227922,5,4
424,72,228033,1,0
352,96,228143,1,0
408,144,228254,1,4
336,168,228365,1,0
264,184,228476,1,0
312,240,228587,1,4
240,256,228698,1,0
168,272,228808,6,0,B|40:272|40:112,1,220,4|0
344,112,229252,6,2,B|472:112|472:272,1,220,6|2
336,336,229695,5,4
256,336,229806,1,0
296,272,229917,1,0
256,208,230028,1,4
216,272,230138,1,0
176,208,230249,1,0
136,272,230360,1,4
176,336,230471,1,0
96,336,230582,6,0,B|24:336|24:336|24:80,1,220,4|0
24,112,230914,1,8
24,32,231025,2,2,B|96:32|96:32|96:288,1,220,6|2
416,336,231469,6,0,B|488:336|488:336|488:80,1,220,4|0
488,112,231801,1,8
488,32,231912,2,2,B|416:32|416:32|416:288,1,220,6|2
368,32,232355,6,0,B|128:32,1,220
128,104,232688,5,2
168,168,232799,1,4
208,232,232909,1,2
256,288,233020,1,8
304,232,233131,1,2
344,168,233241,1,4
384,104,233352,1,2
304,104,233464,1,0
256,160,233575,1,0
208,104,233685,1,0
168,40,233796,5,4
248,40,233907,1,0
328,40,234018,1,8
408,32,234129,1,4
448,96,234240,5,0
368,96,234351,1,0
408,160,234461,1,0
328,160,234572,2,2,B|288:224|288:224|256:120|256:120|200:224|200:224|168:144|168:144|96:256|96:256|104:248,1,495
16,336,235016,5,4
88,312,235127,1,0
160,288,235237,1,0
104,240,235348,1,4
176,216,235459,1,0
248,200,235570,1,0
200,144,235681,1,4
272,128,235792,1,0
344,112,235902,6,0,B|472:112|472:272,1,220,4|0
168,272,236346,6,2,B|40:272|40:112,1,220,6|2
176,48,236789,5,4
256,48,236900,1,0
216,112,237011,1,0
256,176,237122,1,4
296,112,237232,1,0
336,176,237343,1,0
376,112,237454,1,4
336,48,237565,1,0
416,48,237676,6,0,B|488:48|488:48|488:304,1,220,4|0
488,272,238008,1,8
488,352,238119,2,2,B|416:352|416:352|416:96,1,220,6|2
96,48,238563,6,0,B|24:48|24:48|24:304,1,220,4|0
24,272,238895,1,8
24,352,239006,2,2,B|96:352|96:352|96:96,1,220,6|2
144,352,239449,6,0,B|384:352,1,220,4|0
384,280,239782,1,2
344,216,239893,1,4
304,152,240003,1,2
256,96,240114,1,8
208,152,240225,1,2
168,216,240335,1,4
128,280,240446,1,2
208,280,240558,1,0
256,224,240669,1,0
304,280,240779,1,0
344,344,240890,5,4
264,344,241001,1,0
184,344,241112,1,8
104,352,241223,1,4
80,120,241555,5,0
160,120,241666,2,2,B|216:80|216:80|216:264,1,220,6|10
408,112,242220,1,0
456,168,242331,1,0
424,240,242442,1,0
352,264,242553,2,2,B|296:304|296:304|296:120,1,220,6|10
192,32,242996,5,4
24,192,243328,1,0
24,272,243439,2,2,B|24:352|256:352,1,220,6|10
272,128,243993,1,0
344,160,244104,1,0
416,128,244215,1,0
488,112,244326,2,2,B|488:32|256:32,1,220,6|10
144,32,244769,5,4
56,248,245102,1,0
56,248,245213,2,2,B|56:88|56:88|168:88|240:192|168:248|56:248,1,440,6|10
232,56,245767,1,0
312,56,245878,1,0
392,56,245989,1,0
432,128,246099,2,2,B|264:128|264:128|352:128|352:128|352:264|256:264,1,440,6|10
368,368,246543,5,4
136,368,246875,1,0
136,368,246986,2,2,B|136:72|136:72|24:216,1,440,6|10
280,208,247540,1,0
288,128,247651,1,0
304,48,247762,1,0
376,16,247873,2,2,B|376:312|376:312|488:168,1,440,6|10
464,40,248316,6,0,B|464:152,3,110,4|0|0|0
384,144,248760,2,0,B|384:32,3,110,6|0|10|0
304,40,249203,2,0,B|304:152,3,110
224,144,249646,2,0,B|224:32,3,110,6|0|10|0
48,344,250090,6,0,B|48:232,3,110,4|0|0|0
128,240,250534,2,0,B|128:352,3,110,6|0|10|0
208,344,250977,2,0,B|208:232,3,110
288,240,251420,2,0,B|288:352,3,110,6|0|10|0
368,344,251863,5,4
448,344,251974,1,0
408,280,252085,1,0
488,280,252196,1,0
448,216,252307,1,0
368,216,252417,1,0
408,152,252528,1,0
488,152,252639,1,0
408,152,252750,5,4
408,72,252861,1,0
344,32,252972,1,0
344,112,253082,1,0
280,152,253193,1,0
280,72,253304,1,0
216,112,253415,1,0
216,32,253526,1,0
152,72,253637,5,4
88,32,253747,1,0
24,72,253858,1,4
88,112,253969,1,0
152,160,254080,1,4
88,200,254191,1,0
24,240,254302,1,4
88,280,254412,1,0
152,240,254523,5,4
184,216,254579,1,0
216,240,254634,1,4
248,216,254690,1,0
280,240,254745,1,4
312,216,254800,1,0
344,240,254856,1,4
376,216,254911,1,0
408,240,254967,5,4
440,216,255022,1,0
408,192,255078,1,4
440,168,255133,1,0
408,144,255188,1,4
440,120,255244,1,0
408,96,255299,1,4
440,72,255355,1,0
408,56,255410,6,0,B|176:56,1,220
