osu file format v12

[General]
AudioFilename: DJ HERO - Noisia Groundhog (Beat Juggle).mp3
AudioLeadIn: 0
PreviewTime: -1
Countdown: 0
SampleSet: Soft
StackLeniency: 1
Mode: 3
LetterboxInBreaks: 0
EpilepsyWarning: 1
SpecialStyle: 0

[Editor]
Bookmarks: 29850,29961,33397,99347,127722,128166,208192,220385
DistanceSpacing: 0.6
BeatDivisor: 4
GridSize: 16

[Metadata]
Title:Groundhog (Beat Juggle)
TitleUnicode:Groundhog (Beat Juggle)
Artist:Noisia
ArtistUnicode:Noisia
Creator:Sp3ct3r_2k11
Version:Insane
Source:DJ Hero OST
Tags:Agent Spin Here Mashley Larto Emdyion Doomsday DJ Hero
BeatmapID:271376
BeatmapSetID:102807

[Difficulty]
HPDrainRate:8
CircleSize:7
OverallDifficulty:8
ApproachRate:8
SliderMultiplier:3
SliderTickRate:2

[Events]
//Background and Video events
0,0,"djherobg.png",0,0
//Break Periods
2,184672,197910
//Storyboard Layer 0 (Background)
//Storyboard Layer 1 (Fail)
//Storyboard Layer 2 (Pass)
//Storyboard Layer 3 (Foreground)
//Storyboard Sound Samples
//Background Colour Transformations
3,100,163,162,255

[TimingPoints]
28410,443.360673908224,4,2,0,30,1,0
67314,-100,4,2,0,30,0,0
70861,-100,4,2,0,30,0,0
76182,-100,4,2,0,30,0,0
76847,-100,4,2,0,30,0,0
79396,-100,4,2,0,30,0,0
79618,-100,4,2,0,30,0,0
90369,-100,4,2,0,30,0,0
91034,-100,4,2,0,30,0,0
137476,-100,4,2,0,30,0,0
137920,-100,4,2,0,30,0,0
144570,-100,4,2,0,30,0,0
144680,-100,4,2,0,30,0,0
145124,-100,4,2,0,30,0,0
148449,-100,4,2,0,30,0,0
148671,-100,4,2,0,30,0,0
148892,-100,4,2,0,30,0,0
151664,-100,4,2,0,30,0,0
152107,-100,4,2,0,30,0,0
159090,-100,4,2,0,30,0,0
159312,-100,4,2,0,30,0,0
159533,-100,4,2,0,30,0,0
162859,-100,4,2,0,30,0,0
163080,-100,4,2,0,30,0,0
166073,-100,4,2,0,30,0,0
166184,-100,4,2,0,30,0,0
166406,-100,4,2,0,30,0,0
169398,-100,4,2,0,30,0,0
169509,-100,4,2,0,30,0,0
170285,-100,4,2,0,30,0,0
184472,-100,4,2,0,30,0,0
184693,-100,4,2,0,30,0,0
201985,-100,4,2,0,30,0,0
202207,-100,4,2,0,30,0,0
205310,-100,4,2,0,30,0,0
205753,-100,4,2,0,30,0,0
209079,-100,4,2,0,30,0,0
209300,-100,4,2,0,30,0,0
212848,-100,4,2,0,30,0,0
213291,-100,4,2,0,30,0,0
213734,-100,4,2,0,30,0,0
214177,-100,4,2,0,30,0,0
214620,-100,4,2,0,30,0,0
215063,-100,4,2,0,30,0,0
215506,-100,4,2,0,30,0,0
215949,-100,4,2,0,30,0,0
216394,-100,4,2,0,30,0,0
216837,-100,4,2,0,30,0,0
217280,-100,4,2,0,30,0,0
217723,-100,4,2,0,30,0,0
218166,-100,4,2,0,30,0,0
218609,-100,4,2,0,30,0,0
219052,-100,4,2,0,30,0,0
219495,-100,4,2,0,30,0,0
219938,-100,4,2,0,30,0,0
225262,-100,4,2,0,30,0,0

[Colours]
Combo1 : 0,0,255
Combo2 : 0,223,56
Combo3 : 255,0,0

[HitObjects]
475,192,28409,128,0,28631:0:0:0:0:
402,192,28409,128,0,28631:0:0:0:0:
329,192,28631,1,0,0:0:0:0:
182,192,28742,1,0,0:0:0:0:
36,192,28853,1,0,0:0:0:0:
182,192,28964,1,0,0:0:0:0:
329,192,29075,1,0,0:0:0:0:
475,192,29185,1,0,0:0:0:0:
329,192,29296,1,0,0:0:0:0:
182,192,29407,1,0,0:0:0:0:
402,192,29518,128,0,29740:0:0:0:0:
475,192,29518,128,0,29740:0:0:0:0:
36,192,29850,128,0,30072:0:0:0:0:
109,192,29850,128,0,30072:0:0:0:0:
402,192,30183,128,0,30405:0:0:0:0:
475,192,30183,128,0,30405:0:0:0:0:
36,192,30405,1,0,0:0:0:0:
182,192,30515,1,0,0:0:0:0:
329,192,30626,1,0,0:0:0:0:
475,192,30737,1,0,0:0:0:0:
329,192,30848,1,0,0:0:0:0:
182,192,30959,1,0,0:0:0:0:
36,192,31070,1,0,0:0:0:0:
182,192,31181,1,0,0:0:0:0:
402,192,31291,128,0,31956:0:0:0:0:
475,192,31291,128,0,31956:0:0:0:0:
36,192,31513,128,0,31956:0:0:0:0:
109,192,31513,128,0,31956:0:0:0:0:
182,192,31956,128,0,32178:0:0:0:0:
329,192,31956,128,0,32178:0:0:0:0:
475,192,32178,1,0,0:0:0:0:
36,192,32289,1,0,0:0:0:0:
402,192,32400,1,0,0:0:0:0:
109,192,32511,1,0,0:0:0:0:
329,192,32621,1,0,0:0:0:0:
182,192,32732,1,0,0:0:0:0:
402,192,32843,1,0,0:0:0:0:
109,192,32954,1,0,0:0:0:0:
36,192,33065,128,0,33286:0:0:0:0:
475,192,33065,128,0,33286:0:0:0:0:
109,192,33397,128,0,33619:0:0:0:0:
402,192,33397,128,0,33619:0:0:0:0:
36,192,33730,128,0,33952:0:0:0:0:
475,192,33730,128,0,33952:0:0:0:0:
402,192,33952,1,0,0:0:0:0:
109,192,34062,1,0,0:0:0:0:
329,192,34173,1,0,0:0:0:0:
182,192,34284,1,0,0:0:0:0:
402,192,34395,1,0,0:0:0:0:
109,192,34506,1,0,0:0:0:0:
475,192,34617,1,0,0:0:0:0:
36,192,34727,1,0,0:0:0:0:
182,192,34838,128,0,35503:0:0:0:0:
329,192,34838,128,0,35503:0:0:0:0:
36,192,35060,128,0,35503:0:0:0:0:
475,192,35060,128,0,35503:0:0:0:0:
109,192,35503,128,0,35725:0:0:0:0:
402,192,35503,128,0,35725:0:0:0:0:
256,192,35503,128,0,35725:0:0:0:0:
36,192,35725,1,0,0:0:0:0:
475,192,35725,1,0,0:0:0:0:
109,192,35836,1,0,0:0:0:0:
402,192,35836,1,0,0:0:0:0:
182,192,35947,1,0,0:0:0:0:
329,192,35947,1,0,0:0:0:0:
109,192,36057,1,0,0:0:0:0:
402,192,36057,1,0,0:0:0:0:
36,192,36168,1,0,0:0:0:0:
475,192,36168,1,0,0:0:0:0:
109,192,36279,1,0,0:0:0:0:
402,192,36279,1,0,0:0:0:0:
182,192,36390,1,0,0:0:0:0:
329,192,36390,1,0,0:0:0:0:
109,192,36501,1,0,0:0:0:0:
402,192,36501,1,0,0:0:0:0:
36,192,36612,128,0,36833:0:0:0:0:
475,192,36612,128,0,36833:0:0:0:0:
256,192,36612,128,0,36833:0:0:0:0:
109,192,36944,128,0,37166:0:0:0:0:
256,192,36944,128,0,37166:0:0:0:0:
402,192,36944,128,0,37166:0:0:0:0:
36,192,37277,128,0,37498:0:0:0:0:
256,192,37277,128,0,37498:0:0:0:0:
475,192,37277,128,0,37498:0:0:0:0:
109,192,37498,1,0,0:0:0:0:
402,192,37498,1,0,0:0:0:0:
182,192,37609,1,0,0:0:0:0:
329,192,37609,1,0,0:0:0:0:
109,192,37720,1,0,0:0:0:0:
402,192,37720,1,0,0:0:0:0:
36,192,37831,1,0,0:0:0:0:
475,192,37831,1,0,0:0:0:0:
109,192,37942,1,0,0:0:0:0:
402,192,37942,1,0,0:0:0:0:
182,192,38053,1,0,0:0:0:0:
329,192,38053,1,0,0:0:0:0:
109,192,38163,1,0,0:0:0:0:
402,192,38163,1,0,0:0:0:0:
36,192,38274,1,0,0:0:0:0:
475,192,38274,1,0,0:0:0:0:
36,192,38385,128,0,39050:0:0:0:0:
182,192,38385,128,0,39050:0:0:0:0:
329,192,38607,128,0,39050:0:0:0:0:
475,192,38607,128,0,39050:0:0:0:0:
109,192,39050,128,0,39272:0:0:0:0:
402,192,39050,128,0,39272:0:0:0:0:
36,192,39272,1,0,0:0:0:0:
182,192,39272,1,0,0:0:0:0:
329,192,39272,1,0,0:0:0:0:
475,192,39272,1,0,0:0:0:0:
109,192,39383,1,0,0:0:0:0:
256,192,39383,1,0,0:0:0:0:
402,192,39383,1,0,0:0:0:0:
182,192,39494,1,0,0:0:0:0:
329,192,39494,1,0,0:0:0:0:
109,192,39604,1,0,0:0:0:0:
256,192,39604,1,0,0:0:0:0:
402,192,39604,1,0,0:0:0:0:
36,192,39715,1,0,0:0:0:0:
182,192,39715,1,0,0:0:0:0:
329,192,39715,1,0,0:0:0:0:
475,192,39715,1,0,0:0:0:0:
109,192,39826,1,0,0:0:0:0:
402,192,39826,1,0,0:0:0:0:
256,192,39826,1,0,0:0:0:0:
182,192,39937,1,0,0:0:0:0:
329,192,39937,1,0,0:0:0:0:
109,192,40048,1,0,0:0:0:0:
256,192,40048,1,0,0:0:0:0:
402,192,40048,1,0,0:0:0:0:
36,192,40159,128,0,40380:0:0:0:0:
182,192,40159,128,0,40380:0:0:0:0:
329,192,40159,128,0,40380:0:0:0:0:
475,192,40159,128,0,40380:0:0:0:0:
109,192,40491,128,0,40713:0:0:0:0:
402,192,40491,128,0,40713:0:0:0:0:
256,192,40491,128,0,40713:0:0:0:0:
36,192,40824,128,0,41045:0:0:0:0:
182,192,40824,128,0,41045:0:0:0:0:
329,192,40824,128,0,41045:0:0:0:0:
475,192,40824,128,0,41045:0:0:0:0:
109,192,41156,128,0,41378:0:0:0:0:
256,192,41156,128,0,41378:0:0:0:0:
402,192,41156,128,0,41378:0:0:0:0:
36,192,41489,128,0,41710:0:0:0:0:
182,192,41489,128,0,41710:0:0:0:0:
329,192,41489,128,0,41710:0:0:0:0:
475,192,41489,128,0,41710:0:0:0:0:
109,192,41821,128,0,42043:0:0:0:0:
256,192,41821,128,0,42043:0:0:0:0:
402,192,41821,128,0,42043:0:0:0:0:
36,192,42154,128,0,42597:0:0:0:0:
475,192,42154,128,0,42597:0:0:0:0:
256,192,42597,128,0,42819:0:0:0:0:
36,192,42819,128,0,42930:0:0:0:0:
475,192,42930,128,0,43040:0:0:0:0:
109,192,43040,128,0,43151:0:0:0:0:
402,192,43151,128,0,43262:0:0:0:0:
182,192,43262,128,0,43373:0:0:0:0:
329,192,43373,128,0,43484:0:0:0:0:
109,192,43484,128,0,43595:0:0:0:0:
402,192,43595,128,0,43705:0:0:0:0:
36,192,43705,128,0,43927:0:0:0:0:
475,192,43705,128,0,43927:0:0:0:0:
109,192,44038,128,0,44260:0:0:0:0:
402,192,44038,128,0,44260:0:0:0:0:
36,192,44370,128,0,44592:0:0:0:0:
475,192,44370,128,0,44592:0:0:0:0:
402,192,44592,128,0,44703:0:0:0:0:
109,192,44703,128,0,44814:0:0:0:0:
329,192,44814,128,0,44925:0:0:0:0:
182,192,44925,128,0,45036:0:0:0:0:
402,192,45036,128,0,45146:0:0:0:0:
109,192,45146,128,0,45257:0:0:0:0:
475,192,45257,128,0,45368:0:0:0:0:
36,192,45368,128,0,45479:0:0:0:0:
402,192,45479,128,0,46144:0:0:0:0:
475,192,45479,128,0,46144:0:0:0:0:
36,192,45701,128,0,46144:0:0:0:0:
109,192,45701,128,0,46144:0:0:0:0:
182,192,46144,128,0,46366:0:0:0:0:
329,192,46144,128,0,46366:0:0:0:0:
36,192,46366,128,0,46698:0:0:0:0:
109,192,46476,128,0,46809:0:0:0:0:
475,192,46587,128,0,46920:0:0:0:0:
402,192,46698,128,0,47031:0:0:0:0:
36,192,46809,128,0,47252:0:0:0:0:
109,192,46920,128,0,47252:0:0:0:0:
475,192,47031,128,0,47252:0:0:0:0:
402,192,47141,128,0,47252:0:0:0:0:
182,192,47252,128,0,47917:0:0:0:0:
329,192,47252,128,0,47917:0:0:0:0:
109,192,47585,128,0,47917:0:0:0:0:
402,192,47585,128,0,47917:0:0:0:0:
36,192,47917,128,0,49026:0:0:0:0:
475,192,47917,128,0,49026:0:0:0:0:
402,192,48139,128,0,48693:0:0:0:0:
329,192,48250,128,0,48582:0:0:0:0:
182,192,48361,128,0,48472:0:0:0:0:
109,192,48472,128,0,48915:0:0:0:0:
182,192,48582,128,0,48915:0:0:0:0:
329,192,48693,128,0,48804:0:0:0:0:
402,192,48804,128,0,49026:0:0:0:0:
329,192,48915,128,0,49026:0:0:0:0:
109,192,49026,128,0,49691:0:0:0:0:
182,192,49026,128,0,49691:0:0:0:0:
329,192,49247,128,0,49691:0:0:0:0:
402,192,49247,128,0,49691:0:0:0:0:
36,192,49691,128,0,49912:0:0:0:0:
475,192,49691,128,0,49912:0:0:0:0:
402,192,49912,1,0,0:0:0:0:
402,192,50023,1,0,0:0:0:0:
329,192,50134,1,0,0:0:0:0:
329,192,50245,1,0,0:0:0:0:
182,192,50356,1,0,0:0:0:0:
182,192,50467,1,0,0:0:0:0:
109,192,50578,1,0,0:0:0:0:
109,192,50688,1,0,0:0:0:0:
475,192,50799,128,0,51021:0:0:0:0:
402,192,50799,128,0,51021:0:0:0:0:
36,192,51132,128,0,51353:0:0:0:0:
109,192,51132,128,0,51353:0:0:0:0:
402,192,51464,128,0,51686:0:0:0:0:
475,192,51464,128,0,51686:0:0:0:0:
109,192,51686,1,0,0:0:0:0:
109,192,51797,1,0,0:0:0:0:
182,192,51908,1,0,0:0:0:0:
182,192,52018,1,0,0:0:0:0:
329,192,52129,1,0,0:0:0:0:
329,192,52240,1,0,0:0:0:0:
402,192,52351,1,0,0:0:0:0:
402,192,52462,1,0,0:0:0:0:
36,192,52573,128,0,53238:0:0:0:0:
109,192,52573,128,0,53238:0:0:0:0:
402,192,52794,128,0,53238:0:0:0:0:
475,192,52794,128,0,53238:0:0:0:0:
182,192,53238,128,0,53459:0:0:0:0:
329,192,53238,128,0,53459:0:0:0:0:
36,192,53459,1,0,0:0:0:0:
475,192,53459,1,0,0:0:0:0:
36,192,53570,1,0,0:0:0:0:
475,192,53570,1,0,0:0:0:0:
109,192,53681,1,0,0:0:0:0:
402,192,53681,1,0,0:0:0:0:
109,192,53792,1,0,0:0:0:0:
402,192,53792,1,0,0:0:0:0:
182,192,53903,1,0,0:0:0:0:
329,192,53903,1,0,0:0:0:0:
182,192,54014,1,0,0:0:0:0:
329,192,54014,1,0,0:0:0:0:
256,192,54124,1,0,0:0:0:0:
256,192,54235,1,0,0:0:0:0:
329,192,54346,128,0,54568:0:0:0:0:
475,192,54346,128,0,54568:0:0:0:0:
36,192,54679,128,0,54900:0:0:0:0:
182,192,54679,128,0,54900:0:0:0:0:
475,192,55011,128,0,55233:0:0:0:0:
329,192,55011,128,0,55233:0:0:0:0:
182,192,55011,128,0,55233:0:0:0:0:
36,192,55011,128,0,55233:0:0:0:0:
109,192,55344,128,0,55565:0:0:0:0:
256,192,55344,128,0,55565:0:0:0:0:
402,192,55344,128,0,55565:0:0:0:0:
36,192,55676,128,0,55898:0:0:0:0:
109,192,55676,128,0,55898:0:0:0:0:
402,192,55676,128,0,55898:0:0:0:0:
475,192,55676,128,0,55898:0:0:0:0:
182,192,56009,128,0,56230:0:0:0:0:
256,192,56009,128,0,56230:0:0:0:0:
329,192,56009,128,0,56230:0:0:0:0:
36,192,56341,1,0,0:0:0:0:
256,192,56341,1,0,0:0:0:0:
475,192,56341,1,0,0:0:0:0:
182,192,56785,128,0,57117:0:0:0:0:
256,192,57117,1,0,0:0:0:0:
329,192,57450,128,0,58115:0:0:0:0:
36,192,59777,1,0,0:0:0:0:
475,192,59888,1,0,0:0:0:0:
36,192,59999,1,0,0:0:0:0:
475,192,60110,128,0,60331:0:0:0:0:
182,192,60331,128,0,60664:0:0:0:0:
256,192,60664,1,0,0:0:0:0:
329,192,61107,128,0,61662:0:0:0:0:
109,192,63435,1,0,0:0:0:0:
182,192,63657,1,0,0:0:0:0:
36,192,63878,1,0,0:0:0:0:
182,192,63878,128,0,64211:0:0:0:0:
256,192,64211,1,0,0:0:0:0:
329,192,64654,128,0,65208:0:0:0:0:
36,192,67425,1,0,0:0:0:0:
109,192,67425,1,0,0:0:0:0:
402,192,68312,1,0,0:0:0:0:
475,192,68312,1,0,0:0:0:0:
36,192,69199,1,0,0:0:0:0:
109,192,69199,1,0,0:0:0:0:
475,192,69642,1,0,0:0:0:0:
402,192,69642,1,0,0:0:0:0:
36,192,70085,1,0,0:0:0:0:
109,192,70085,1,0,0:0:0:0:
402,192,70418,1,0,0:0:0:0:
475,192,70529,1,0,0:0:0:0:
36,192,70750,1,0,0:0:0:0:
36,192,70972,1,0,0:0:0:0:
475,192,71194,1,0,0:0:0:0:
402,192,71268,1,0,0:0:0:0:
475,192,71342,1,0,0:0:0:0:
36,192,71637,1,0,0:0:0:0:
475,192,71748,1,0,0:0:0:0:
475,192,71970,1,0,0:0:0:0:
36,192,72191,1,0,0:0:0:0:
475,192,72302,1,0,0:0:0:0:
475,192,72524,1,0,0:0:0:0:
109,192,72746,1,0,0:0:0:0:
475,192,72967,1,0,0:0:0:0:
36,192,73078,1,0,0:0:0:0:
475,192,73189,128,0,73411:0:0:0:0:
402,192,73300,128,0,73411:0:0:0:0:
36,192,73632,128,0,73854:0:0:0:0:
109,192,73743,128,0,73854:0:0:0:0:
256,192,73965,1,0,0:0:0:0:
475,192,74076,128,0,74519:0:0:0:0:
36,192,74297,128,0,74519:0:0:0:0:
256,192,74519,1,0,0:0:0:0:
402,192,74685,128,0,75184:0:0:0:0:
109,192,74685,128,0,75184:0:0:0:0:
475,192,75184,128,0,75627:0:0:0:0:
402,192,75406,128,0,75627:0:0:0:0:
182,192,75627,1,0,0:0:0:0:
109,192,75738,1,0,0:0:0:0:
182,192,75849,128,0,76292:0:0:0:0:
109,192,76071,128,0,76292:0:0:0:0:
475,192,76292,1,0,0:0:0:0:
36,192,76366,1,0,0:0:0:0:
475,192,76440,1,0,0:0:0:0:
36,192,76514,1,0,0:0:0:0:
475,192,76588,1,0,0:0:0:0:
36,192,76662,1,0,0:0:0:0:
475,192,76736,128,0,76957:0:0:0:0:
402,192,76847,128,0,76957:0:0:0:0:
402,192,77179,128,0,77401:0:0:0:0:
329,192,77290,128,0,77401:0:0:0:0:
256,192,77623,128,0,78066:0:0:0:0:
109,192,77844,128,0,78066:0:0:0:0:
402,192,77844,128,0,78066:0:0:0:0:
36,192,78066,1,0,0:0:0:0:
475,192,78066,1,0,0:0:0:0:
475,192,78288,1,0,0:0:0:0:
402,192,78361,1,0,0:0:0:0:
475,192,78435,1,0,0:0:0:0:
36,192,78731,1,0,0:0:0:0:
182,192,78731,1,0,0:0:0:0:
329,192,78842,1,0,0:0:0:0:
475,192,78842,1,0,0:0:0:0:
256,192,79063,1,0,0:0:0:0:
402,192,79063,1,0,0:0:0:0:
182,192,79285,1,0,0:0:0:0:
329,192,79285,1,0,0:0:0:0:
329,192,79396,1,0,0:0:0:0:
475,192,79396,1,0,0:0:0:0:
36,192,79618,128,0,79839:0:0:0:0:
109,192,79839,1,0,0:0:0:0:
475,192,80061,1,0,0:0:0:0:
402,192,80172,1,0,0:0:0:0:
36,192,80283,128,0,80504:0:0:0:0:
109,192,80283,128,0,80504:0:0:0:0:
475,192,80283,1,0,0:0:0:0:
182,192,80394,128,0,80504:0:0:0:0:
256,192,80394,128,0,80504:0:0:0:0:
475,192,80726,128,0,80948:0:0:0:0:
402,192,80726,128,0,80948:0:0:0:0:
329,192,80837,128,0,80948:0:0:0:0:
256,192,80837,128,0,80948:0:0:0:0:
36,192,81169,128,0,81613:0:0:0:0:
475,192,81391,128,0,81613:0:0:0:0:
182,192,81613,1,0,0:0:0:0:
256,192,81613,1,0,0:0:0:0:
329,192,81613,1,0,0:0:0:0:
182,192,81834,1,0,0:0:0:0:
256,192,81834,1,0,0:0:0:0:
329,192,81834,1,0,0:0:0:0:
36,192,82056,1,0,0:0:0:0:
256,192,82056,1,0,0:0:0:0:
475,192,82056,1,0,0:0:0:0:
475,192,82278,1,0,0:0:0:0:
256,192,82278,1,0,0:0:0:0:
36,192,82278,1,0,0:0:0:0:
109,192,82500,1,0,0:0:0:0:
256,192,82500,1,0,0:0:0:0:
402,192,82500,1,0,0:0:0:0:
109,192,82721,1,0,0:0:0:0:
256,192,82721,1,0,0:0:0:0:
402,192,82721,1,0,0:0:0:0:
182,192,82943,1,0,0:0:0:0:
256,192,82943,1,0,0:0:0:0:
329,192,82943,1,0,0:0:0:0:
182,192,83165,1,0,0:0:0:0:
256,192,83165,1,0,0:0:0:0:
329,192,83165,1,0,0:0:0:0:
36,192,83386,1,0,0:0:0:0:
109,192,83386,1,0,0:0:0:0:
475,192,83386,1,0,0:0:0:0:
402,192,83386,1,0,0:0:0:0:
36,192,83608,1,0,0:0:0:0:
109,192,83608,1,0,0:0:0:0:
402,192,83608,1,0,0:0:0:0:
475,192,83608,1,0,0:0:0:0:
182,192,83830,128,0,84051:0:0:0:0:
256,192,83830,128,0,84051:0:0:0:0:
329,192,83830,128,0,84051:0:0:0:0:
36,192,84162,1,0,0:0:0:0:
109,192,84162,1,0,0:0:0:0:
475,192,84162,1,0,0:0:0:0:
402,192,84162,1,0,0:0:0:0:
109,192,84273,128,0,84716:0:0:0:0:
182,192,84273,128,0,85160:0:0:0:0:
329,192,84273,128,0,85160:0:0:0:0:
402,192,84273,128,0,84716:0:0:0:0:
256,192,84716,128,0,85160:0:0:0:0:
36,192,85160,1,0,0:0:0:0:
475,192,85160,1,0,0:0:0:0:
402,192,85381,1,0,0:0:0:0:
109,192,85455,1,0,0:0:0:0:
402,192,85529,1,0,0:0:0:0:
109,192,85603,128,0,85936:0:0:0:0:
36,192,85825,1,0,0:0:0:0:
182,192,85825,1,0,0:0:0:0:
329,192,85936,1,0,0:0:0:0:
475,192,85936,1,0,0:0:0:0:
329,192,86157,1,0,0:0:0:0:
475,192,86157,1,0,0:0:0:0:
36,192,86379,1,0,0:0:0:0:
182,192,86379,1,0,0:0:0:0:
329,192,86490,1,0,0:0:0:0:
475,192,86490,1,0,0:0:0:0:
329,192,86711,1,0,0:0:0:0:
475,192,86711,1,0,0:0:0:0:
36,192,86822,128,0,86933:0:0:0:0:
109,192,86933,1,0,0:0:0:0:
475,192,87155,128,0,87266:0:0:0:0:
402,192,87266,1,0,0:0:0:0:
36,192,87376,128,0,87598:0:0:0:0:
182,192,87487,128,0,87598:0:0:0:0:
109,192,87598,1,0,0:0:0:0:
475,192,87820,128,0,88042:0:0:0:0:
329,192,87931,128,0,88042:0:0:0:0:
402,192,88042,1,0,0:0:0:0:
36,192,88263,128,0,88707:0:0:0:0:
182,192,88263,128,0,88707:0:0:0:0:
329,192,88485,128,0,88707:0:0:0:0:
475,192,88485,128,0,88707:0:0:0:0:
109,192,88707,1,0,0:0:0:0:
402,192,88707,1,0,0:0:0:0:
256,192,88854,128,0,89372:0:0:0:0:
36,192,89372,128,0,89926:0:0:0:0:
109,192,89372,128,0,89926:0:0:0:0:
402,192,89593,128,0,90147:0:0:0:0:
475,192,89593,128,0,90147:0:0:0:0:
329,192,89815,1,0,0:0:0:0:
182,192,89926,1,0,0:0:0:0:
36,192,90037,128,0,90480:0:0:0:0:
109,192,90037,128,0,90480:0:0:0:0:
402,192,90258,128,0,90480:0:0:0:0:
475,192,90258,128,0,90480:0:0:0:0:
329,192,90480,1,0,0:0:0:0:
182,192,90554,1,0,0:0:0:0:
329,192,90628,1,0,0:0:0:0:
182,192,90702,1,0,0:0:0:0:
329,192,90776,1,0,0:0:0:0:
182,192,90849,1,0,0:0:0:0:
36,192,90923,128,0,91145:0:0:0:0:
256,192,91034,128,0,91145:0:0:0:0:
475,192,91145,1,0,0:0:0:0:
475,192,91367,128,0,91588:0:0:0:0:
256,192,91478,128,0,91588:0:0:0:0:
36,192,91588,1,0,0:0:0:0:
36,192,91810,128,0,92253:0:0:0:0:
475,192,92032,128,0,92253:0:0:0:0:
109,192,92253,1,0,0:0:0:0:
402,192,92253,1,0,0:0:0:0:
475,192,92475,1,0,0:0:0:0:
402,192,92549,1,0,0:0:0:0:
475,192,92623,1,0,0:0:0:0:
402,192,92697,128,0,93029:0:0:0:0:
329,192,92918,1,0,0:0:0:0:
475,192,92918,1,0,0:0:0:0:
109,192,93029,1,0,0:0:0:0:
36,192,93029,1,0,0:0:0:0:
109,192,93251,1,0,0:0:0:0:
182,192,93251,1,0,0:0:0:0:
402,192,93473,1,0,0:0:0:0:
475,192,93473,1,0,0:0:0:0:
36,192,93584,1,0,0:0:0:0:
109,192,93584,1,0,0:0:0:0:
109,192,93805,1,0,0:0:0:0:
182,192,93805,1,0,0:0:0:0:
475,192,93805,128,0,94027:0:0:0:0:
36,192,94027,1,0,0:0:0:0:
402,192,94249,1,0,0:0:0:0:
329,192,94359,1,0,0:0:0:0:
36,192,94470,128,0,95135:0:0:0:0:
109,192,94581,128,0,94803:0:0:0:0:
109,192,94914,128,0,95135:0:0:0:0:
182,192,95024,128,0,95135:0:0:0:0:
402,192,95357,128,0,95800:0:0:0:0:
475,192,95357,128,0,95800:0:0:0:0:
36,192,95579,128,0,95800:0:0:0:0:
109,192,95579,128,0,95800:0:0:0:0:
182,192,95800,1,0,0:0:0:0:
329,192,95800,1,0,0:0:0:0:
256,192,96022,1,0,0:0:0:0:
182,192,96133,1,0,0:0:0:0:
329,192,96133,1,0,0:0:0:0:
36,192,96244,1,0,0:0:0:0:
475,192,96244,1,0,0:0:0:0:
109,192,96687,1,0,0:0:0:0:
402,192,96687,1,0,0:0:0:0:
182,192,97020,1,0,0:0:0:0:
329,192,97020,1,0,0:0:0:0:
256,192,97130,1,0,0:0:0:0:
109,192,97574,1,0,0:0:0:0:
402,192,97574,1,0,0:0:0:0:
256,192,98017,1,0,0:0:0:0:
36,192,98350,128,0,98460:0:0:0:0:
475,192,98350,128,0,98460:0:0:0:0:
402,192,98460,128,0,98904:0:0:0:0:
109,192,98460,128,0,98904:0:0:0:0:
182,192,98904,128,0,99347:0:0:0:0:
329,192,98904,128,0,99347:0:0:0:0:
36,192,99347,1,0,0:0:0:0:
256,192,99347,1,0,0:0:0:0:
475,192,99347,1,0,0:0:0:0:
36,192,101010,1,0,0:0:0:0:
182,192,101121,1,0,0:0:0:0:
329,192,101231,1,0,0:0:0:0:
475,192,101453,1,0,0:0:0:0:
329,192,101675,1,0,0:0:0:0:
109,192,101786,128,0,102007:0:0:0:0:
475,192,101897,1,0,0:0:0:0:
256,192,102229,128,0,102451:0:0:0:0:
182,192,102451,1,0,0:0:0:0:
402,192,102672,128,0,102894:0:0:0:0:
329,192,102672,1,0,0:0:0:0:
36,192,102894,1,0,0:0:0:0:
256,192,102894,1,0,0:0:0:0:
256,192,103227,1,0,0:0:0:0:
256,192,103781,1,0,0:0:0:0:
256,192,104113,1,0,0:0:0:0:
36,192,104557,1,0,0:0:0:0:
182,192,104668,1,0,0:0:0:0:
256,192,104668,1,0,0:0:0:0:
329,192,104778,1,0,0:0:0:0:
475,192,105000,1,0,0:0:0:0:
256,192,105000,1,0,0:0:0:0:
329,192,105222,1,0,0:0:0:0:
475,192,105443,1,0,0:0:0:0:
256,192,105554,1,0,0:0:0:0:
36,192,105776,128,0,106441:0:0:0:0:
475,192,105776,128,0,106441:0:0:0:0:
256,192,105887,1,0,0:0:0:0:
256,192,106441,1,0,0:0:0:0:
256,192,106773,1,0,0:0:0:0:
256,192,107328,1,0,0:0:0:0:
256,192,107660,1,0,0:0:0:0:
36,192,108104,1,0,0:0:0:0:
256,192,108214,1,0,0:0:0:0:
182,192,108214,1,0,0:0:0:0:
329,192,108325,1,0,0:0:0:0:
256,192,108547,1,0,0:0:0:0:
475,192,108547,1,0,0:0:0:0:
329,192,108769,1,0,0:0:0:0:
475,192,108990,1,0,0:0:0:0:
256,192,109101,1,0,0:0:0:0:
256,192,109434,1,0,0:0:0:0:
182,192,109545,1,0,0:0:0:0:
329,192,109766,1,0,0:0:0:0:
36,192,109988,1,0,0:0:0:0:
256,192,109988,1,0,0:0:0:0:
256,192,110320,1,0,0:0:0:0:
402,192,110653,128,0,110875:0:0:0:0:
256,192,110875,1,0,0:0:0:0:
402,192,111096,128,0,111318:0:0:0:0:
256,192,111207,1,0,0:0:0:0:
402,192,111540,128,0,111761:0:0:0:0:
36,192,111650,1,0,0:0:0:0:
256,192,111761,1,0,0:0:0:0:
182,192,111761,1,0,0:0:0:0:
329,192,111872,1,0,0:0:0:0:
256,192,112094,1,0,0:0:0:0:
475,192,112094,1,0,0:0:0:0:
329,192,112316,1,0,0:0:0:0:
475,192,112537,1,0,0:0:0:0:
256,192,112648,1,0,0:0:0:0:
256,192,112981,1,0,0:0:0:0:
475,192,113313,128,0,113535:0:0:0:0:
256,192,113535,1,0,0:0:0:0:
36,192,113535,128,0,117082:0:0:0:0:
256,192,113867,1,0,0:0:0:0:
256,192,114421,1,0,0:0:0:0:
256,192,114754,1,0,0:0:0:0:
256,192,115308,1,0,0:0:0:0:
256,192,115641,1,0,0:0:0:0:
256,192,116195,1,0,0:0:0:0:
256,192,116527,1,0,0:0:0:0:
109,192,117082,128,0,117303:0:0:0:0:
256,192,117082,1,0,0:0:0:0:
182,192,117303,128,0,117414:0:0:0:0:
109,192,117414,128,0,117968:0:0:0:0:
256,192,117414,1,0,0:0:0:0:
182,192,117968,128,0,118079:0:0:0:0:
256,192,117968,1,0,0:0:0:0:
36,192,118079,128,0,118633:0:0:0:0:
256,192,118301,1,0,0:0:0:0:
109,192,118633,128,0,118744:0:0:0:0:
182,192,118744,128,0,119077:0:0:0:0:
256,192,118855,1,0,0:0:0:0:
329,192,119077,128,0,119298:0:0:0:0:
256,192,119188,1,0,0:0:0:0:
182,192,119298,128,0,119520:0:0:0:0:
475,192,119520,128,0,119742:0:0:0:0:
402,192,119742,128,0,119963:0:0:0:0:
256,192,119742,1,0,0:0:0:0:
475,192,119963,1,0,0:0:0:0:
256,192,120074,1,0,0:0:0:0:
402,192,120074,1,0,0:0:0:0:
182,192,120185,128,0,122402:0:0:0:0:
256,192,120629,1,0,0:0:0:0:
256,192,120961,1,0,0:0:0:0:
256,192,121515,1,0,0:0:0:0:
256,192,121848,1,0,0:0:0:0:
256,192,122402,1,0,0:0:0:0:
329,192,122402,128,0,123289:0:0:0:0:
256,192,122734,1,0,0:0:0:0:
256,192,123289,1,0,0:0:0:0:
402,192,123289,128,0,124175:0:0:0:0:
256,192,123621,1,0,0:0:0:0:
475,192,124175,128,0,126392:0:0:0:0:
256,192,124175,1,0,0:0:0:0:
256,192,124508,1,0,0:0:0:0:
256,192,125062,1,0,0:0:0:0:
256,192,125395,1,0,0:0:0:0:
256,192,125949,1,0,0:0:0:0:
256,192,126392,1,0,0:0:0:0:
256,192,126836,1,0,0:0:0:0:
256,192,127057,1,0,0:0:0:0:
256,192,127168,1,0,0:0:0:0:
256,192,127722,1,0,0:0:0:0:
182,192,127722,128,0,127944:0:0:0:0:
475,192,127722,128,0,127944:0:0:0:0:
36,192,127944,128,0,128166:0:0:0:0:
329,192,127944,128,0,128166:0:0:0:0:
256,192,128166,1,0,0:0:0:0:
475,192,128166,128,0,128276:0:0:0:0:
182,192,128166,128,0,128276:0:0:0:0:
109,192,128276,128,0,128609:0:0:0:0:
402,192,128276,128,0,128609:0:0:0:0:
256,192,128609,1,0,0:0:0:0:
182,192,128609,128,0,128831:0:0:0:0:
475,192,128609,128,0,128831:0:0:0:0:
36,192,128831,128,0,129052:0:0:0:0:
329,192,128831,128,0,129052:0:0:0:0:
256,192,129052,1,0,0:0:0:0:
182,192,129052,128,0,129163:0:0:0:0:
475,192,129052,128,0,129163:0:0:0:0:
109,192,129163,128,0,129496:0:0:0:0:
402,192,129163,128,0,129496:0:0:0:0:
256,192,129496,1,0,0:0:0:0:
182,192,129496,128,0,129717:0:0:0:0:
475,192,129496,128,0,129717:0:0:0:0:
36,192,129717,128,0,129939:0:0:0:0:
329,192,129717,128,0,129939:0:0:0:0:
256,192,129939,1,0,0:0:0:0:
182,192,129939,128,0,130050:0:0:0:0:
475,192,129939,128,0,130050:0:0:0:0:
109,192,130050,128,0,130382:0:0:0:0:
402,192,130050,128,0,130382:0:0:0:0:
256,192,130382,1,0,0:0:0:0:
256,192,131269,1,0,0:0:0:0:
109,192,131269,128,0,131491:0:0:0:0:
402,192,131269,128,0,131491:0:0:0:0:
475,192,131491,128,0,131713:0:0:0:0:
182,192,131491,128,0,131713:0:0:0:0:
256,192,131713,1,0,0:0:0:0:
36,192,131713,128,0,131823:0:0:0:0:
329,192,131713,128,0,131823:0:0:0:0:
182,192,131823,128,0,132156:0:0:0:0:
475,192,131823,128,0,132156:0:0:0:0:
256,192,132156,1,0,0:0:0:0:
109,192,132156,128,0,132378:0:0:0:0:
402,192,132156,128,0,132378:0:0:0:0:
182,192,132378,128,0,132599:0:0:0:0:
475,192,132378,128,0,132599:0:0:0:0:
256,192,132599,1,0,0:0:0:0:
36,192,132599,128,0,132710:0:0:0:0:
329,192,132599,128,0,132710:0:0:0:0:
182,192,132710,128,0,133043:0:0:0:0:
475,192,132710,128,0,133043:0:0:0:0:
256,192,133043,1,0,0:0:0:0:
36,192,133043,128,0,133264:0:0:0:0:
329,192,133043,128,0,133264:0:0:0:0:
256,192,133486,1,0,0:0:0:0:
475,192,133486,128,0,133708:0:0:0:0:
182,192,133486,128,0,133708:0:0:0:0:
109,192,133819,1,0,0:0:0:0:
402,192,133819,1,0,0:0:0:0:
36,192,133929,128,0,134151:0:0:0:0:
329,192,133929,128,0,134151:0:0:0:0:
256,192,133929,1,0,0:0:0:0:
475,192,134151,128,0,134373:0:0:0:0:
182,192,134151,128,0,134373:0:0:0:0:
109,192,134373,128,0,134816:0:0:0:0:
402,192,134373,128,0,134816:0:0:0:0:
182,192,134816,128,0,135038:0:0:0:0:
329,192,134816,128,0,135038:0:0:0:0:
256,192,134816,1,0,0:0:0:0:
36,192,135038,128,0,135259:0:0:0:0:
475,192,135038,128,0,135259:0:0:0:0:
256,192,135259,1,0,0:0:0:0:
182,192,135259,128,0,135370:0:0:0:0:
329,192,135259,128,0,135370:0:0:0:0:
109,192,135370,128,0,135703:0:0:0:0:
402,192,135370,128,0,135703:0:0:0:0:
256,192,135703,1,0,0:0:0:0:
182,192,135703,128,0,135924:0:0:0:0:
329,192,135703,128,0,135924:0:0:0:0:
36,192,135924,128,0,136146:0:0:0:0:
475,192,135924,128,0,136146:0:0:0:0:
256,192,136146,1,0,0:0:0:0:
182,192,136146,128,0,136257:0:0:0:0:
329,192,136146,128,0,136257:0:0:0:0:
109,192,136257,128,0,136590:0:0:0:0:
402,192,136257,128,0,136590:0:0:0:0:
256,192,136590,1,0,0:0:0:0:
182,192,136590,128,0,136811:0:0:0:0:
329,192,136590,128,0,136811:0:0:0:0:
36,192,136811,128,0,137033:0:0:0:0:
475,192,136811,128,0,137033:0:0:0:0:
256,192,137033,1,0,0:0:0:0:
182,192,137033,128,0,137144:0:0:0:0:
329,192,137033,128,0,137144:0:0:0:0:
109,192,137144,128,0,137476:0:0:0:0:
402,192,137144,128,0,137476:0:0:0:0:
256,192,137476,1,0,0:0:0:0:
36,192,138363,128,0,138806:0:0:0:0:
109,192,138585,1,0,0:0:0:0:
109,192,138695,1,0,0:0:0:0:
109,192,138806,128,0,139250:0:0:0:0:
182,192,139028,1,0,0:0:0:0:
182,192,139139,1,0,0:0:0:0:
182,192,139250,128,0,139693:0:0:0:0:
256,192,139471,1,0,0:0:0:0:
256,192,139582,1,0,0:0:0:0:
256,192,139693,128,0,140136:0:0:0:0:
329,192,139915,1,0,0:0:0:0:
329,192,140026,1,0,0:0:0:0:
475,192,140136,128,0,140580:0:0:0:0:
402,192,140358,1,0,0:0:0:0:
402,192,140469,1,0,0:0:0:0:
402,192,140580,128,0,141023:0:0:0:0:
329,192,140801,1,0,0:0:0:0:
329,192,140912,1,0,0:0:0:0:
329,192,141023,128,0,141466:0:0:0:0:
256,192,141245,1,0,0:0:0:0:
256,192,141356,1,0,0:0:0:0:
256,192,141466,1,0,0:0:0:0:
36,192,141910,128,0,142132:0:0:0:0:
475,192,141910,128,0,142132:0:0:0:0:
256,192,141910,1,0,0:0:0:0:
182,192,142132,128,0,142353:0:0:0:0:
402,192,142132,128,0,142353:0:0:0:0:
36,192,142353,128,0,142464:0:0:0:0:
475,192,142353,128,0,142464:0:0:0:0:
256,192,142353,1,0,0:0:0:0:
182,192,142464,128,0,142797:0:0:0:0:
329,192,142464,128,0,142797:0:0:0:0:
256,192,142797,1,0,0:0:0:0:
36,192,142797,128,0,143018:0:0:0:0:
475,192,142797,128,0,143018:0:0:0:0:
109,192,143018,128,0,143240:0:0:0:0:
329,192,143018,128,0,143240:0:0:0:0:
256,192,143240,1,0,0:0:0:0:
36,192,143240,128,0,143351:0:0:0:0:
475,192,143240,128,0,143351:0:0:0:0:
182,192,143351,128,0,143683:0:0:0:0:
329,192,143351,128,0,143683:0:0:0:0:
256,192,143683,1,0,0:0:0:0:
475,192,143683,128,0,143905:0:0:0:0:
36,192,143683,128,0,143905:0:0:0:0:
402,192,143905,128,0,144127:0:0:0:0:
182,192,143905,128,0,144127:0:0:0:0:
256,192,144127,1,0,0:0:0:0:
475,192,144127,128,0,144237:0:0:0:0:
36,192,144127,128,0,144237:0:0:0:0:
329,192,144237,128,0,144570:0:0:0:0:
182,192,144237,128,0,144570:0:0:0:0:
256,192,144570,1,0,0:0:0:0:
36,192,145457,128,0,145789:0:0:0:0:
475,192,145457,1,0,0:0:0:0:
182,192,145678,128,0,145900:0:0:0:0:
36,192,145900,128,0,146343:0:0:0:0:
475,192,145900,1,0,0:0:0:0:
182,192,146011,128,0,146343:0:0:0:0:
109,192,146343,128,0,146676:0:0:0:0:
475,192,146343,1,0,0:0:0:0:
256,192,146565,128,0,146787:0:0:0:0:
109,192,146787,128,0,147230:0:0:0:0:
475,192,146787,1,0,0:0:0:0:
256,192,146898,128,0,147230:0:0:0:0:
475,192,147230,1,0,0:0:0:0:
36,192,147230,128,0,147452:0:0:0:0:
182,192,147674,128,0,147895:0:0:0:0:
475,192,147674,1,0,0:0:0:0:
36,192,148006,128,0,148228:0:0:0:0:
475,192,148117,1,0,0:0:0:0:
182,192,148117,128,0,148449:0:0:0:0:
36,192,148339,128,0,149004:0:0:0:0:
182,192,148560,128,0,149004:0:0:0:0:
256,192,149004,1,0,0:0:0:0:
109,192,149004,128,0,149225:0:0:0:0:
402,192,149004,128,0,149225:0:0:0:0:
36,192,149225,128,0,149447:0:0:0:0:
475,192,149225,128,0,149447:0:0:0:0:
256,192,149447,1,0,0:0:0:0:
182,192,149447,128,0,149558:0:0:0:0:
329,192,149447,128,0,149558:0:0:0:0:
36,192,149558,128,0,149890:0:0:0:0:
475,192,149558,128,0,149890:0:0:0:0:
256,192,149890,1,0,0:0:0:0:
182,192,149890,128,0,150112:0:0:0:0:
329,192,149890,128,0,150112:0:0:0:0:
109,192,150112,128,0,150334:0:0:0:0:
402,192,150112,128,0,150334:0:0:0:0:
256,192,150334,1,0,0:0:0:0:
182,192,150334,128,0,150445:0:0:0:0:
329,192,150334,128,0,150445:0:0:0:0:
109,192,150445,128,0,150777:0:0:0:0:
402,192,150445,128,0,150777:0:0:0:0:
256,192,150777,1,0,0:0:0:0:
182,192,150777,128,0,150999:0:0:0:0:
329,192,150777,128,0,150999:0:0:0:0:
36,192,150999,128,0,151220:0:0:0:0:
475,192,150999,128,0,151220:0:0:0:0:
182,192,151220,128,0,151331:0:0:0:0:
329,192,151220,128,0,151331:0:0:0:0:
256,192,151220,1,0,0:0:0:0:
36,192,151331,128,0,151664:0:0:0:0:
475,192,151331,128,0,151664:0:0:0:0:
256,192,151664,1,0,0:0:0:0:
36,192,152550,128,0,152994:0:0:0:0:
109,192,152772,1,0,0:0:0:0:
182,192,152883,1,0,0:0:0:0:
109,192,152994,128,0,153437:0:0:0:0:
182,192,153216,1,0,0:0:0:0:
256,192,153326,1,0,0:0:0:0:
182,192,153437,128,0,153881:0:0:0:0:
256,192,153659,1,0,0:0:0:0:
329,192,153770,1,0,0:0:0:0:
256,192,153881,128,0,154324:0:0:0:0:
329,192,154102,1,0,0:0:0:0:
402,192,154213,1,0,0:0:0:0:
475,192,154324,128,0,154767:0:0:0:0:
402,192,154546,1,0,0:0:0:0:
329,192,154656,1,0,0:0:0:0:
402,192,154767,128,0,155211:0:0:0:0:
329,192,154989,1,0,0:0:0:0:
256,192,155100,1,0,0:0:0:0:
329,192,155211,128,0,155654:0:0:0:0:
256,192,155432,1,0,0:0:0:0:
182,192,155543,1,0,0:0:0:0:
256,192,155654,1,0,0:0:0:0:
36,192,156097,1,0,0:0:0:0:
329,192,156097,1,0,0:0:0:0:
109,192,156245,1,0,0:0:0:0:
182,192,156393,1,0,0:0:0:0:
475,192,156541,1,0,0:0:0:0:
182,192,156541,1,0,0:0:0:0:
402,192,156689,1,0,0:0:0:0:
329,192,156836,1,0,0:0:0:0:
36,192,156984,1,0,0:0:0:0:
329,192,156984,1,0,0:0:0:0:
109,192,157132,1,0,0:0:0:0:
182,192,157280,1,0,0:0:0:0:
475,192,157427,1,0,0:0:0:0:
182,192,157427,1,0,0:0:0:0:
402,192,157575,1,0,0:0:0:0:
329,192,157723,1,0,0:0:0:0:
36,192,157871,1,0,0:0:0:0:
329,192,157871,1,0,0:0:0:0:
109,192,158019,1,0,0:0:0:0:
182,192,158166,1,0,0:0:0:0:
475,192,158314,1,0,0:0:0:0:
182,192,158314,1,0,0:0:0:0:
402,192,158462,1,0,0:0:0:0:
329,192,158610,1,0,0:0:0:0:
36,192,158758,128,0,158905:0:0:0:0:
329,192,158758,1,0,0:0:0:0:
109,192,158905,1,0,0:0:0:0:
475,192,159053,128,0,159644:0:0:0:0:
402,192,159201,128,0,159644:0:0:0:0:
36,192,159644,1,0,0:0:0:0:
329,192,159644,1,0,0:0:0:0:
182,192,159792,1,0,0:0:0:0:
329,192,159940,1,0,0:0:0:0:
475,192,160088,1,0,0:0:0:0:
182,192,160088,1,0,0:0:0:0:
329,192,160235,1,0,0:0:0:0:
182,192,160383,1,0,0:0:0:0:
36,192,160531,1,0,0:0:0:0:
329,192,160531,1,0,0:0:0:0:
182,192,160679,1,0,0:0:0:0:
329,192,160827,1,0,0:0:0:0:
475,192,160974,1,0,0:0:0:0:
182,192,160974,1,0,0:0:0:0:
329,192,161122,1,0,0:0:0:0:
182,192,161270,1,0,0:0:0:0:
36,192,161418,1,0,0:0:0:0:
329,192,161418,1,0,0:0:0:0:
182,192,161565,1,0,0:0:0:0:
329,192,161713,1,0,0:0:0:0:
475,192,161861,1,0,0:0:0:0:
182,192,161861,1,0,0:0:0:0:
329,192,162009,1,0,0:0:0:0:
182,192,162157,1,0,0:0:0:0:
36,192,162304,1,0,0:0:0:0:
329,192,162304,1,0,0:0:0:0:
36,192,163191,128,0,163635:0:0:0:0:
256,192,163191,1,0,0:0:0:0:
109,192,163339,128,0,163635:0:0:0:0:
182,192,163487,128,0,163635:0:0:0:0:
475,192,163635,128,0,164078:0:0:0:0:
256,192,163635,1,0,0:0:0:0:
402,192,163782,128,0,164078:0:0:0:0:
329,192,163930,128,0,164078:0:0:0:0:
36,192,164078,128,0,164521:0:0:0:0:
256,192,164078,1,0,0:0:0:0:
109,192,164226,128,0,164521:0:0:0:0:
182,192,164373,128,0,164521:0:0:0:0:
475,192,164521,128,0,164965:0:0:0:0:
256,192,164521,1,0,0:0:0:0:
402,192,164669,128,0,164965:0:0:0:0:
329,192,164817,128,0,164965:0:0:0:0:
36,192,164965,128,0,165408:0:0:0:0:
256,192,164965,1,0,0:0:0:0:
109,192,165112,128,0,165408:0:0:0:0:
182,192,165260,128,0,165408:0:0:0:0:
475,192,165408,128,0,165851:0:0:0:0:
256,192,165408,1,0,0:0:0:0:
402,192,165556,128,0,165851:0:0:0:0:
329,192,165704,128,0,165851:0:0:0:0:
36,192,165851,128,0,165999:0:0:0:0:
256,192,165851,1,0,0:0:0:0:
109,192,165999,1,0,0:0:0:0:
475,192,166147,128,0,166738:0:0:0:0:
402,192,166295,128,0,166738:0:0:0:0:
36,192,166738,128,0,167477:0:0:0:0:
109,192,166886,128,0,167625:0:0:0:0:
182,192,167034,128,0,167773:0:0:0:0:
475,192,167181,128,0,167920:0:0:0:0:
402,192,167329,128,0,168068:0:0:0:0:
329,192,167477,128,0,168216:0:0:0:0:
36,192,167625,128,0,168364:0:0:0:0:
109,192,167773,128,0,168511:0:0:0:0:
182,192,167920,128,0,168659:0:0:0:0:
475,192,168068,128,0,168807:0:0:0:0:
402,192,168216,128,0,168955:0:0:0:0:
329,192,168364,128,0,169103:0:0:0:0:
36,192,168511,128,0,169287:0:0:0:0:
109,192,168659,128,0,169398:0:0:0:0:
182,192,168807,128,0,169398:0:0:0:0:
475,192,168955,128,0,169398:0:0:0:0:
402,192,169103,128,0,169398:0:0:0:0:
329,192,169250,128,0,169398:0:0:0:0:
36,192,169398,1,0,0:0:0:0:
109,192,169509,1,0,0:0:0:0:
182,192,169620,1,0,0:0:0:0:
256,192,169731,1,0,0:0:0:0:
329,192,169842,1,0,0:0:0:0:
402,192,169952,1,0,0:0:0:0:
475,192,170063,1,0,0:0:0:0:
36,192,170285,1,0,0:0:0:0:
475,192,170285,1,0,0:0:0:0:
36,192,170433,1,0,0:0:0:0:
475,192,170433,1,0,0:0:0:0:
109,192,170580,1,0,0:0:0:0:
182,192,170728,1,0,0:0:0:0:
109,192,170876,1,0,0:0:0:0:
36,192,171024,1,0,0:0:0:0:
36,192,171172,1,0,0:0:0:0:
475,192,171172,1,0,0:0:0:0:
36,192,171319,1,0,0:0:0:0:
475,192,171319,1,0,0:0:0:0:
402,192,171467,1,0,0:0:0:0:
329,192,171615,1,0,0:0:0:0:
402,192,171763,1,0,0:0:0:0:
475,192,171911,1,0,0:0:0:0:
36,192,172058,1,0,0:0:0:0:
475,192,172058,1,0,0:0:0:0:
475,192,172206,1,0,0:0:0:0:
36,192,172206,1,0,0:0:0:0:
109,192,172354,1,0,0:0:0:0:
182,192,172502,1,0,0:0:0:0:
109,192,172650,1,0,0:0:0:0:
36,192,172797,1,0,0:0:0:0:
36,192,172945,1,0,0:0:0:0:
475,192,172945,1,0,0:0:0:0:
36,192,173093,1,0,0:0:0:0:
475,192,173093,1,0,0:0:0:0:
182,192,173093,128,0,173241:0:0:0:0:
329,192,173093,128,0,173241:0:0:0:0:
36,192,173241,128,0,173832:0:0:0:0:
475,192,173241,128,0,173832:0:0:0:0:
109,192,173832,1,0,0:0:0:0:
256,192,173832,1,0,0:0:0:0:
182,192,173980,1,0,0:0:0:0:
256,192,174127,1,0,0:0:0:0:
256,192,174275,1,0,0:0:0:0:
402,192,174275,1,0,0:0:0:0:
329,192,174423,1,0,0:0:0:0:
256,192,174571,1,0,0:0:0:0:
256,192,174719,1,0,0:0:0:0:
109,192,174719,1,0,0:0:0:0:
182,192,174866,1,0,0:0:0:0:
256,192,175014,1,0,0:0:0:0:
256,192,175162,1,0,0:0:0:0:
402,192,175162,1,0,0:0:0:0:
329,192,175310,1,0,0:0:0:0:
256,192,175457,1,0,0:0:0:0:
256,192,175605,1,0,0:0:0:0:
109,192,175605,1,0,0:0:0:0:
182,192,175753,1,0,0:0:0:0:
256,192,175901,1,0,0:0:0:0:
256,192,176049,1,0,0:0:0:0:
402,192,176049,1,0,0:0:0:0:
329,192,176196,1,0,0:0:0:0:
256,192,176344,1,0,0:0:0:0:
109,192,176492,1,0,0:0:0:0:
256,192,176492,1,0,0:0:0:0:
182,192,176640,1,0,0:0:0:0:
109,192,176788,128,0,176935:0:0:0:0:
402,192,176788,128,0,176935:0:0:0:0:
182,192,176935,128,0,177379:0:0:0:0:
329,192,176935,128,0,177379:0:0:0:0:
109,192,177379,128,0,178118:0:0:0:0:
256,192,177379,128,0,177526:0:0:0:0:
182,192,177526,128,0,178265:0:0:0:0:
256,192,177674,1,0,0:0:0:0:
256,192,177822,128,0,177970:0:0:0:0:
402,192,177822,128,0,178561:0:0:0:0:
329,192,177970,128,0,178709:0:0:0:0:
256,192,178118,1,0,0:0:0:0:
256,192,178265,128,0,178413:0:0:0:0:
109,192,178265,128,0,179004:0:0:0:0:
182,192,178413,128,0,179152:0:0:0:0:
256,192,178561,1,0,0:0:0:0:
256,192,178709,128,0,178857:0:0:0:0:
402,192,178709,128,0,179448:0:0:0:0:
329,192,178857,128,0,179595:0:0:0:0:
256,192,179004,1,0,0:0:0:0:
256,192,179152,128,0,179300:0:0:0:0:
109,192,179152,128,0,179891:0:0:0:0:
182,192,179300,128,0,180039:0:0:0:0:
256,192,179448,1,0,0:0:0:0:
402,192,179595,1,0,0:0:0:0:
256,192,179595,128,0,179743:0:0:0:0:
329,192,179743,1,0,0:0:0:0:
256,192,179891,1,0,0:0:0:0:
256,192,180039,1,0,0:0:0:0:
109,192,180039,1,0,0:0:0:0:
182,192,180187,1,0,0:0:0:0:
256,192,180334,128,0,180482:0:0:0:0:
109,192,180482,128,0,180926:0:0:0:0:
402,192,180482,128,0,180926:0:0:0:0:
36,192,180926,128,0,181221:0:0:0:0:
329,192,180926,128,0,181221:0:0:0:0:
182,192,181073,128,0,181369:0:0:0:0:
475,192,181073,128,0,181369:0:0:0:0:
109,192,181221,128,0,181517:0:0:0:0:
402,192,181221,128,0,181517:0:0:0:0:
36,192,181369,128,0,181665:0:0:0:0:
329,192,181369,128,0,181665:0:0:0:0:
475,192,181517,128,0,181812:0:0:0:0:
182,192,181517,128,0,181812:0:0:0:0:
402,192,181665,128,0,181960:0:0:0:0:
109,192,181665,128,0,181960:0:0:0:0:
329,192,181812,128,0,182108:0:0:0:0:
36,192,181812,128,0,182108:0:0:0:0:
475,192,181960,128,0,182256:0:0:0:0:
182,192,181960,128,0,182256:0:0:0:0:
402,192,182108,128,0,182403:0:0:0:0:
109,192,182108,128,0,182403:0:0:0:0:
329,192,182256,128,0,182551:0:0:0:0:
36,192,182256,128,0,182551:0:0:0:0:
475,192,182403,128,0,182699:0:0:0:0:
182,192,182403,128,0,182699:0:0:0:0:
402,192,182551,128,0,182847:0:0:0:0:
109,192,182551,128,0,182847:0:0:0:0:
36,192,182699,128,0,182995:0:0:0:0:
329,192,182699,128,0,182995:0:0:0:0:
475,192,182847,128,0,183142:0:0:0:0:
182,192,182847,128,0,183142:0:0:0:0:
402,192,182995,128,0,183290:0:0:0:0:
109,192,182995,128,0,183290:0:0:0:0:
36,192,183142,128,0,183438:0:0:0:0:
329,192,183142,128,0,183438:0:0:0:0:
475,192,183290,128,0,183586:0:0:0:0:
182,192,183290,128,0,183586:0:0:0:0:
402,192,183438,128,0,183734:0:0:0:0:
109,192,183438,128,0,183734:0:0:0:0:
329,192,183586,128,0,183881:0:0:0:0:
36,192,183586,128,0,183881:0:0:0:0:
256,192,183734,1,0,0:0:0:0:
256,192,183881,1,0,0:0:0:0:
256,192,184029,1,0,0:0:0:0:
256,192,184177,1,0,0:0:0:0:
256,192,184325,1,0,0:0:0:0:
256,192,184472,1,0,0:0:0:0:
109,192,198660,5,0,0:0:0:0:
256,192,198660,1,0,0:0:0:0:
402,192,198660,1,0,0:0:0:0:
402,192,198882,1,0,0:0:0:0:
329,192,198993,1,0,0:0:0:0:
402,192,199103,1,0,0:0:0:0:
329,192,199214,1,0,0:0:0:0:
36,192,199325,1,0,0:0:0:0:
256,192,199325,1,0,0:0:0:0:
475,192,199325,1,0,0:0:0:0:
402,192,199547,1,0,0:0:0:0:
256,192,199547,1,0,0:0:0:0:
109,192,199547,1,0,0:0:0:0:
109,192,199768,1,0,0:0:0:0:
182,192,199879,1,0,0:0:0:0:
109,192,199990,1,0,0:0:0:0:
182,192,200101,1,0,0:0:0:0:
36,192,200212,1,0,0:0:0:0:
256,192,200212,1,0,0:0:0:0:
475,192,200212,1,0,0:0:0:0:
109,192,200433,1,0,0:0:0:0:
256,192,200433,1,0,0:0:0:0:
402,192,200433,1,0,0:0:0:0:
402,192,200655,1,0,0:0:0:0:
109,192,200711,1,0,0:0:0:0:
402,192,200766,1,0,0:0:0:0:
256,192,200877,128,0,201098:0:0:0:0:
475,192,201098,1,0,0:0:0:0:
36,192,201098,1,0,0:0:0:0:
475,192,201320,1,0,0:0:0:0:
36,192,201320,1,0,0:0:0:0:
329,192,201542,1,0,0:0:0:0:
182,192,201653,1,0,0:0:0:0:
329,192,201764,1,0,0:0:0:0:
256,192,201985,128,0,202207:0:0:0:0:
36,192,202207,1,0,0:0:0:0:
475,192,202207,1,0,0:0:0:0:
402,192,202429,1,0,0:0:0:0:
109,192,202539,1,0,0:0:0:0:
329,192,202650,1,0,0:0:0:0:
182,192,202761,1,0,0:0:0:0:
36,192,202872,128,0,203094:0:0:0:0:
475,192,202872,128,0,203094:0:0:0:0:
182,192,203094,1,0,0:0:0:0:
329,192,203094,1,0,0:0:0:0:
109,192,203315,1,0,0:0:0:0:
402,192,203315,1,0,0:0:0:0:
109,192,203426,1,0,0:0:0:0:
402,192,203426,1,0,0:0:0:0:
109,192,203537,1,0,0:0:0:0:
402,192,203537,1,0,0:0:0:0:
109,192,203648,1,0,0:0:0:0:
402,192,203648,1,0,0:0:0:0:
36,192,203759,128,0,203980:0:0:0:0:
475,192,203759,128,0,203980:0:0:0:0:
109,192,203980,1,0,0:0:0:0:
402,192,203980,1,0,0:0:0:0:
329,192,204202,1,0,0:0:0:0:
182,192,204202,1,0,0:0:0:0:
256,192,204313,1,0,0:0:0:0:
182,192,204424,1,0,0:0:0:0:
329,192,204424,1,0,0:0:0:0:
36,192,204645,128,0,204867:0:0:0:0:
475,192,204645,128,0,204867:0:0:0:0:
182,192,204867,1,0,0:0:0:0:
329,192,204867,1,0,0:0:0:0:
109,192,205089,1,0,0:0:0:0:
402,192,205089,1,0,0:0:0:0:
329,192,205200,1,0,0:0:0:0:
109,192,205421,1,0,0:0:0:0:
402,192,205421,1,0,0:0:0:0:
402,192,205532,1,0,0:0:0:0:
109,192,205532,1,0,0:0:0:0:
109,192,205643,1,0,0:0:0:0:
402,192,205643,1,0,0:0:0:0:
329,192,205754,128,0,205975:0:0:0:0:
475,192,205754,128,0,205975:0:0:0:0:
256,192,205975,1,0,0:0:0:0:
402,192,205975,1,0,0:0:0:0:
182,192,206086,1,0,0:0:0:0:
329,192,206086,1,0,0:0:0:0:
256,192,206197,1,0,0:0:0:0:
402,192,206197,1,0,0:0:0:0:
36,192,206308,1,0,0:0:0:0:
182,192,206308,1,0,0:0:0:0:
36,192,206419,128,0,206640:0:0:0:0:
182,192,206419,128,0,206640:0:0:0:0:
109,192,206640,1,0,0:0:0:0:
256,192,206640,1,0,0:0:0:0:
109,192,206862,1,0,0:0:0:0:
256,192,206862,1,0,0:0:0:0:
182,192,206973,1,0,0:0:0:0:
329,192,206973,1,0,0:0:0:0:
109,192,207084,1,0,0:0:0:0:
256,192,207084,1,0,0:0:0:0:
475,192,207195,1,0,0:0:0:0:
329,192,207195,1,0,0:0:0:0:
329,192,207306,128,0,207527:0:0:0:0:
475,192,207306,128,0,207527:0:0:0:0:
402,192,207527,1,0,0:0:0:0:
256,192,207527,1,0,0:0:0:0:
182,192,207749,1,0,0:0:0:0:
329,192,207804,1,0,0:0:0:0:
182,192,207860,1,0,0:0:0:0:
475,192,207915,128,0,208081:0:0:0:0:
109,192,208192,1,0,0:0:0:0:
402,192,208192,1,0,0:0:0:0:
109,192,208414,1,0,0:0:0:0:
402,192,208414,1,0,0:0:0:0:
256,192,208636,1,0,0:0:0:0:
256,192,208746,1,0,0:0:0:0:
109,192,208857,1,0,0:0:0:0:
402,192,208857,1,0,0:0:0:0:
256,192,209079,128,0,209301:0:0:0:0:
36,192,209301,128,0,209522:0:0:0:0:
475,192,209301,128,0,209522:0:0:0:0:
109,192,209522,128,0,209633:0:0:0:0:
402,192,209522,128,0,209633:0:0:0:0:
182,192,209633,128,0,209744:0:0:0:0:
329,192,209633,128,0,209744:0:0:0:0:
109,192,209744,128,0,209855:0:0:0:0:
402,192,209744,128,0,209855:0:0:0:0:
182,192,209855,128,0,209966:0:0:0:0:
329,192,209855,128,0,209966:0:0:0:0:
36,192,209966,128,0,210187:0:0:0:0:
475,192,209966,128,0,210187:0:0:0:0:
109,192,210187,128,0,210298:0:0:0:0:
402,192,210187,128,0,210298:0:0:0:0:
256,192,210409,1,0,0:0:0:0:
256,192,210520,1,0,0:0:0:0:
256,192,210631,1,0,0:0:0:0:
256,192,210742,1,0,0:0:0:0:
36,192,210852,128,0,211074:0:0:0:0:
475,192,210852,128,0,211074:0:0:0:0:
182,192,211074,1,0,0:0:0:0:
329,192,211074,1,0,0:0:0:0:
402,192,211296,1,0,0:0:0:0:
109,192,211407,1,0,0:0:0:0:
402,192,211517,1,0,0:0:0:0:
36,192,211739,128,0,211961:0:0:0:0:
475,192,211739,128,0,211961:0:0:0:0:
109,192,211961,1,0,0:0:0:0:
402,192,211961,1,0,0:0:0:0:
182,192,212182,1,0,0:0:0:0:
329,192,212182,1,0,0:0:0:0:
256,192,212293,1,0,0:0:0:0:
182,192,212404,1,0,0:0:0:0:
329,192,212404,1,0,0:0:0:0:
329,192,212515,1,0,0:0:0:0:
182,192,212515,1,0,0:0:0:0:
182,192,212626,1,0,0:0:0:0:
329,192,212626,1,0,0:0:0:0:
329,192,212737,1,0,0:0:0:0:
182,192,212737,1,0,0:0:0:0:
36,192,212848,1,0,0:0:0:0:
109,192,212958,1,0,0:0:0:0:
109,192,213069,1,0,0:0:0:0:
109,192,213180,1,0,0:0:0:0:
36,192,213291,1,0,0:0:0:0:
182,192,213402,1,0,0:0:0:0:
182,192,213513,1,0,0:0:0:0:
182,192,213623,1,0,0:0:0:0:
36,192,213734,1,0,0:0:0:0:
256,192,213845,1,0,0:0:0:0:
256,192,213956,1,0,0:0:0:0:
256,192,214067,1,0,0:0:0:0:
36,192,214178,1,0,0:0:0:0:
329,192,214288,1,0,0:0:0:0:
329,192,214399,1,0,0:0:0:0:
329,192,214510,1,0,0:0:0:0:
475,192,214621,1,0,0:0:0:0:
402,192,214732,1,0,0:0:0:0:
402,192,214843,1,0,0:0:0:0:
402,192,214954,1,0,0:0:0:0:
475,192,215064,1,0,0:0:0:0:
329,192,215175,1,0,0:0:0:0:
329,192,215286,1,0,0:0:0:0:
329,192,215397,1,0,0:0:0:0:
475,192,215508,1,0,0:0:0:0:
256,192,215619,1,0,0:0:0:0:
256,192,215729,1,0,0:0:0:0:
256,192,215840,1,0,0:0:0:0:
475,192,215951,1,0,0:0:0:0:
182,192,216062,1,0,0:0:0:0:
182,192,216173,1,0,0:0:0:0:
182,192,216284,1,0,0:0:0:0:
36,192,216394,1,0,0:0:0:0:
36,192,216505,1,0,0:0:0:0:
109,192,216505,1,0,0:0:0:0:
36,192,216616,1,0,0:0:0:0:
109,192,216616,1,0,0:0:0:0:
109,192,216727,1,0,0:0:0:0:
36,192,216727,1,0,0:0:0:0:
36,192,216838,1,0,0:0:0:0:
109,192,216949,1,0,0:0:0:0:
182,192,216949,1,0,0:0:0:0:
182,192,217059,1,0,0:0:0:0:
109,192,217059,1,0,0:0:0:0:
109,192,217170,1,0,0:0:0:0:
182,192,217170,1,0,0:0:0:0:
36,192,217281,1,0,0:0:0:0:
182,192,217392,1,0,0:0:0:0:
256,192,217392,1,0,0:0:0:0:
182,192,217503,1,0,0:0:0:0:
256,192,217503,1,0,0:0:0:0:
256,192,217614,1,0,0:0:0:0:
182,192,217614,1,0,0:0:0:0:
36,192,217725,1,0,0:0:0:0:
256,192,217835,1,0,0:0:0:0:
329,192,217835,1,0,0:0:0:0:
329,192,217946,1,0,0:0:0:0:
256,192,217946,1,0,0:0:0:0:
256,192,218057,1,0,0:0:0:0:
329,192,218057,1,0,0:0:0:0:
475,192,218168,1,0,0:0:0:0:
475,192,218279,1,0,0:0:0:0:
402,192,218279,1,0,0:0:0:0:
475,192,218390,1,0,0:0:0:0:
402,192,218390,1,0,0:0:0:0:
475,192,218500,1,0,0:0:0:0:
402,192,218500,1,0,0:0:0:0:
475,192,218611,1,0,0:0:0:0:
329,192,218722,1,0,0:0:0:0:
402,192,218722,1,0,0:0:0:0:
402,192,218833,1,0,0:0:0:0:
329,192,218833,1,0,0:0:0:0:
402,192,218944,1,0,0:0:0:0:
329,192,218944,1,0,0:0:0:0:
475,192,219055,1,0,0:0:0:0:
329,192,219165,1,0,0:0:0:0:
256,192,219165,1,0,0:0:0:0:
329,192,219276,1,0,0:0:0:0:
256,192,219276,1,0,0:0:0:0:
329,192,219387,1,0,0:0:0:0:
256,192,219387,1,0,0:0:0:0:
475,192,219498,1,0,0:0:0:0:
256,192,219609,1,0,0:0:0:0:
182,192,219609,1,0,0:0:0:0:
256,192,219720,1,0,0:0:0:0:
182,192,219720,1,0,0:0:0:0:
256,192,219830,1,0,0:0:0:0:
182,192,219830,1,0,0:0:0:0:
36,192,219941,1,0,0:0:0:0:
182,192,220052,1,0,0:0:0:0:
109,192,220052,1,0,0:0:0:0:
36,192,220163,1,0,0:0:0:0:
182,192,220274,1,0,0:0:0:0:
109,192,220274,1,0,0:0:0:0:
36,192,220385,1,0,0:0:0:0:
256,192,220496,1,0,0:0:0:0:
182,192,220496,1,0,0:0:0:0:
36,192,220606,1,0,0:0:0:0:
256,192,220717,1,0,0:0:0:0:
182,192,220717,1,0,0:0:0:0:
36,192,220828,1,0,0:0:0:0:
329,192,220939,1,0,0:0:0:0:
256,192,220939,1,0,0:0:0:0:
36,192,221050,1,0,0:0:0:0:
329,192,221161,1,0,0:0:0:0:
256,192,221161,1,0,0:0:0:0:
36,192,221271,1,0,0:0:0:0:
402,192,221382,1,0,0:0:0:0:
329,192,221382,1,0,0:0:0:0:
36,192,221493,1,0,0:0:0:0:
402,192,221604,1,0,0:0:0:0:
329,192,221604,1,0,0:0:0:0:
475,192,221715,1,0,0:0:0:0:
329,192,221826,1,0,0:0:0:0:
402,192,221826,1,0,0:0:0:0:
475,192,221936,1,0,0:0:0:0:
329,192,222047,1,0,0:0:0:0:
402,192,222047,1,0,0:0:0:0:
475,192,222158,1,0,0:0:0:0:
256,192,222269,1,0,0:0:0:0:
329,192,222269,1,0,0:0:0:0:
475,192,222380,1,0,0:0:0:0:
256,192,222491,1,0,0:0:0:0:
329,192,222491,1,0,0:0:0:0:
475,192,222601,1,0,0:0:0:0:
182,192,222712,1,0,0:0:0:0:
256,192,222712,1,0,0:0:0:0:
475,192,222823,1,0,0:0:0:0:
182,192,222934,1,0,0:0:0:0:
256,192,222934,1,0,0:0:0:0:
475,192,223045,1,0,0:0:0:0:
109,192,223156,1,0,0:0:0:0:
182,192,223156,1,0,0:0:0:0:
329,192,223377,1,0,0:0:0:0:
182,192,223377,1,0,0:0:0:0:
36,192,223488,1,0,0:0:0:0:
182,192,223488,1,0,0:0:0:0:
329,192,223488,1,0,0:0:0:0:
475,192,223488,1,0,0:0:0:0:
36,192,223599,1,0,0:0:0:0:
182,192,223599,1,0,0:0:0:0:
329,192,223599,1,0,0:0:0:0:
475,192,223599,1,0,0:0:0:0:
36,192,223710,1,0,0:0:0:0:
182,192,223710,1,0,0:0:0:0:
329,192,223710,1,0,0:0:0:0:
475,192,223710,1,0,0:0:0:0:
36,192,223821,1,0,0:0:0:0:
182,192,223821,1,0,0:0:0:0:
329,192,223821,1,0,0:0:0:0:
475,192,223821,1,0,0:0:0:0:
182,192,223932,1,0,0:0:0:0:
329,192,223932,1,0,0:0:0:0:
36,192,223932,1,0,0:0:0:0:
475,192,223932,1,0,0:0:0:0:
36,192,224043,1,0,0:0:0:0:
182,192,224043,1,0,0:0:0:0:
475,192,224043,1,0,0:0:0:0:
329,192,224043,1,0,0:0:0:0:
475,192,224154,1,0,0:0:0:0:
182,192,224154,1,0,0:0:0:0:
36,192,224154,1,0,0:0:0:0:
329,192,224154,1,0,0:0:0:0:
329,192,224265,1,0,0:0:0:0:
36,192,224265,1,0,0:0:0:0:
475,192,224265,1,0,0:0:0:0:
182,192,224265,1,0,0:0:0:0:
36,192,224375,1,0,0:0:0:0:
475,192,224375,1,0,0:0:0:0:
182,192,224375,1,0,0:0:0:0:
329,192,224375,1,0,0:0:0:0:
475,192,224486,1,0,0:0:0:0:
329,192,224486,1,0,0:0:0:0:
36,192,224486,1,0,0:0:0:0:
182,192,224486,1,0,0:0:0:0:
36,192,224597,1,0,0:0:0:0:
329,192,224597,1,0,0:0:0:0:
475,192,224597,1,0,0:0:0:0:
182,192,224597,1,0,0:0:0:0:
475,192,224708,1,0,0:0:0:0:
182,192,224708,1,0,0:0:0:0:
329,192,224708,1,0,0:0:0:0:
36,192,224708,1,0,0:0:0:0:
182,192,224818,1,0,0:0:0:0:
329,192,224818,1,0,0:0:0:0:
36,192,224818,1,0,0:0:0:0:
475,192,224818,1,0,0:0:0:0:
36,192,224929,1,0,0:0:0:0:
182,192,224929,1,0,0:0:0:0:
475,192,224929,1,0,0:0:0:0:
329,192,224929,1,0,0:0:0:0:
475,192,225040,1,0,0:0:0:0:
182,192,225040,1,0,0:0:0:0:
36,192,225040,1,0,0:0:0:0:
329,192,225040,1,0,0:0:0:0:
329,192,225151,1,0,0:0:0:0:
36,192,225151,1,0,0:0:0:0:
475,192,225151,1,0,0:0:0:0:
182,192,225151,1,0,0:0:0:0:
256,192,225262,128,0,225483:0:0:0:0:
182,192,225705,128,0,225927:0:0:0:0:
329,192,225705,128,0,225927:0:0:0:0:
256,192,226038,128,0,226924:0:0:0:0:
109,192,226148,128,0,226370:0:0:0:0:
402,192,226148,128,0,226370:0:0:0:0:
36,192,226592,128,0,226813:0:0:0:0:
475,192,226592,128,0,226813:0:0:0:0:
36,192,227035,1,0,0:0:0:0:
475,192,227035,1,0,0:0:0:0:
182,192,227035,1,0,0:0:0:0:
402,192,227257,1,0,0:0:0:0:
402,192,227368,1,0,0:0:0:0:
36,192,227478,1,0,0:0:0:0:
475,192,227478,1,0,0:0:0:0:
109,192,227478,1,0,0:0:0:0:
329,192,227589,1,0,0:0:0:0:
402,192,227645,1,0,0:0:0:0:
182,192,227700,1,0,0:0:0:0:
475,192,227700,1,0,0:0:0:0:
475,192,227811,1,0,0:0:0:0:
402,192,227866,1,0,0:0:0:0:
329,192,227922,1,0,0:0:0:0:
182,192,228143,1,0,0:0:0:0:
402,192,228254,1,0,0:0:0:0:
36,192,228365,1,0,0:0:0:0:
109,192,228365,1,0,0:0:0:0:
402,192,228587,1,0,0:0:0:0:
402,192,228698,1,0,0:0:0:0:
182,192,228809,1,0,0:0:0:0:
329,192,228919,1,0,0:0:0:0:
475,192,229030,128,0,229141:0:0:0:0:
402,192,229141,1,0,0:0:0:0:
475,192,229252,128,0,229363:0:0:0:0:
36,192,229252,1,0,0:0:0:0:
109,192,229252,1,0,0:0:0:0:
182,192,229474,1,0,0:0:0:0:
402,192,229695,1,0,0:0:0:0:
256,192,229695,1,0,0:0:0:0:
402,192,229806,1,0,0:0:0:0:
329,192,229806,1,0,0:0:0:0:
182,192,229917,1,0,0:0:0:0:
402,192,230028,1,0,0:0:0:0:
36,192,230139,1,0,0:0:0:0:
109,192,230139,1,0,0:0:0:0:
402,192,230360,1,0,0:0:0:0:
402,192,230471,1,0,0:0:0:0:
36,192,230582,1,0,0:0:0:0:
329,192,230582,1,0,0:0:0:0:
475,192,230582,1,0,0:0:0:0:
109,192,230804,1,0,0:0:0:0:
109,192,230914,1,0,0:0:0:0:
36,192,231025,1,0,0:0:0:0:
402,192,231025,1,0,0:0:0:0:
475,192,231025,1,0,0:0:0:0:
182,192,231136,1,0,0:0:0:0:
109,192,231192,1,0,0:0:0:0:
329,192,231247,1,0,0:0:0:0:
36,192,231247,1,0,0:0:0:0:
36,192,231358,1,0,0:0:0:0:
109,192,231413,1,0,0:0:0:0:
182,192,231469,1,0,0:0:0:0:
329,192,231690,1,0,0:0:0:0:
182,192,231801,1,0,0:0:0:0:
402,192,231912,1,0,0:0:0:0:
475,192,231912,1,0,0:0:0:0:
109,192,232134,1,0,0:0:0:0:
109,192,232245,1,0,0:0:0:0:
329,192,232355,1,0,0:0:0:0:
182,192,232466,1,0,0:0:0:0:
36,192,232577,128,0,232688:0:0:0:0:
109,192,232688,1,0,0:0:0:0:
475,192,232799,1,0,0:0:0:0:
402,192,232799,1,0,0:0:0:0:
36,192,232799,128,0,232910:0:0:0:0:
36,192,233020,1,0,0:0:0:0:
256,192,233242,1,0,0:0:0:0:
109,192,233242,1,0,0:0:0:0:
109,192,233353,1,0,0:0:0:0:
182,192,233353,1,0,0:0:0:0:
329,192,233464,1,0,0:0:0:0:
109,192,233575,1,0,0:0:0:0:
402,192,233685,1,0,0:0:0:0:
475,192,233685,1,0,0:0:0:0:
109,192,233907,1,0,0:0:0:0:
109,192,234018,1,0,0:0:0:0:
182,192,234129,1,0,0:0:0:0:
36,192,234129,1,0,0:0:0:0:
475,192,234129,1,0,0:0:0:0:
402,192,234351,1,0,0:0:0:0:
402,192,234462,1,0,0:0:0:0:
36,192,234572,1,0,0:0:0:0:
109,192,234572,1,0,0:0:0:0:
475,192,234572,1,0,0:0:0:0:
329,192,234683,1,0,0:0:0:0:
402,192,234739,1,0,0:0:0:0:
182,192,234794,1,0,0:0:0:0:
475,192,234794,1,0,0:0:0:0:
475,192,234905,1,0,0:0:0:0:
402,192,234960,1,0,0:0:0:0:
329,192,235016,1,0,0:0:0:0:
182,192,235237,1,0,0:0:0:0:
402,192,235348,1,0,0:0:0:0:
36,192,235459,1,0,0:0:0:0:
109,192,235459,1,0,0:0:0:0:
402,192,235681,1,0,0:0:0:0:
402,192,235792,1,0,0:0:0:0:
182,192,235903,1,0,0:0:0:0:
329,192,236013,1,0,0:0:0:0:
475,192,236124,128,0,236235:0:0:0:0:
402,192,236235,1,0,0:0:0:0:
36,192,236346,1,0,0:0:0:0:
109,192,236346,1,0,0:0:0:0:
475,192,236346,128,0,236457:0:0:0:0:
182,192,236568,1,0,0:0:0:0:
256,192,236789,1,0,0:0:0:0:
402,192,236789,1,0,0:0:0:0:
402,192,236900,1,0,0:0:0:0:
329,192,236900,1,0,0:0:0:0:
182,192,237011,1,0,0:0:0:0:
402,192,237122,1,0,0:0:0:0:
109,192,237233,1,0,0:0:0:0:
36,192,237233,1,0,0:0:0:0:
402,192,237454,1,0,0:0:0:0:
402,192,237565,1,0,0:0:0:0:
475,192,237676,1,0,0:0:0:0:
329,192,237676,1,0,0:0:0:0:
36,192,237676,1,0,0:0:0:0:
109,192,237898,1,0,0:0:0:0:
109,192,238008,1,0,0:0:0:0:
475,192,238119,1,0,0:0:0:0:
36,192,238119,1,0,0:0:0:0:
402,192,238119,1,0,0:0:0:0:
182,192,238230,1,0,0:0:0:0:
109,192,238286,1,0,0:0:0:0:
36,192,238341,1,0,0:0:0:0:
329,192,238341,1,0,0:0:0:0:
36,192,238452,1,0,0:0:0:0:
109,192,238507,1,0,0:0:0:0:
182,192,238563,1,0,0:0:0:0:
329,192,238784,1,0,0:0:0:0:
182,192,238895,1,0,0:0:0:0:
475,192,239006,1,0,0:0:0:0:
402,192,239006,1,0,0:0:0:0:
109,192,239228,1,0,0:0:0:0:
109,192,239339,1,0,0:0:0:0:
329,192,239449,1,0,0:0:0:0:
182,192,239560,1,0,0:0:0:0:
36,192,239671,128,0,239782:0:0:0:0:
109,192,239671,1,0,0:0:0:0:
109,192,239782,1,0,0:0:0:0:
402,192,239893,1,0,0:0:0:0:
475,192,239893,1,0,0:0:0:0:
182,192,239893,1,0,0:0:0:0:
36,192,240003,128,0,240114:0:0:0:0:
109,192,240003,1,0,0:0:0:0:
109,192,240114,1,0,0:0:0:0:
109,192,240225,1,0,0:0:0:0:
182,192,240336,1,0,0:0:0:0:
109,192,240447,1,0,0:0:0:0:
36,192,240447,128,0,240558:0:0:0:0:
329,192,240558,1,0,0:0:0:0:
109,192,240558,1,0,0:0:0:0:
182,192,240668,1,0,0:0:0:0:
109,192,240669,1,0,0:0:0:0:
402,192,240779,1,0,0:0:0:0:
475,192,240779,1,0,0:0:0:0:
36,192,240779,128,0,240890:0:0:0:0:
109,192,240890,1,0,0:0:0:0:
109,192,241001,1,0,0:0:0:0:
109,192,241112,1,0,0:0:0:0:
182,192,241223,128,0,241444:0:0:0:0:
329,192,241223,128,0,241444:0:0:0:0:
256,192,241444,1,0,0:0:0:0:
182,192,241555,1,0,0:0:0:0:
329,192,241555,1,0,0:0:0:0:
36,192,241666,128,0,241888:0:0:0:0:
475,192,241666,128,0,241888:0:0:0:0:
109,192,241888,1,0,0:0:0:0:
402,192,241888,1,0,0:0:0:0:
256,192,242109,1,0,0:0:0:0:
329,192,242220,1,0,0:0:0:0:
329,192,242331,1,0,0:0:0:0:
329,192,242442,1,0,0:0:0:0:
36,192,242553,128,0,242774:0:0:0:0:
475,192,242553,128,0,242774:0:0:0:0:
109,192,242774,1,0,0:0:0:0:
402,192,242774,1,0,0:0:0:0:
182,192,242996,128,0,243218:0:0:0:0:
329,192,242996,128,0,243218:0:0:0:0:
256,192,243218,1,0,0:0:0:0:
182,192,243329,1,0,0:0:0:0:
329,192,243329,1,0,0:0:0:0:
36,192,243439,128,0,243661:0:0:0:0:
475,192,243439,128,0,243661:0:0:0:0:
109,192,243661,1,0,0:0:0:0:
402,192,243661,1,0,0:0:0:0:
182,192,243994,1,0,0:0:0:0:
182,192,244104,1,0,0:0:0:0:
182,192,244215,1,0,0:0:0:0:
36,192,244326,128,0,244548:0:0:0:0:
475,192,244326,128,0,244548:0:0:0:0:
109,192,244548,1,0,0:0:0:0:
402,192,244548,1,0,0:0:0:0:
182,192,244770,128,0,244991:0:0:0:0:
329,192,244770,128,0,244991:0:0:0:0:
256,192,244991,128,0,245545:0:0:0:0:
182,192,245102,128,0,245213:0:0:0:0:
329,192,245102,128,0,245213:0:0:0:0:
36,192,245213,128,0,245656:0:0:0:0:
475,192,245213,128,0,245656:0:0:0:0:
109,192,245435,128,0,245656:0:0:0:0:
402,192,245435,128,0,245656:0:0:0:0:
256,192,245656,1,0,0:0:0:0:
329,192,245767,1,0,0:0:0:0:
329,192,245878,1,0,0:0:0:0:
329,192,245989,1,0,0:0:0:0:
36,192,246100,128,0,246321:0:0:0:0:
475,192,246100,128,0,246321:0:0:0:0:
109,192,246321,128,0,246543:0:0:0:0:
402,192,246321,128,0,246543:0:0:0:0:
182,192,246543,128,0,246765:0:0:0:0:
329,192,246543,128,0,246765:0:0:0:0:
256,192,246765,128,0,247319:0:0:0:0:
182,192,246875,128,0,246986:0:0:0:0:
329,192,246875,128,0,246986:0:0:0:0:
36,192,246986,128,0,247319:0:0:0:0:
475,192,246986,128,0,247319:0:0:0:0:
402,192,247208,128,0,247319:0:0:0:0:
109,192,247208,128,0,247319:0:0:0:0:
182,192,247541,1,0,0:0:0:0:
182,192,247651,1,0,0:0:0:0:
182,192,247762,1,0,0:0:0:0:
36,192,247873,128,0,248095:0:0:0:0:
475,192,247873,128,0,248095:0:0:0:0:
402,192,248095,128,0,248316:0:0:0:0:
109,192,248095,128,0,248316:0:0:0:0:
182,192,248316,128,0,248538:0:0:0:0:
329,192,248316,128,0,248538:0:0:0:0:
256,192,248538,1,0,0:0:0:0:
182,192,248649,1,0,0:0:0:0:
329,192,248649,1,0,0:0:0:0:
36,192,248760,128,0,248981:0:0:0:0:
475,192,248760,128,0,248981:0:0:0:0:
109,192,248871,128,0,249092:0:0:0:0:
402,192,248981,128,0,249092:0:0:0:0:
36,192,249203,1,0,0:0:0:0:
475,192,249203,1,0,0:0:0:0:
36,192,249351,1,0,0:0:0:0:
475,192,249351,1,0,0:0:0:0:
36,192,249499,1,0,0:0:0:0:
475,192,249499,1,0,0:0:0:0:
36,192,249646,128,0,249868:0:0:0:0:
475,192,249646,128,0,249868:0:0:0:0:
109,192,249868,128,0,250090:0:0:0:0:
402,192,249868,128,0,250090:0:0:0:0:
182,192,250090,128,0,250312:0:0:0:0:
329,192,250090,128,0,250312:0:0:0:0:
256,192,250312,1,0,0:0:0:0:
182,192,250422,1,0,0:0:0:0:
329,192,250422,1,0,0:0:0:0:
36,192,250533,128,0,250644:0:0:0:0:
475,192,250533,128,0,250644:0:0:0:0:
182,192,250644,1,0,0:0:0:0:
329,192,250644,1,0,0:0:0:0:
109,192,250755,1,0,0:0:0:0:
402,192,250755,1,0,0:0:0:0:
109,192,250866,1,0,0:0:0:0:
402,192,250866,1,0,0:0:0:0:
109,192,250977,128,0,251087:0:0:0:0:
329,192,250977,128,0,251087:0:0:0:0:
182,192,251087,128,0,251198:0:0:0:0:
402,192,251087,128,0,251198:0:0:0:0:
109,192,251198,128,0,251420:0:0:0:0:
329,192,251198,128,0,251420:0:0:0:0:
182,192,251309,128,0,251420:0:0:0:0:
402,192,251309,128,0,251420:0:0:0:0:
36,192,251420,128,0,251642:0:0:0:0:
475,192,251420,128,0,251642:0:0:0:0:
109,192,251642,128,0,251863:0:0:0:0:
402,192,251642,128,0,251863:0:0:0:0:
182,192,251863,128,0,252085:0:0:0:0:
329,192,251863,128,0,252085:0:0:0:0:
256,192,252085,1,0,0:0:0:0:
182,192,252196,1,0,0:0:0:0:
329,192,252196,1,0,0:0:0:0:
256,192,252307,1,0,0:0:0:0:
109,192,252417,1,0,0:0:0:0:
402,192,252417,1,0,0:0:0:0:
109,192,252528,1,0,0:0:0:0:
402,192,252528,1,0,0:0:0:0:
109,192,252639,1,0,0:0:0:0:
402,192,252639,1,0,0:0:0:0:
182,192,252750,128,0,252972:0:0:0:0:
329,192,252750,128,0,252972:0:0:0:0:
256,192,252972,1,0,0:0:0:0:
182,192,253083,1,0,0:0:0:0:
329,192,253083,1,0,0:0:0:0:
256,192,253193,1,0,0:0:0:0:
109,192,253304,1,0,0:0:0:0:
402,192,253304,1,0,0:0:0:0:
109,192,253415,1,0,0:0:0:0:
402,192,253415,1,0,0:0:0:0:
109,192,253526,1,0,0:0:0:0:
402,192,253526,1,0,0:0:0:0:
36,192,253637,1,0,0:0:0:0:
256,192,253637,1,0,0:0:0:0:
182,192,253637,1,0,0:0:0:0:
109,192,253637,1,0,0:0:0:0:
36,192,253748,1,0,0:0:0:0:
256,192,253748,1,0,0:0:0:0:
182,192,253748,1,0,0:0:0:0:
109,192,253748,1,0,0:0:0:0:
256,192,253858,1,0,0:0:0:0:
475,192,253858,1,0,0:0:0:0:
329,192,253858,1,0,0:0:0:0:
402,192,253858,1,0,0:0:0:0:
256,192,253969,1,0,0:0:0:0:
475,192,253969,1,0,0:0:0:0:
329,192,253969,1,0,0:0:0:0:
402,192,253969,1,0,0:0:0:0:
402,192,254080,1,0,0:0:0:0:
256,192,254080,1,0,0:0:0:0:
329,192,254080,1,0,0:0:0:0:
182,192,254080,1,0,0:0:0:0:
256,192,254191,1,0,0:0:0:0:
402,192,254191,1,0,0:0:0:0:
329,192,254191,1,0,0:0:0:0:
182,192,254191,1,0,0:0:0:0:
182,192,254302,1,0,0:0:0:0:
256,192,254302,1,0,0:0:0:0:
329,192,254302,1,0,0:0:0:0:
109,192,254302,1,0,0:0:0:0:
182,192,254413,1,0,0:0:0:0:
256,192,254413,1,0,0:0:0:0:
329,192,254413,1,0,0:0:0:0:
109,192,254413,1,0,0:0:0:0:
109,192,254523,1,0,0:0:0:0:
256,192,254523,1,0,0:0:0:0:
182,192,254523,1,0,0:0:0:0:
36,192,254523,1,0,0:0:0:0:
109,192,254634,1,0,0:0:0:0:
256,192,254634,1,0,0:0:0:0:
182,192,254634,1,0,0:0:0:0:
36,192,254634,1,0,0:0:0:0:
182,192,254745,1,0,0:0:0:0:
256,192,254745,1,0,0:0:0:0:
109,192,254745,1,0,0:0:0:0:
329,192,254745,1,0,0:0:0:0:
182,192,254856,1,0,0:0:0:0:
256,192,254856,1,0,0:0:0:0:
109,192,254856,1,0,0:0:0:0:
329,192,254856,1,0,0:0:0:0:
256,192,254967,1,0,0:0:0:0:
329,192,254967,128,0,255410:0:0:0:0:
402,192,254967,1,0,0:0:0:0:
256,192,255188,1,0,0:0:0:0:
182,192,255188,128,0,255410:0:0:0:0:
109,192,255188,1,0,0:0:0:0:
256,192,255410,1,0,0:0:0:0:
475,192,255410,1,0,0:0:0:0:
36,192,255410,1,0,0:0:0:0:
