osu file format v13

[General]
AudioFilename: 16-Noisia-Dystopia.mp3
AudioLeadIn: 0
PreviewTime: 0
Countdown: 1
SampleSet: None
StackLeniency: 0.7
Mode: 0
LetterboxInBreaks: 1
WidescreenStoryboard: 1

[Editor]
DistanceSpacing: 1
BeatDivisor: 4
GridSize: 16
TimelineZoom: 0.8

[Metadata]
Title:Dystopia
TitleUnicode:Dystopia
Artist:Noisia
ArtistUnicode:Noisia
Creator:Tuxxy
Version:Normal
Source:
Tags:split the atom
BeatmapID:536263
BeatmapSetID:230587

[Difficulty]
HPDrainRate:4
CircleSize:3.5
OverallDifficulty:4
ApproachRate:5
SliderMultiplier:1.2
SliderTickRate:1

[Events]
//Background and Video events
0,0,"320572.jpg",0,0
//Break Periods
//Storyboard Layer 0 (Background)
//Storyboard Layer 1 (Fail)
//Storyboard Layer 2 (Pass)
//Storyboard Layer 3 (Foreground)
//Storyboard Sound Samples
//Background Colour Transformations
3,100,163,162,255

[TimingPoints]
0,521.739130434783,4,2,0,100,1,0
56347,-100,4,2,0,5,0,0

[HitObjects]
144,80,0,6,0,P|96:128|96:192,1,120,0|2,0:0|0:0,0:0:0:0:
208,192,1043,1,8,0:0:0:0:
336,192,1565,1,2,0:0:0:0:
448,192,2086,5,0,0:0:0:0:
448,128,2347,1,0,0:0:0:0:
448,64,2608,1,2,0:0:0:0:
336,64,3130,2,2,L|208:64,1,120,10|2,0:0|0:0,0:0:0:0:
96,112,4173,6,0,P|64:144|48:224,1,120,0|2,0:0|0:0,0:0:0:0:
160,224,5217,1,8,0:0:0:0:
224,224,5478,1,0,0:0:0:0:
288,224,5739,1,2,0:0:0:0:
400,224,6260,6,0,L|400:288,2,60,0|0|2,0:0|0:0|0:0,0:0:0:0:
272,224,7304,2,0,P|272:256|240:352,1,120,8|2,0:0|0:0,0:0:0:0:
144,288,8347,6,0,P|96:272|64:192,1,120,0|2,0:0|0:0,0:0:0:0:
96,96,9391,1,4,0:0:0:0:
224,96,9913,1,2,0:0:0:0:
336,96,10434,5,0,0:0:0:0:
336,160,10695,1,0,0:0:0:0:
336,224,10956,1,2,0:0:0:0:
224,224,11478,2,2,L|80:224,1,120,10|0,0:0|0:0,0:0:0:0:
144,112,12521,5,0,0:0:0:0:
192,144,12782,1,0,0:0:0:0:
240,176,13043,1,2,0:0:0:0:
352,224,13565,2,2,P|384:192|416:112,1,120,10|2,0:0|0:0,0:0:0:0:
288,128,14608,6,0,L|288:64,2,60,0|0|2,0:0|0:0|0:0,0:0:0:0:
160,128,15652,2,0,L|160:256,1,120,8|2,0:0|0:0,0:0:0:0:
48,304,16695,6,0,P|96:336|176:336,1,120,0|2,0:0|0:0,0:0:0:0:
272,320,17739,1,8,0:0:0:0:
272,256,18000,1,0,0:0:0:0:
272,192,18260,1,2,0:0:0:0:
208,96,18782,6,0,L|128:96,2,60,0|0|2,0:0|0:0|0:0,0:0:0:0:
320,48,19826,2,0,P|368:32|416:96,1,120,8|2,0:0|0:0,0:0:0:0:
304,128,20869,5,0,0:0:0:0:
304,192,21130,1,0,0:0:0:0:
304,256,21391,1,2,0:0:0:0:
176,256,21913,5,8,0:0:0:0:
176,192,22173,1,0,0:0:0:0:
176,128,22434,1,2,0:0:0:0:
272,48,22956,6,0,P|320:48|400:96,2,120,0|2|8,0:0|0:0|0:0,0:0:0:0:
32,48,25043,6,0,L|32:176,1,120,0|2,0:0|0:0,0:0:0:0:
144,192,26086,1,8,0:0:0:0:
208,192,26347,1,0,0:0:0:0:
272,192,26608,1,2,0:0:0:0:
384,192,27130,6,0,L|384:272,2,60,0|0|2,0:0|0:0|0:0,0:0:0:0:
288,112,28173,2,0,P|256:80|176:80,1,120,8|2,0:0|0:0,0:0:0:0:
80,144,29217,5,0,0:0:0:0:
128,192,29478,1,0,0:0:0:0:
176,240,29739,1,2,0:0:0:0:
288,256,30260,1,8,0:0:0:0:
320,208,30521,1,0,0:0:0:0:
352,160,30782,1,2,0:0:0:0:
240,128,31304,6,0,P|272:96|352:80,2,120,0|2|8,0:0|0:0|0:0,0:0:0:0:
480,96,33391,6,0,L|480:224,1,120,0|2,0:0|0:0,0:0:0:0:
368,224,34434,1,8,0:0:0:0:
304,224,34695,1,0,0:0:0:0:
240,224,34956,1,2,0:0:0:0:
112,224,35478,6,0,L|112:304,2,60,0|0|2,0:0|0:0|0:0,0:0:0:0:
240,224,36521,1,8,0:0:0:0:
480,224,37565,6,0,P|448:176|416:112,1,120,0|2,0:0|0:0,0:0:0:0:
304,112,38608,1,8,0:0:0:0:
240,112,38869,1,0,0:0:0:0:
176,112,39130,1,2,0:0:0:0:
48,112,39652,6,0,L|48:48,2,60,0|0|2,0:0|0:0|0:0,0:0:0:0:
48,176,40434,1,0,0:0:0:0:
48,240,40695,1,8,0:0:0:0:
288,240,41739,6,0,L|288:368,1,120,0|2,0:0|0:0,0:0:0:0:
384,272,42782,1,8,0:0:0:0:
384,208,43043,1,0,0:0:0:0:
384,144,43304,1,2,0:0:0:0:
272,144,43826,5,0,0:0:0:0:
224,112,44086,1,0,0:0:0:0:
176,80,44347,1,2,0:0:0:0:
48,80,44869,1,12,0:0:0:0:
256,192,45913,6,0,L|256:64,1,120,0|2,0:0|0:0,0:0:0:0:
368,80,46956,1,8,0:0:0:0:
432,80,47217,1,0,0:0:0:0:
496,80,47478,1,2,0:0:0:0:
480,192,48000,6,0,L|400:192,2,60,0|0|2,0:0|0:0|0:0,0:0:0:0:
480,256,48782,1,0,0:0:0:0:
480,320,49043,1,4,0:0:0:0:
256,192,50086,12,0,56347,0:0:0:0:
