osu file format v10

[General]
AudioFilename: Noisestorm - Take Me Away .mp3.mp3
AudioLeadIn: 2000
PreviewTime: 65889
Countdown: 0
SampleSet: Soft
StackLeniency: 0.7
Mode: 0
LetterboxInBreaks: 0
EpilepsyWarning: 1

[Editor]
Bookmarks: 27489
DistanceSpacing: 1
BeatDivisor: 4
GridSize: 4
CurrentTime: 0

[Metadata]
Title:Take Me Away
TitleUnicode:
Artist:Noisestorm
ArtistUnicode:
Creator:Katty Pie
Version:Normal
Source:
Tags:Eoin O' Broin Lizellota
BeatmapID:174460
BeatmapSetID:57957

[Difficulty]
HPDrainRate:3
CircleSize:3
OverallDifficulty:3
ApproachRate:4
SliderMultiplier:1
SliderTickRate:1

[Events]
//Background and Video events
0,0,"aa.jpg"
//Break Periods
2,46889,54283
2,57860,60455
2,109975,118055
//Storyboard Layer 0 (Background)
//Storyboard Layer 1 (Fail)
//Storyboard Layer 2 (Pass)
//Storyboard Layer 3 (Foreground)
//Storyboard Sound Samples
//Background Colour Transformations
3,100,163,162,255

[TimingPoints]
61,342.857142857143,4,2,0,70,1,0
403,-100,4,2,2,70,0,0
489,-100,4,2,0,70,0,0
1775,-100,4,2,2,70,0,0
1861,-100,4,2,0,70,0,0
5889,-100,4,2,2,70,0,0
5975,-100,4,2,0,70,0,0
7261,-100,4,2,2,70,0,0
7346,-100,4,2,0,70,0,0
10003,-100,4,2,2,70,0,0
10089,-100,4,2,0,70,0,0
14118,-100,4,2,2,70,0,0
14203,-100,4,2,0,70,0,0
15489,-100,4,2,2,70,0,0
15575,-100,4,2,0,70,0,0
25089,-100,4,2,2,70,0,0
25175,-100,4,2,0,70,0,0
26461,-100,4,2,2,70,0,0
26546,-100,4,2,0,70,0,0
30575,-100,4,2,2,70,0,0
30661,-100,4,2,0,70,0,0
31946,-100,4,2,2,70,0,0
32032,-100,4,2,0,70,0,0
36061,-100,4,2,2,70,0,0
36146,-100,4,2,0,70,0,0
37432,-100,4,2,2,70,0,0
37518,-100,4,2,0,70,0,0
40175,-100,4,2,2,70,0,0
40261,-100,4,2,0,70,0,0
44632,-133.333333333333,4,2,0,50,0,0
65889,-100,4,1,0,40,0,1
86461,-100,4,2,0,40,0,0
87832,-100,4,1,0,40,0,1
109775,-100,4,1,0,40,0,0

[Colours]
Combo1 : 48,164,250
Combo2 : 129,203,3
Combo3 : 2,179,183
Combo4 : 253,121,164
Combo5 : 255,191,0
Combo6 : 179,102,255
SliderBorder : 255,255,255
SliderTrackOverride : 255,255,255

[HitObjects]
168,240,61,6,0,B|168:300|204:328|256:348|256:348|308:328|348:300|347:242,1,300,4|8,0:0|0:0,0:3
312,148,1432,2,0,B|312:108|292:76|256:60|220:76|200:108|200:152,1,200
100,152,2461,1,8,0:0
140,244,2803,6,0,B|140:304|195:315,2,100,0|8|0,0:0|0:0|0:0,0:0
240,232,3832,1,8,0:0
336,212,4175,2,0,B|336:152|280:140,2,100,0|8|0,0:0|0:0|0:0,0:0
292,300,5203,1,8,0:0
192,300,5546,6,0,B|112:300|79:217|79:217|112:132|196:132,1,300,4|8,0:0|0:0,0:0
260,208,6918,2,0,B|340:208|372:125|372:125|340:40|256:40,1,300,0|8,0:0|0:0,0:0
160,40,8289,5,0,0:0
84,104,8632,1,8,0:0
52,200,8975,1,0,0:0
52,300,9318,1,8,0:0
136,248,9661,2,0,B|212:248|264:312|264:312|312:244|396:244,1,300,0|8,0:0|0:0,0:0
428,148,11032,5,4,0:0
368,68,11375,2,0,B|264:68,1,100,8|0,0:0|0:0,0:0
168,68,12061,1,8,0:0
84,120,12403,2,0,B|52:168|83:214,1,100,0|8,0:0|0:0,0:0
172,172,13089,2,0,B|276:172,1,100,0|8,0:0|0:0,0:0
344,100,13775,6,0,B|456:100|456:212|456:212|456:336,1,300,0|8,0:0|0:0,0:0
356,332,15146,2,0,B|244:332|244:220|244:220|244:96,1,300,0|8,0:0|0:0,0:0
156,48,16518,5,4,0:0
75,112,16861,2,0,B|20:208|98:295,1,200,8|8,0:0|0:0,0:0
188,252,17889,1,0,0:0
280,296,18232,2,0,B|358:208|302:112,1,200,8|8,0:0|0:0,0:0
256,192,19261,12,4,22003,0:0
168,252,22689,6,0,B|224:252|240:312,1,100,0|8,0:0|0:0,0:0
144,344,23375,2,0,B|84:340|72:284,1,100,0|8,0:0|0:0,0:0
76,184,24061,1,0,0:0
152,116,24403,1,8,0:0
224,184,24746,6,0,B|143:234|207:298|247:270|247:270|243:314|319:346|336:257,1,300,0|8,0:0|0:0,0:0
324,160,26118,2,0,B|404:109|340:45|300:73|300:73|304:29|228:-3|211:86,1,300,0|8,0:0|0:0,0:0
112,72,27489,5,4,0:0
100,172,27832,2,0,B|88:288|212:312,1,200,8|8,0:0|0:0,0:0
312,316,28861,2,0,B|268:228,1,100,0|8,0:0|0:0,0:0
312,140,29546,2,0,B|368:52,1,100,0|8,0:0|0:0,0:0
464,68,30232,6,0,B|464:128|388:192|388:192|464:252|463:317,1,300,0|8,0:0|0:0,0:0
368,288,31603,2,0,B|272:276|240:192|272:108|370:93,1,300,0|8,0:0|0:0,0:0
288,36,32975,5,4,0:0
185,36,33318,2,0,B|124:24|105:78,1,100,8|0,0:0|0:0,0:0
52,160,34003,1,8,0:0
104,244,34346,1,0,0:0
188,296,34689,2,0,B|264:376|372:317,1,200,8|8,0:0|0:0,0:0
436,244,35718,6,0,B|464:208|440:136|368:96|308:112|308:112|308:38,1,300,0|8,0:0|0:0,0:0
208,40,37089,2,0,B|208:113|208:113|148:97|80:132|52:209|80:245,1,300,0|8,0:0|0:0,0:0
177,216,38461,6,0,B|228:240|214:300,1,100,4|8,0:0|0:0,0:0
308,268,39146,2,0,B|294:328|345:351,1,100,0|8,0:0|0:0,0:0
408,276,39832,2,0,B|460:228|424:104|328:84|257:117,1,300,0|8,0:0|0:0,0:0
256,192,41203,12,0,43946,0:0
288,84,44632,6,0,B|244:48|176:88|186:141,2,150.000005722046,2|2|2,0:0|0:0|0:0,0:0
308,232,46689,1,4,0:0
223,299,55603,6,0,B|268:336|336:296|325:242,2,150.000005722046,2|2|2,0:0|0:0|0:0,0:0
204,152,57660,1,4,0:0
218,192,61775,6,0,B|68:192,2,149.999995529652,2|2|4,0:0|0:0|0:0,0:0
256,192,63489,12,4,65889,0:0
260,56,66575,6,0,B|280:104|256:156,1,100,0|8,0:0|0:0,0:0
76,236,67603,2,0,B|160:304,2,100,8|0|8,0:0|0:0|0:0,0:0
272,272,68975,2,0,B|192:212,2,100,8|0|8,0:0|0:0|0:0,0:0
352,88,70346,5,8,0:0
256,64,70689,1,0,0:0
160,88,71032,1,8,0:0
256,264,71718,2,0,B|256:160,2,100,8|0|8,0:0|0:0|0:0,0:0
84,160,73089,5,8,0:0
84,60,73432,2,0,B|132:40|132:40|192:40,1,100,0|8,0:0|0:0,0:0
280,40,74118,1,0,0:0
380,40,74461,2,0,B|428:40|428:40|476:60,1,100,8|0,0:0|0:0,0:0
476,160,75146,1,8,0:0
407,234,75489,2,0,B|384:296|264:296|243:232,2,200,4|0|4,0:0|0:0|0:0,0:0
324,176,77203,5,8,0:0
244,116,77546,1,0,0:0
164,176,77889,1,8,0:0
244,360,78575,2,0,B|244:248,2,100,8|0|8,0:0|0:0|0:0,0:0
156,180,79946,6,0,B|156:136|156:136|204:92,1,100,8|0,0:0|0:0,0:0
296,100,80632,1,8,0:0
252,296,81318,1,8,0:0
352,296,81661,2,0,B|393:258|393:258|393:214,1,100,0|8,0:0|0:0,0:0
256,72,82689,5,8,0:0
160,104,83032,1,0,0:0
160,204,83375,1,8,0:0
322,323,84061,6,0,B|384:320|391:264,2,100,8|0|8,0:0|0:0|0:0,0:0
220,324,85089,1,0,0:0
120,324,85432,2,0,B|58:321|51:265,2,100,8|0|8,0:0|0:0|0:0,0:0
256,192,86461,12,4,87832,0:0
48,192,88518,5,0,0:0
148,192,88861,1,8,0:0
348,192,89546,2,0,B|456:192,2,100,8|0|8,0:0|0:0|0:0,0:0
204,52,90918,5,8,0:0
108,72,91261,2,0,B|56:96|66:153,1,100,0|8,0:0|0:0,0:0
256,224,92289,1,8,0:0
352,204,92632,2,0,B|404:180|393:122,1,100,0|8,0:0|0:0,0:0
208,48,93661,5,8,0:0
112,72,94003,1,0,0:0
60,156,94346,1,8,0:0
156,332,95032,2,0,B|260:332,2,100,8|0|8,0:0|0:0|0:0,0:0
320,220,96403,2,0,B|208:220,2,100,8|0|8,0:0|0:0|0:0,0:0
324,120,97432,6,0,B|335:51|463:51|479:119,2,200,4|0|4,0:0|0:0|0:0,0:0
400,184,99146,2,0,B|400:304,1,100,8|0,0:0|0:0,0:0
324,348,99832,1,8,0:0
124,348,100518,6,0,B|100:296|124:248,2,100,8|0|8,0:0|0:0|0:0,0:0
224,172,101889,2,0,B|248:224|224:272,2,100,8|0|8,0:0|0:0|0:0,0:0
396,68,103261,5,8,0:0
396,168,103603,1,0,0:0
396,268,103946,1,8,0:0
256,124,104632,2,0,B|256:232,1,100,8|0,0:0|0:0,0:0
256,324,105318,1,8,0:0
64,276,106003,5,8,0:0
64,176,106346,1,0,0:0
64,76,106688,1,8,0:0
256,124,107375,2,0,B|256:224,1,100,8|0,0:0|0:0,0:0
256,324,108061,1,8,0:0
256,192,108403,12,4,109775,0:0
180,84,119375,6,0,B|232:36|232:36|256:56|284:36|284:36|340:84,2,200,4|0|4,0:0|0:0|0:0,0:0
256,148,121089,2,0,B|256:264,2,100,8|0|8,0:0|0:0|0:0,0:0
156,148,122118,1,0,0:0
156,248,122461,1,8,0:0
208,336,122803,1,0,0:0
308,336,123146,1,8,0:0
360,248,123489,6,0,B|388:196|360:151,1,100,0|8,0:0|0:0,0:0
288,84,124175,1,0,0:0
188,84,124518,1,8,0:0
108,144,124861,1,0,0:0
112,244,125203,2,0,B|112:288|112:288|160:316,2,100,8|0|8,0:0|0:0|0:0,0:0
212,236,126232,5,0,0:0
268,152,126575,2,0,B|316:180|316:180|316:232,2,100,8|0|8,0:0|0:0|0:0,0:0
168,152,127603,5,0,0:0
68,156,127946,1,8,0:0
68,256,128289,1,0,0:0
168,256,128632,1,8,0:0
256,204,128975,5,0,0:0
336,264,129318,2,0,B|336:364,2,100,8|0|8,0:0|0:0|0:0,0:0
256,204,130346,2,8,B|276:160|336:136|400:160|424:200,2,200,4|0|4,0:0|0:0|0:0,0:0
156,200,132061,5,8,0:0
92,124,132403,1,0,0:0
140,36,132746,1,8,0:0
236,64,133089,1,0,0:0
256,164,133432,2,0,B|288:216|248:264,2,100,8|0|8,0:0|0:0|0:0,0:0
336,104,134461,5,0,0:0
416,160,134803,2,0,B|416:264,1,100,8|0,0:0|0:0,0:0
340,324,135489,1,8,0:0
240,324,135832,1,0,0:0
160,264,136175,2,0,B|160:160,1,100,8|0,0:0|0:0,0:0
160,64,136860,1,8,0:0
260,64,137203,6,0,B|312:80|312:80|312:132,1,100,0|8,0:0|0:0,0:0
312,224,137889,1,0,0:0
248,300,138231,1,8,0:0
148,308,138575,6,0,B|96:292|96:292|96:240,1,100,0|8,0:0|0:0,0:0
28,172,139261,1,0,0:0
100,100,139603,1,8,0:0
168,176,139946,5,0,0:0
212,264,140289,2,0,B|300:208,2,100,8|0|8,0:0|0:0|0:0,0:0
292,324,141318,2,0,B|304:324|304:324|312:316|320:324|320:324|328:316|336:324|336:324|344:316|352:324|352:324|360:316|368:324|368:324|376:316|384:324|384:324|392:316|400:324|400:324|408:316|416:324|416:324|424:316|432:324|432:324|440:316|448:324|448:324|456:316|464:324|464:324|480:324,2,200,4|0|4,0:0|0:0|0:0,0:0
192,324,143032,5,8,0:0
104,280,143375,1,0,0:0
72,184,143718,1,8,0:0
72,84,144061,2,0,B|184:84,1,100,0|8,0:0|0:0,0:0
236,160,144746,2,0,B|340:160,1,100,0|8,0:0|0:0,0:0
412,92,145432,5,0,0:0
472,172,145775,1,8,0:0
407,250,146118,2,0,B|408:312|357:327,1,100,0|8,0:0|0:0,0:0
256,320,146803,2,0,B|255:258|306:242,1,100,0|8,0:0|0:0,0:0
308,144,147489,2,0,B|308:28,1,100,0|8,0:0|0:0,0:0
208,48,148175,5,0,0:0
120,92,148518,1,8,0:0
80,184,148861,1,0,0:0
76,284,149203,1,8,0:0
160,232,149546,6,0,B|208:232|208:232|248:196,1,100,0|8,0:0|0:0,0:0
244,96,150232,2,0,B|196:96|196:96|157:130,1,100,0|8,0:0|0:0,0:0
160,232,150918,2,0,B|160:352,2,100,0|8|0,0:0|0:0|0:0,0:0
157,130,151946,1,8,0:0
256,192,152289,12,4,153661,0:0
