osu file format v9

[General]
AudioFilename: Noisestorm - Take Me Away .mp3.mp3
AudioLeadIn: 2000
PreviewTime: 65889
Countdown: 0
SampleSet: Normal
StackLeniency: 0.7
Mode: 0
LetterboxInBreaks: 0
EpilepsyWarning: 1

[Editor]
DistanceSpacing: 1
BeatDivisor: 4
GridSize: 4

[Metadata]
Title:Take Me Away
Artist:Noisestorm
Creator:Katty Pie
Version:Insane
Source:
Tags:Eoin O' Broin Lizellota

[Difficulty]
HPDrainRate:6
CircleSize:4
OverallDifficulty:7
ApproachRate:9
SliderMultiplier:1.8
SliderTickRate:2

[Events]
//Background and Video events
0,0,"aa.jpg"
//Break Periods
2,47574,49518
2,52375,55003
//Storyboard Layer 0 (Background)
//Storyboard Layer 1 (Fail)
//Storyboard Layer 2 (Pass)
//Storyboard Layer 3 (Foreground)
//Storyboard Sound Samples
//Background Colour Transformations
3,100,163,162,255

[TimingPoints]
61,342.857142857143,4,2,0,70,1,0
43946,-100,4,2,0,5,0,0
44632,-133.333333333333,4,2,0,50,0,0
46003,-200,4,2,0,50,0,0
50118,-100,4,2,0,50,0,0
55603,-133.333333333333,4,2,0,50,0,0
65546,-133.333333333333,4,2,0,5,0,0
65889,-100,4,1,0,40,0,1
86461,-100,4,2,0,5,0,0
87832,-100,4,1,0,40,0,1
98461,-100,4,2,0,5,0,1
98803,-100,4,1,0,40,0,1
109432,-100,4,2,0,5,0,1
109775,-100,4,1,0,40,0,0
131375,-100,4,2,0,5,0,0
131718,-100,4,1,0,40,0,0

[Colours]
Combo1 : 48,164,250
Combo2 : 129,203,3
Combo3 : 2,179,183
Combo4 : 253,121,164
Combo5 : 255,191,0
Combo6 : 179,102,255
SliderBorder : 255,255,255
SliderTrackOverride : 255,255,255

[HitObjects]
344,48,61,2,0,B|392:16|480:64|472:128,1,180,0|8
492,216,575,1,0
432,288,746,2,0,B|408:344|304:344|278:288,1,180,0|8
208,240,1261,1,0
86,106,1432,6,0,B|144:176,1,90
368,176,1775,2,0,B|425:106,1,90,8|0
256,56,2118,1,0
256,80,2203,1,0
256,104,2289,1,0
256,128,2375,1,0
256,152,2461,2,0,B|256:248,1,90,8|0
256,328,2803,6,0,B|360:336|408:248,1,180,0|8
256,192,3318,1,0
256,328,3489,2,0,B|152:336|104:248,1,180,0|8
104,72,4175,5,4
408,312,4518,1,8
104,312,5032,1,0
104,224,5203,1,8
104,224,5546,5,4
408,160,5889,1,8
104,224,6403,2,0,B|104:314,1,90,0|8
408,160,6918,6,0,B|408:48,2,90,4|0|8
408,248,7432,1,0
376,244,7518,1,0
348,228,7603,1,0
332,200,7689,1,0
324,168,7775,1,0
316,136,7861,1,0
304,108,7946,2,0,B|288:52|232:68,1,90,8|0
156,112,8289,6,0,B|60:152|100:264,1,180,0|8
224,304,8803,1,0
352,264,8975,2,0,B|448:224|419:116,1,180,0|8
360,56,9489,1,0
272,56,9661,6,0,B|152:56,1,90,0|0
232,128,10003,2,0,B|136:128,1,90,8|0
192,200,10346,2,0,B|96:200,1,90
152,272,10689,2,0,B|56:272,1,90,8|0
152,272,11032,6,0,B|184:368|296:352,1,180,4|8
408,104,11718,2,0,B|384:40|288:40|264:112,1,180,0|8
136,140,12232,1,0
104,280,12403,2,0,B|128:344|224:344|248:272,1,180,0|8
244,280,12918,1,0
248,192,13089,1,0
248,192,13174,1,0
248,192,13260,1,0
248,104,13432,1,8
248,104,13517,1,0
248,104,13603,1,0
424,76,13775,5,4
88,308,14118,1,8
248,192,14632,1,0
248,192,14803,1,8
88,76,15146,5,4
424,308,15489,1,8
248,192,16003,1,0
248,192,16175,1,8
344,40,16518,6,0,B|408:40|456:116|428:180,1,180,4|8
408,256,17032,1,0
392,284,17118,1,0
368,304,17203,1,0
336,312,17289,1,0
304,312,17375,1,0
328,224,17546,1,8
120,48,17889,6,0,B|64:88|64:88|76:172|108:192,1,180,0|8
256,296,18403,1,0
399,186,18575,2,0,B|432:176|448:88|448:88|392:48,1,180,0|8
256,168,19261,6,0,B|348:228,1,90
256,168,19603,2,0,B|156:232,1,90,8|0
256,168,19947,1,0
256,176,20032,1,0
256,184,20118,1,0
256,192,20204,1,0
256,200,20289,1,8
144,340,20632,6,0,B|52:280,1,90
144,340,20974,2,0,B|244:276,1,90,8|0
144,340,21318,1,0
144,332,21403,1,0
144,324,21489,1,0
144,316,21575,1,0
144,308,21660,1,8
408,64,22003,6,0,B|376:36|376:36|352:56|328:40|308:56|284:36|284:36|256:68,1,180,4|8
256,160,22518,1,0
256,248,22689,2,0,B|228:279|228:279|204:259|180:276|160:259|136:279|136:279|108:248,1,180,0|8
108,156,23203,1,0
140,72,23375,5,0
168,36,23461,1,0
212,36,23546,1,0
252,56,23632,1,0
256,100,23718,1,8
184,152,23889,2,0,B|156:200|176:276,1,90
236,300,24232,2,0,B|264:252|244:176,1,90,0|8
388,96,24746,5,4
136,192,25089,1,8
388,288,25603,1,0
388,288,25775,1,8
136,192,26118,5,4
388,288,26461,1,8
276,44,26975,1,0
276,44,27146,1,8
120,264,27489,6,0,B|108:340|196:372|240:308,1,180,4|8
204,228,28003,1,0
208,184,28089,1,0
224,144,28175,1,0
260,116,28261,1,0
304,108,28346,1,0
396,108,28518,1,8
440,284,28861,6,0,B|404:344|404:344|360:296|302:327,1,180,0|8
256,200,29375,1,0
207,326,29546,2,0,B|152:296|108:344|108:344|72:284,1,180,0|8
83,99,30232,6,0,B|120:60|162:98,1,90
256,200,30575,1,8
256,188,30661,1,0
256,176,30746,1,0
256,164,30832,1,0
256,152,30918,1,0
349,98,31089,2,0,B|388:60|428:99,1,90,0|8
420,280,31603,6,0,B|352:344,1,90
336,252,31946,2,0,B|268:320,1,90,8|0
248,228,32289,2,0,B|180:300,1,90
156,208,32632,2,0,B|92:284,1,90,8|0
156,208,32975,6,0,B|136:124|224:108|224:108|224:68,1,180,4|8
404,60,33661,1,0
424,148,33832,1,0
428,239,34003,2,0,B|468:280|428:320,1,90,8|0
348,280,34346,2,0,B|244:280,1,90
168,280,34689,1,8
128,256,34775,1,0
104,216,34861,1,0
100,172,34946,1,0
108,128,35032,1,0
176,68,35203,2,0,B|276:68,2,90,0|8|0
200,156,35718,5,4
332,340,36061,1,8
468,108,36575,1,0
468,108,36746,1,8
200,156,37089,5,4
76,344,37432,1,8
332,340,37946,1,0
332,340,38118,1,8
336,112,38461,6,0,B|296:132|296:132|256:112,1,90,4|0
176,112,38803,2,0,B|216:132|216:132|256:112,1,90,8|0
256,204,39146,1,0
256,216,39232,1,0
256,228,39318,1,0
256,316,39489,1,8
428,192,39832,6,0,B|488:232|444:328|376:308,1,180,0|8
256,368,40346,1,0
136,308,40518,2,0,B|68:328|24:232|84:192,1,180,0|8
209,65,41203,6,0,B|164:96|187:144,1,90
382,145,41546,2,0,B|352:100|303:123,1,90,8|0
302,318,41889,2,0,B|348:288|324:239,1,90
129,238,42232,2,0,B|160:284|208:260,1,90,8|0
256,192,42575,12,0,43946
152,56,44632,6,0,B|112:80|112:152|152:176,1,134.999995976687,2|2
208,200,45146,1,0
272,176,45318,2,0,B|307:154|307:82|267:58,1,134.999995976687,2|2
404,48,46003,6,0,B|452:80|452:176|404:204,2,180,2|2|4
256,32,50118,5,2
420,108,50461,1,2
392,248,50803,2,0,B|296:248,1,90,2|2
118,248,51146,2,0,B|208:248,1,90,2|2
208,160,51489,1,2
256,336,51832,1,2
304,160,52175,1,4
112,200,55603,6,0,B|224:304,1,134.999995976687,2|2
256,344,56118,1,0
301,291,56289,2,0,B|400:200,1,134.999995976687,2|2
256,112,56975,1,2
120,128,57318,2,0,B|96:192|120:264,1,134.999995976687,2|4
256,192,57746,12,2,61432
316,92,61775,6,0,B|296:56|256:76|256:76|220:56|200:96,2,134.999995976687,2|2|2
256,188,62632,1,0
200,292,62803,2,0,B|220:328|256:308|256:308|296:328|316:288,1,134.999995976687,2|4
364,244,63318,5,0
356,176,63489,1,2
320,120,63661,1,0
256,104,63832,1,2
192,120,64003,1,0
156,176,64175,1,2
148,244,64346,1,0
256,192,64518,12,0,65546
156,52,65889,6,0,B|96:56|64:108|64:168,1,135,4|0
44,140,66232,2,0,B|100:228,1,90,8|0
120,300,66575,1,0
156,328,66661,1,0
200,340,66746,1,0
244,328,66832,1,0
276,296,66918,1,8
412,304,67089,1,0
408,172,67261,6,0,B|436:92|368:48,1,135
388,36,67603,2,0,B|273:40,1,90,8|0
252,40,67861,1,0
208,32,67946,1,0
164,40,68032,1,0
128,68,68118,1,0
104,104,68203,1,0
100,148,68289,1,8
68,280,68461,1,0
212,288,68632,6,0,B|348:320,1,135
344,340,68975,2,0,B|424:280,1,90,8|0
450,256,69232,1,0
476,216,69318,1,0
476,172,69403,1,0
456,132,69489,1,0
416,112,69575,1,0
372,116,69661,1,8
288,220,69832,1,0
192,120,70003,5,0
192,212,70175,2,0,B|192:328,1,90,0|8
232,320,70432,1,0
272,300,70518,2,0,B|272:200,1,90
312,192,70775,1,0
352,212,70861,2,0,B|352:316,1,90,0|8
388,112,71375,6,0,B|320:112|292:60|292:60|204:60,1,180,0|8
56,116,71889,2,0,B|124:116|152:168|152:168|240:168,1,180
340,224,72403,1,8
292,352,72575,1,0
168,280,72746,6,0,B|144:280|144:280|128:312|88:296|88:296|48:312|32:280|32:280|4:280,1,180,0|8
136,156,73261,2,0,B|160:156|160:156|176:124|216:140|216:140|256:124|272:156|272:156|304:156,1,180
320,288,73775,1,8
452,260,73946,1,0
404,148,74118,6,0,B|440:116|384:40|292:84|312:124,1,180,0|8
108,148,74632,2,0,B|72:116|128:40|220:84|200:124,1,180
256,248,75146,1,8
256,248,75318,1,0
256,192,75489,12,0,76518
392,236,76861,6,0,B|444:224|472:172|468:120,1,135,4|0
492,132,77204,2,0,B|444:48,1,90,8|0
412,28,77461,1,0
392,68,77546,1,0
364,96,77632,1,0
328,120,77718,1,0
284,132,77803,1,0
240,136,77889,1,8
140,44,78061,1,0
100,172,78232,6,0,B|48:184|20:236|24:288,1,135
0,276,78575,2,0,B|48:360,1,90,8|0
88,360,78832,1,0
132,356,78918,1,0
176,344,79003,1,0
212,320,79089,1,0
240,292,79175,1,0
260,252,79261,1,8
336,364,79432,1,0
468,340,79603,6,0,B|472:264|440:208,1,135
464,204,79946,2,0,B|488:152|448:112,1,90,8|0
440,76,80203,1,0
404,48,80289,1,0
364,72,80375,1,0
344,112,80461,1,0
368,148,80546,1,0
344,188,80632,1,8
256,288,80803,1,0
100,300,80975,6,0,B|28:216,1,90
56,144,81318,2,0,B|152:124,1,90,8|0
204,192,81661,2,0,B|180:288,1,90
172,324,81918,1,0
160,368,82004,1,8
296,356,82175,1,0
372,244,82346,6,0,B|420:244|436:192|436:192|420:140|364:140,1,180,0|8
140,140,82861,2,0,B|92:140|76:192|76:192|92:244|148:244,1,180,0|0
256,168,83375,1,8
256,168,83546,1,0
256,76,83718,6,0,B|196:76|196:76|136:48|136:48|82:48,1,180,0|8
80,228,84232,2,0,B|133:228|133:228|193:256|193:256|253:256,1,180
356,168,84746,1,8
356,168,84918,1,0
385,51,85089,6,0,B|441:23|485:55|501:111|460:144,1,180,0|8
385,333,85603,2,0,B|441:361|485:329|501:273|460:240,1,180
276,192,86118,1,8
276,192,86289,1,0
256,192,86461,12,0,87489
208,56,87832,6,0,B|124:56|108:136,1,135,4|0
68,112,88175,2,0,B|30:153|65:192,1,90,8|0
88,280,88518,1,0
116,312,88603,1,0
160,324,88689,1,0
204,312,88775,1,0
236,284,88861,1,8
292,176,89032,1,0
356,56,89203,6,0,B|440:52|457:126,1,135
456,172,89546,2,0,B|456:272,1,90,8|0
436,300,89803,1,0
392,312,89889,1,0
348,312,89975,1,0
304,300,90061,1,0
272,268,90146,1,0
256,228,90232,1,8
364,148,90403,1,0
256,64,90575,6,0,B|236:124,1,45
200,96,90746,2,0,B|184:140,1,45
140,124,90918,2,0,B|120:172,1,45,8|0
80,152,91089,2,0,B|60:196,1,45
48,236,91261,1,0
52,280,91346,1,0
76,316,91432,1,0
120,324,91518,1,0
164,316,91603,1,8
220,192,91775,1,0
296,80,91946,6,0,B|348:36|425:65,1,135
424,108,92289,2,0,B|480:188,1,90,8|0
476,228,92546,1,0
476,272,92632,1,0
460,316,92718,1,0
424,344,92803,1,0
380,344,92889,1,0
344,320,92975,1,8
164,336,93318,6,0,B|112:308|48:332|48:332|48:296|25:277,1,180,0|8
25,114,93832,2,0,B|48:96|48:60|48:60|112:84|164:56,1,180
184,192,94346,1,8
276,192,94518,1,0
348,32,94689,6,0,B|348:100|348:100|388:144|452:118,1,180,0|8
452,265,95203,2,0,B|388:240|348:284|348:284|348:352,1,180
256,188,95718,1,8
256,188,95889,1,0
104,284,96061,6,0,B|152:316|152:316|180:288|212:316|212:316|256:284,1,180,0|8
256,100,96575,2,0,B|300:68|300:68|332:96|360:68|360:68|408:100,1,180
408,280,97089,1,8
408,280,97261,1,0
256,192,97432,12,0,98461
312,336,98803,6,0,B|392:316|392:316|392:252,1,135,4|0
433,282,99146,2,0,B|464:244|456:196,1,90,8|0
452,152,99403,1,0
432,112,99489,1,0
392,88,99575,1,0
348,84,99661,1,0
308,100,99746,1,0
284,140,99832,1,8
152,156,100003,1,0
108,276,100175,5,0
200,273,100347,2,0,B|224:320|276:303,1,90,0|8
312,280,100604,1,0
352,304,100690,2,0,B|404:320|427:273,1,90
456,240,100946,1,0
436,200,101032,2,0,B|412:153|360:169,1,90,0|8
300,48,101375,1,0
168,80,101546,6,0,B|92:88|92:88|76:160,1,135
116,173,101889,2,0,B|140:212|120:260,1,90,8|0
108,304,102146,1,0
128,344,102232,1,0
172,356,102318,1,0
216,356,102403,1,0
260,344,102489,1,0
284,304,102575,1,8
368,268,102746,1,0
428,332,102918,6,0,B|464:272|428:200,1,135
472,212,103261,2,0,B|488:164|471:123,1,90,8|0
436,96,103518,2,0,B|376:68,1,45
352,64,103689,2,0,B|288:64,1,45
260,64,103861,1,0
216,64,103946,1,8
77,294,104289,6,0,B|136:236|200:268|193:345,1,180,0|8
318,345,104803,2,0,B|312:268|376:236|434:294,1,180
436,112,105318,1,8
436,112,105489,1,0
168,84,105661,6,0,B|216:168|216:168|216:252,1,180,0|8
344,84,106175,2,0,B|296:168|296:168|296:252,1,180
256,332,106689,1,8
256,332,106861,1,0
256,152,107032,6,0,B|292:188|292:188|284:216|312:208|312:208|308:236|336:224|336:224|376:264,1,180,0|8
256,152,107546,2,0,B|220:188|220:188|228:216|200:208|200:208|204:236|176:224|176:224|136:264,1,180
256,332,108061,1,8
256,332,108232,1,0
256,192,108403,12,0,109432
304,88,109775,6,0,B|355:91|358:146,1,90,4|0
208,296,110118,2,0,B|156:292|153:237,1,90,8|0
168,104,110461,1,0
256,188,110632,1,0
344,280,110803,1,8
384,104,110975,1,0
384,104,111146,6,0,B|400:60|400:60|352:24,1,90
128,104,111489,2,0,B|112:60|112:60|160:24,1,90,8|0
256,176,111832,2,0,B|256:76,2,90,0|0|8
256,176,112346,1,0
108,280,112518,5,0
180,336,112689,1,0
256,284,112861,1,8
328,340,113032,1,0
404,280,113203,1,0
256,284,113375,2,0,B|256:192,2,90,0|8|0
130,67,113889,6,0,B|184:60|203:106,1,90
381,67,114232,2,0,B|328:60|308:106,1,90,8|0
256,180,114575,1,0
256,224,114661,1,0
224,256,114746,1,0
180,260,114832,1,0
144,232,114918,1,8
12,208,115089,1,0
44,84,115261,5,0
160,156,115432,1,0
256,64,115603,1,8
352,156,115775,1,0
468,84,115946,1,0
256,64,116118,2,0,B|256:88|256:88|264:108|264:108|256:132|256:132|256:152,2,90,0|8|0
468,300,116632,5,0
352,228,116803,1,0
256,320,116974,1,8
160,228,117146,1,0
44,300,117317,1,0
256,320,117489,2,0,B|256:296|256:296|248:276|248:276|256:252|256:252|256:232,2,90,0|8|0
256,52,118003,5,0
340,80,118175,1,0
372,164,118346,2,0,B|373:217|329:238,1,90,8|0
336,328,118689,1,0
292,324,118775,1,0
260,296,118861,1,0
240,256,118946,1,0
244,212,119032,1,8
256,192,119375,12,4,120746
132,104,121089,5,8
108,192,121261,1,0
196,192,121432,1,0
228,108,121603,2,0,B|332:108,2,90,0|8|0
401,55,122118,6,0,B|452:68|445:123,1,90
384,192,122461,1,8
296,192,122632,1,0
384,192,122803,1,0
445,260,122975,2,0,B|452:316|401:328,2,90,0|8|0
110,328,123489,6,0,B|60:316|66:260,1,90
128,192,123832,1,8
216,192,124003,1,0
128,192,124174,1,0
66,123,124346,2,0,B|60:68|110:55,2,90,0|8|0
292,48,124861,5,0
380,48,125032,1,0
336,124,125203,2,0,B|336:224,1,90,8|0
412,264,125546,1,0
380,296,125632,1,0
336,304,125718,1,0
292,296,125803,1,0
260,264,125889,1,8
232,180,126061,1,0
200,92,126232,5,0
112,108,126403,1,0
80,192,126575,1,8
112,276,126746,1,0
200,292,126918,1,0
80,192,127089,2,0,B|170:192,2,90,0|8|0
312,92,127603,5,0
400,108,127774,1,0
432,192,127946,1,8
400,276,128117,1,0
312,292,128289,1,0
432,192,128461,2,0,B|342:192,2,90,0|8|0
187,104,128975,6,0,B|188:168|131:150,1,90
187,279,129318,2,0,B|188:216|131:233,1,90,8|0
52,192,129661,1,0
52,192,129746,1,0
52,192,129832,1,0
52,192,129918,1,0
52,192,130003,1,8
256,192,130346,12,0,131375
256,64,131718,6,0,B|256:164,1,90,4|0
256,320,132061,2,0,B|256:220,1,90,8|0
336,192,132403,2,0,B|444:192,1,90
336,192,132746,1,8
336,192,132918,1,0
167,117,133089,6,0,B|112:120|117:179,1,90
344,266,133432,2,0,B|400:264|394:204,1,90,8|0
392,116,133775,1,0
320,64,133946,1,0
232,52,134118,1,8
152,96,134289,1,0
124,184,134461,5,0
168,312,134632,1,0
204,184,134803,1,8
244,312,134975,1,0
280,184,135146,1,0
320,312,135318,1,0
320,312,135489,1,8
372,240,135661,1,0
416,160,135832,5,0
372,32,136003,1,0
332,160,136175,1,8
296,32,136346,1,0
184,108,136518,1,0
148,84,136603,1,0
104,88,136689,1,0
76,124,136775,1,0
80,168,136861,1,8
68,304,137032,1,0
216,308,137203,6,0,B|268:232,1,90
296,76,137546,2,0,B|244:152,1,90,8|0
332,172,137889,1,0
420,192,138061,1,0
420,280,138232,1,8
420,192,138403,1,0
420,100,138575,6,0,B|416:44|363:41,1,90
144,41,138918,2,0,B|92:44|88:100,1,90,8|0
168,144,139261,1,0
256,120,139432,1,0
344,144,139603,1,8
256,344,139775,1,0
344,324,139946,6,0,B|336:276|336:276|292:260,1,90
168,324,140289,2,0,B|176:276|176:276|220:260,1,90,8|0
256,180,140632,1,0
268,136,140718,1,0
304,112,140803,1,0
348,112,140889,1,0
388,136,140975,1,8
256,192,141318,12,4,142689
260,76,143032,6,0,B|280:120|256:164,1,90,8|0
212,240,143375,1,0
300,240,143546,1,0
256,320,143718,1,8
300,240,143889,1,0
384,192,144061,6,0,B|444:120,1,90
324,60,144403,1,8
256,176,144575,1,0
188,60,144746,1,0
70,122,144918,2,0,B|128:192,2,90,0|8|0
128,192,145432,6,0,B|68:264,1,90
188,324,145774,1,8
256,208,145946,1,0
324,324,146117,1,0
441,261,146289,2,0,B|384:192,2,90,0|8|0
256,64,146803,6,0,B|204:48|172:85,1,90
148,172,147146,2,0,B|200:188|231:150,1,90,8|0
316,128,147489,1,0
356,108,147575,1,0
404,116,147661,1,0
432,152,147746,1,0
436,196,147832,1,8
396,280,148003,1,0
396,280,148175,5,0
288,360,148346,1,0
216,248,148518,1,8
104,328,148689,1,0
44,208,148861,2,0,B|20:160|48:120,2,90,0|0|8
216,248,149375,1,0
168,76,149546,6,0,B|256:76,1,90
348,76,149889,2,0,B|260:76,1,90,8|0
256,168,150232,1,0
188,284,150403,1,0
324,284,150575,1,8
256,168,150746,1,0
444,148,150918,6,0,B|376:216,1,90
68,148,151261,2,0,B|136:216,1,90,8|0
256,168,151603,1,0
256,168,151689,1,0
256,168,151775,1,0
256,168,151861,1,0
256,168,151946,1,8
256,192,152289,12,4,153661
