osu file format v9

[General]
AudioFilename: Noisestorm - Solar.mp3
AudioLeadIn: 1996
PreviewTime: 120760
Countdown: 0
SampleSet: Soft
StackLeniency: 0.7
Mode: 0
LetterboxInBreaks: 0

[Editor]
Bookmarks: 22017,131732,142703,186589
DistanceSpacing: 0.9
BeatDivisor: 1
GridSize: 4

[Metadata]
Title:Solar
Artist:Noisestorm
Creator:Shiirn
Version:Normal
Source:
Tags:Eoin O' Broin Hikato

[Difficulty]
HPDrainRate:3
CircleSize:3
OverallDifficulty:3
ApproachRate:5
SliderMultiplier:1.39
SliderTickRate:1

[Events]
//Background and Video events
0,0,"light-blue-planet-wallpaper.jpg"
//Break Periods
2,22045,26303
2,99018,108589
2,142903,152475
//Storyboard Layer 0 (Background)
Sprite,Background,Centre,"light-blue-planet-wallpaper.jpg",320,240 F,0,0,,0
Sprite,Background,Centre,"SB\1a.png",320,240 F,1,0,13789,0,1
Sprite,Background,Centre,"SB\1b.png",320,240 F,0,75,13789,0,1 F,0,13789,20646,1
Sprite,Background,Centre,"SB\1c.png",320,240 F,0,6932,20646,0,1 F,0,20646,27504,1
Sprite,Background,Centre,"SB\1d.png",320,240 F,0,13789,27504,0,1 F,0,27504,34361,1
Sprite,Background,Centre,"SB\1e.png",320,240 F,0,20646,34361,0,1 F,0,34361,41218,1
Sprite,Background,Centre,"SB\1f.png",320,240 F,0,27504,41218,0,1 F,0,41218,48075,1
Sprite,Background,Centre,"SB\1g.png",320,240 F,0,34361,48075,0,1 F,0,48075,54932,1
Sprite,Background,Centre,"SB\2a.png",320,240 F,0,54932,73740,1
Sprite,Background,Centre,"SB\2b.png",320,240 F,0,54932,73740,0,1 F,0,73740,83144,1
Sprite,Background,Centre,"SB\2c.png",320,240 F,0,64336,83144,0,1 F,0,83144,92548,1
Sprite,Background,Centre,"SB\2d.png",320,240 F,0,73740,92548,0,1 F,0,92548,101952,1
Sprite,Background,Centre,"SB\2e.png",320,240 F,0,83144,101952,0,1 F,0,101952,111356,1
Sprite,Background,Centre,"SB\2f.png",320,240 F,0,92548,111356,0,1 F,0,111356,120760,1
Sprite,Background,Centre,"SB\3a.png",320,240 F,0,120760,125636,1
Sprite,Background,Centre,"SB\3b.png",320,240 F,0,120760,125636,0,1 F,0,125636,128074,1
Sprite,Background,Centre,"SB\3c.png",320,240 F,0,123198,128074,0,1 F,0,128074,130512,1
Sprite,Background,Centre,"SB\3d.png",320,240 F,0,125636,130512,0,1 F,0,130512,132951,1
Sprite,Background,Centre,"SB\3e.png",320,240 F,0,128074,132951,0,1 F,0,132951,135389,1
Sprite,Background,Centre,"SB\3f.png",320,240 F,0,130512,135389,0,1 F,0,135389,137827,1
Sprite,Background,Centre,"SB\3g.png",320,240 F,0,132951,137827,0,1 F,0,137827,140265,1
Sprite,Background,Centre,"SB\4a.png",320,240 F,0,142703,151480,1
Sprite,Background,Centre,"SB\3h.png",320,240 F,0,135389,140265,0,1 F,0,140265,142703,1 F,0,142703,142875,1,0
Sprite,Background,Centre,"SB\4b.png",320,240 F,0,142703,151480,0,1 F,0,151480,155869,1
Sprite,Background,Centre,"SB\4c.png",320,240 F,0,147092,155869,0,1 F,0,155869,160257,1
Sprite,Background,Centre,"SB\4d.png",320,240 F,0,151480,160257,0,1 F,0,160257,164646,1
Sprite,Background,Centre,"SB\5a.png",320,240 F,0,164646,175789,1
Sprite,Background,Centre,"SB\5b.png",320,240 F,0,164646,175789,0,1 F,0,175789,181360,1
Sprite,Background,Centre,"SB\5c.png",320,240 F,0,170217,181360,0,1 F,0,181360,186932,1
Sprite,Background,Centre,"SB\5d.png",320,240 F,0,175789,186932,0,1 F,0,186932,1,0
Sprite,Background,Centre,"SB\5e.png",320,240 F,0,181360,190503,0,1 F,0,190503,191074,1,0
//Storyboard Layer 1 (Fail)
//Storyboard Layer 2 (Pass)
//Storyboard Layer 3 (Foreground)
Sprite,Foreground,Centre,"SB\f.png",320,249 L,54760,1 F,2,0,172,0,0.5 F,1,172,343,0.5,0 L,120589,1 F,2,0,172,0,0.5 F,1,172,343,0.5,0.2 L,120932,15 F,2,0,172,0.2,0.25 F,1,172,685,0.25,0.2 L,131560,1 F,2,0,172,0.3,0.85 F,1,172,343,0.85,0.3 L,131903,8 F,2,0,172,0.25,0.35 F,1,172,685,0.35,0.25 L,137389,7 F,2,0,172,0.35,0.5 F,1,172,685,0.5,0.35 L,142189,1 F,2,0,172,0.35,0.5 F,1,172,343,0.5,0.35 L,142532,1 F,2,0,172,0.5,0.8 F,1,172,343,0.8,0 L,164475,1 F,2,0,172,0,0.5 F,1,172,343,0.5,0 S,0,54760,,1.365 R,0,120589,142875,0,6.28
//Storyboard Sound Samples
//Background Colour Transformations
3,100,163,162,255

[TimingPoints]
75,342.857142857143,4,2,0,75,1,0
5560,-133.333333333333,4,2,0,75,0,0
7275,-100,4,2,0,75,0,0
27503,-100,4,1,0,45,0,0
38817,-100,4,1,1,45,0,0
38917,-100,4,1,0,45,0,0
41560,-100,4,1,1,45,0,0
41660,-100,4,1,0,45,0,0
44303,-100,4,1,1,45,0,0
44403,-100,4,1,0,45,0,0
45675,-100,4,1,1,45,0,0
45775,-100,4,1,0,45,0,0
65903,-100,4,2,0,100,0,0
66003,-100,4,1,0,45,0,0
66417,-100,4,2,0,100,0,0
66517,-100,4,1,0,45,0,0
66932,-100,4,2,0,100,0,0
67032,-100,4,1,0,45,0,0
67789,-100,4,2,0,100,0,0
68817,-100,4,1,0,45,0,0
69160,-100,4,2,0,100,0,0
69260,-100,4,1,0,45,0,0
69675,-100,4,2,0,100,0,0
69775,-100,4,1,0,45,0,0
70360,-100,4,2,0,100,0,0
70460,-100,4,1,0,45,0,0
70703,-100,4,2,0,100,0,0
70803,-100,4,1,0,45,0,0
71389,-100,4,2,0,100,0,0
71489,-100,4,1,0,45,0,0
71903,-100,4,2,0,100,0,0
72003,-100,4,1,0,45,0,0
72417,-100,4,2,0,100,0,0
72517,-100,4,1,0,45,0,0
73275,-100,4,2,0,100,0,0
73960,-100,4,1,0,45,0,0
74132,-100,4,2,0,100,0,0
74232,-100,4,1,0,45,0,0
74646,-100,4,2,0,100,0,0
74746,-100,4,1,0,45,0,0
75160,-100,4,2,0,100,0,0
75260,-100,4,1,0,45,0,0
76875,-100,4,1,0,55,0,0
77217,-100,4,1,1,55,0,0
96417,-100,4,1,0,55,0,0
97103,-100,4,2,0,25,0,0
97275,-100,4,2,0,30,0,0
97446,-100,4,2,0,35,0,0
97617,-100,4,2,0,30,0,0
97789,-100,4,2,0,45,0,0
97960,-100,4,2,0,50,0,0
98132,-100,4,2,0,55,0,0
98303,-100,4,2,0,60,0,0
98475,-100,4,2,0,65,0,0
98646,-100,4,2,0,70,0,0
98817,-200,4,2,0,75,0,0
109789,-200,4,2,0,50,0,0
111160,-200,4,2,0,55,0,0
112532,-200,4,2,0,60,0,0
113903,-200,4,2,0,65,0,0
115275,-200,4,2,0,70,0,0
116646,-200,4,2,0,75,0,0
118017,-133.333333333333,4,2,0,85,0,0
120075,-133.333333333333,4,1,0,40,0,0
120760,-100,4,1,1,55,0,1
131689,-100,4,1,0,55,0,0
131732,-100,4,1,1,55,0,1
142703,-100,4,2,0,75,0,0
153675,-100,4,2,0,100,0,0
153775,-100,4,1,0,55,0,0
154189,-100,4,2,0,100,0,0
154289,-100,4,1,0,55,0,0
154703,-100,4,2,0,100,0,0
156589,-100,4,1,0,55,0,0
156932,-100,4,2,0,100,0,0
157032,-100,4,1,0,55,0,0
157446,-100,4,2,0,100,0,0
157546,-100,4,1,0,55,0,0
158132,-100,4,2,0,100,0,0
158575,-100,4,1,0,55,0,0
159160,-100,4,2,0,100,0,0
159260,-100,4,1,0,55,0,0
159675,-100,4,2,0,100,0,0
159775,-100,4,1,0,55,0,0
160189,-100,4,2,0,100,0,0
160289,-100,4,1,0,55,0,0
161046,-100,4,2,0,100,0,0
162075,-100,4,1,0,55,0,0
162417,-100,4,2,0,100,0,0
162517,-100,4,1,0,55,0,0
162932,-100,4,2,0,100,0,0
163032,-100,4,1,0,55,0,0
164646,-100,4,1,1,55,0,0
186589,-100,4,1,0,100,0,1
186675,-100,4,2,0,100,0,0

[Colours]
Combo1 : 235,100,10
Combo2 : 252,66,3
Combo3 : 241,230,3

[HitObjects]
88,68,75,2,0,B|64:208,1,139,0|2
184,168,760,2,0,B|224:300,2,139,0|2|0
424,68,2817,6,0,B|448:208,1,139,0|2
328,168,3502,2,0,B|288:300,2,139,0|2|0
168,132,5560,6,0,B|256:76|256:76|344:132,2,208.499993786216,4|0|0
56,260,8303,6,0,B|168:340|324:320,1,278
232,232,9332,2,0,B|160:208|140:136,1,139
256,68,11046,6,0,B|396:68,1,139,4|8
352,184,11732,2,0,B|380:208|380:248,1,69.5,0|8
256,260,12246,2,0,B|256:180,1,69.5
136,228,12760,1,8
160,104,13103,2,0,B|132:80|132:40,1,69.5,0|8
256,28,13617,2,0,B|256:108,1,69.5
380,108,14132,5,8
376,232,14475,2,0,B|376:308,1,69.5,0|8
256,272,14989,2,0,B|256:364,1,69.5,0|8
136,232,15503,2,0,B|136:308,1,69.5,0|8
256,272,16017,2,0,B|256:196,2,69.5,0|8|8
256,316,16532,6,0,B|396:316,1,139,0|8
352,200,17218,2,0,B|380:176|380:136,1,69.5,0|8
256,124,17732,2,0,B|256:204,1,69.5
136,156,18246,1,8
160,280,18589,2,0,B|132:304|132:344,1,69.5,0|8
256,356,19103,2,0,B|256:276,1,69.5
380,276,19618,5,8
376,152,19961,2,0,B|376:76,1,69.5,0|8
256,112,20475,2,0,B|256:20,1,69.5,0|8
136,152,20989,2,0,B|136:76,1,69.5,0|8
44,168,21503,2,0,B|44:244,2,69.5,0|8|8
72,84,27503,6,0,B|352:84,1,278
112,168,28875,2,0,B|392:168,1,278
156,252,30246,2,0,B|300:252,1,139
204,336,30932,2,0,B|344:336,1,139
444,264,31617,2,0,B|444:192,8,69.5
324,304,33332,6,0,B|252:296|204:240,2,139,8|0|8
372,188,34360,2,0,B|348:124|272:84,1,139,0|8
156,112,35046,2,0,B|108:160|92:236,1,139,0|8
188,316,35732,2,0,B|327:316,3,139,0|8|0|8
256,212,37103,6,0,B|256:64,1,139,0|8
168,160,37789,2,0,B|24:160,1,139,0|8
80,276,38475,2,0,B|208:328|356:308,1,278
400,192,39503,1,8
392,68,39846,2,0,B|304:176,1,139,0|8
256,60,40532,2,0,B|216:192,1,139,0|8
124,100,41217,6,0,B|-72:192|124:284,1,278
208,192,42246,1,8
308,120,42589,2,0,B|308:260,1,139,0|8
432,260,43275,2,0,B|432:120,1,139,0|8
320,64,43960,6,0,B|180:72|56:144,1,278
172,192,44989,1,8
56,240,45332,2,0,B|180:312|320:320,1,278
320,192,46360,1,8
320,192,46703,2,0,B|180:192,1,139,0|8
280,116,47389,2,0,B|432:116,1,139,0|8
440,240,48075,6,0,B|424:308|360:348,3,139,0|8|0|8
348,224,49446,2,0,B|348:156|348:156|308:96,1,139,0|8
256,212,50132,1,0
203,96,50475,2,0,B|164:156|164:156|164:224,2,139,8|0|8
328,96,51503,2,0,B|327:239,1,139,0|8
256,336,52189,6,0,B|188:336|128:284,1,139,0|8
244,236,52875,2,8,B|192:192|176:112,1,139,0|8
288,60,53560,5,0
396,124,53903,1,0
292,196,54246,1,0
404,252,54589,1,0
404,252,54932,5,4
256,192,57332,12,0,58703
136,176,59046,6,0,B|180:124|256:88,1,139
340,176,59732,2,0,B|296:228|220:264,1,139
108,292,60417,1,0
256,92,61103,1,0
404,292,61789,1,0
332,192,62132,1,0
256,92,62475,6,0,B|256:232,1,139
140,284,63160,2,0,B|196:372|316:372|372:284,1,278
256,240,64189,1,0
300,124,64532,2,0,B|336:184|420:184,1,139
424,60,65217,2,0,B|360:32|284:44,1,139
172,80,65903,6,0,B|112:176|104:280,2,208.5,2|2|2
256,264,67789,2,0,B|256:348,3,69.5,2|2|2|2
407,275,68646,2,0,B|400:176|340:80,2,208.5,2|2|2
172,192,70360,2,0,B|312:192,1,139,2|6
172,304,71389,6,0,B|112:208|104:104,2,208.5,2|2|2
256,120,73275,2,0,B|256:36,3,69.5,2|2|2|2
407,109,74132,2,0,B|400:208|340:304,2,208.5,2|2|2
288,68,75503,1,0
308,192,75846,1,0
192,144,76189,1,0
204,268,76532,1,0
204,268,76875,6,0,B|320:344|472:300,1,278,4|0
376,220,77903,1,8
496,180,78246,2,0,B|388:92|236:88,1,278
164,188,79275,1,8
40,196,79617,6,0,B|36:264|76:328,1,139,0|8
196,287,80303,2,0,B|256:252|255:169,1,139,0|8
380,152,80989,2,0,B|336:208|336:284,1,139,0|8
448,332,81675,2,0,B|488:276|488:200,1,139,0|8
484,76,82360,6,0,B|344:60|204:76,1,278,0|0
256,192,83389,1,8
305,308,83732,2,0,B|168:324|28:308,1,278
72,192,84760,1,8
84,68,85103,6,0,B|224:68,1,139,0|8
348,68,85789,2,0,B|248:168,1,139,0|8
160,256,86475,2,0,B|300:256,1,139,0|8
424,256,87161,2,0,B|324:356,1,139,0|8
200,344,87846,6,0,B|80:272|56:116,1,278
176,152,88875,1,8
176,152,89217,2,0,B|288:72|436:60,1,278
436,184,90246,1,8
312,184,90589,6,0,B|320:252|412:272,1,139,0|8
304,340,91275,2,0,B|240:304|232:224,1,139,0|8
120,176,91960,2,0,B|112:244|132:324,1,139,0|8
252,288,92646,2,0,B|308:240|320:168,1,139,0|8
256,60,93332,5,0
256,60,93675,1,8
140,104,94017,1,0
140,104,94360,1,8
140,104,94703,2,0,B|52:212|64:368,1,278
184,324,95732,1,8
292,260,96075,2,0,B|288:120|152:32,1,278
280,40,97103,5,2
389,105,97446,1,2
257,138,97789,1,2
367,204,98132,1,2
235,237,98475,1,2
345,303,98818,1,6
56,120,109789,5,0
56,120,110475,2,0,B|56:188,2,69.5
156,192,111846,2,0,B|156:260,2,69.5
256,264,113217,2,0,B|256:332,2,69.5
356,192,114589,2,0,B|356:260,2,69.5
256,120,115960,2,0,B|256:52,2,69.5
156,192,117332,2,0,B|156:260,1,69.5
232,316,118017,6,0,B|332:284,1,104.249996893108
260,220,118703,2,0,B|360:188,1,104.249996893108
288,124,119389,2,0,B|388:92,1,104.249996893108
428,176,120075,2,0,B|436:240,3,52.124998446554,0|8|8|8
444,288,120760,6,0,B|316:344|172:340,1,278,4|0
92,244,121789,1,8
48,128,122132,1,0
168,160,122475,1,8
256,72,122817,1,0
344,160,123160,1,8
464,128,123503,6,0,B|464:268,1,139,0|8
344,300,124189,2,0,B|344:156,1,139,0|8
256,72,124875,2,0,B|176:56,1,69.5
140,100,125217,2,0,B|156:168|152:238,2,139,8|0|8
256,152,126246,6,0,B|252:312,1,139,0|8
368,340,126932,2,0,B|428:304|436:224,1,139,0|8
340,144,127617,1,0
340,144,127960,2,0,B|212:84,2,139,8|0|8
328,268,128989,2,0,B|200:324|56:328,1,278
92,208,130017,1,8
92,208,130360,5,0
340,192,131046,2,0,B|424:76,2,139,0|0|4
252,100,132075,1,8
256,224,132417,1,0
256,348,132760,1,8
380,324,133103,6,0,B|459:193|379:61,1,278
256,92,134132,1,8
132,61,134475,2,0,B|52:193|132:324,1,278
256,336,135503,1,8
256,336,135846,6,0,B|256:192,1,139,0|8
316,88,136532,1,0
192,88,136875,1,8
72,120,137217,2,0,B|64:260,1,139,0|8
188,236,137903,1,0
188,236,138246,1,8
256,344,138589,6,0,B|256:68,1,278
376,104,139617,1,8
464,192,139960,2,0,B|324:192,1,139,0|8
220,120,140646,2,0,B|220:259,1,139,0|8
116,192,141332,5,0
44,88,141675,1,0
164,116,142017,1,0
284,148,142360,1,0
364,244,142703,5,4
340,304,153675,6,0,B|400:208|408:104,2,208.5,2|2|2
256,120,155561,2,0,B|256:36,3,69.5,2|2|2|2
105,109,156418,2,0,B|112:208|172:304,2,208.5,2|2|2
340,192,158132,2,0,B|200:192,1,139,2|6
340,80,159161,6,0,B|400:176|408:280,2,208.5,2|2|2
256,264,161047,2,0,B|256:348,3,69.5,2|2|2|2
105,275,161904,2,0,B|112:176|172:80,2,208.5,2|2|2
224,316,163275,5,0
204,192,163618,1,0
320,240,163961,1,0
308,116,164304,1,0
308,116,164646,6,0,B|192:40|40:84,1,278,4|0
136,164,165675,1,8
16,204,166018,2,0,B|124:292|276:296,1,278
348,196,167047,1,8
472,188,167389,6,0,B|476:120|436:56,1,139,0|8
316,97,168075,2,0,B|256:132|257:215,1,139,0|8
132,232,168761,2,0,B|176:176|176:100,1,139,0|8
64,52,169447,2,0,B|24:108|24:184,1,139,0|8
28,308,170132,6,0,B|168:324|308:308,1,278,0|0
256,192,171161,1,8
207,76,171504,2,0,B|344:60|484:76,1,278
440,192,172532,1,8
428,316,172875,6,0,B|288:316,1,139,0|8
164,316,173561,2,0,B|264:216,1,139,0|8
352,128,174247,2,0,B|212:128,1,139,0|8
88,128,174933,2,0,B|188:28,1,139,0|8
312,40,175618,6,0,B|432:112|456:268,1,278
336,232,176647,1,8
336,232,176989,2,0,B|224:312|76:324,1,278
76,200,178018,1,8
200,200,178361,6,0,B|192:132|100:112,1,139,0|8
208,44,179047,2,0,B|272:80|280:160,1,139,0|8
396,208,179732,2,0,B|404:140|384:60,1,139,0|8
260,96,180418,2,0,B|204:144|192:216,1,139,0|8
256,324,181104,1,0
256,324,181447,1,8
372,280,181789,1,0
372,280,182132,1,8
372,280,182475,6,0,B|460:172|448:16,1,278
328,60,183504,1,8
220,124,183847,2,0,B|224:264|360:352,1,278
388,228,184875,1,8
396,104,185217,6,0,B|324:148,8,69.5,0|0|0|0|0|0|0|0|4
