osu file format v9

[General]
AudioFilename: Noisestorm - Solar.mp3
AudioLeadIn: 0
PreviewTime: 120760
Countdown: 0
SampleSet: Soft
StackLeniency: 0.7
Mode: 0
LetterboxInBreaks: 0

[Editor]
Bookmarks: 22017,131732,142703,186589
DistanceSpacing: 0.7
BeatDivisor: 2
GridSize: 4

[Metadata]
Title:Solar
Artist:Noisestorm
Creator:Shiirn
Version:Easy
Source:
Tags:Eoin O' Broin Hikato

[Difficulty]
HPDrainRate:2
CircleSize:3
OverallDifficulty:2
ApproachRate:2
SliderMultiplier:0.969999999999999
SliderTickRate:1

[Events]
//Background and Video events
0,0,"light-blue-planet-wallpaper.jpg"
//Break Periods
2,55132,64343
2,99017,108229
2,142903,152115
//Storyboard Layer 0 (Background)
Sprite,Background,Centre,"light-blue-planet-wallpaper.jpg",320,240 F,0,0,,0
Sprite,Background,Centre,"SB\1a.png",320,240 F,1,0,13789,0,1
Sprite,Background,Centre,"SB\1b.png",320,240 F,0,75,13789,0,1 F,0,13789,20646,1
Sprite,Background,Centre,"SB\1c.png",320,240 F,0,6932,20646,0,1 F,0,20646,27504,1
Sprite,Background,Centre,"SB\1d.png",320,240 F,0,13789,27504,0,1 F,0,27504,34361,1
Sprite,Background,Centre,"SB\1e.png",320,240 F,0,20646,34361,0,1 F,0,34361,41218,1
Sprite,Background,Centre,"SB\1f.png",320,240 F,0,27504,41218,0,1 F,0,41218,48075,1
Sprite,Background,Centre,"SB\1g.png",320,240 F,0,34361,48075,0,1 F,0,48075,54932,1
Sprite,Background,Centre,"SB\2a.png",320,240 F,0,54932,73740,1
Sprite,Background,Centre,"SB\2b.png",320,240 F,0,54932,73740,0,1 F,0,73740,83144,1
Sprite,Background,Centre,"SB\2c.png",320,240 F,0,64336,83144,0,1 F,0,83144,92548,1
Sprite,Background,Centre,"SB\2d.png",320,240 F,0,73740,92548,0,1 F,0,92548,101952,1
Sprite,Background,Centre,"SB\2e.png",320,240 F,0,83144,101952,0,1 F,0,101952,111356,1
Sprite,Background,Centre,"SB\2f.png",320,240 F,0,92548,111356,0,1 F,0,111356,120760,1
Sprite,Background,Centre,"SB\3a.png",320,240 F,0,120760,125636,1
Sprite,Background,Centre,"SB\3b.png",320,240 F,0,120760,125636,0,1 F,0,125636,128074,1
Sprite,Background,Centre,"SB\3c.png",320,240 F,0,123198,128074,0,1 F,0,128074,130512,1
Sprite,Background,Centre,"SB\3d.png",320,240 F,0,125636,130512,0,1 F,0,130512,132951,1
Sprite,Background,Centre,"SB\3e.png",320,240 F,0,128074,132951,0,1 F,0,132951,135389,1
Sprite,Background,Centre,"SB\3f.png",320,240 F,0,130512,135389,0,1 F,0,135389,137827,1
Sprite,Background,Centre,"SB\3g.png",320,240 F,0,132951,137827,0,1 F,0,137827,140265,1
Sprite,Background,Centre,"SB\4a.png",320,240 F,0,142703,151480,1
Sprite,Background,Centre,"SB\3h.png",320,240 F,0,135389,140265,0,1 F,0,140265,142703,1 F,0,142703,142875,1,0
Sprite,Background,Centre,"SB\4b.png",320,240 F,0,142703,151480,0,1 F,0,151480,155869,1
Sprite,Background,Centre,"SB\4c.png",320,240 F,0,147092,155869,0,1 F,0,155869,160257,1
Sprite,Background,Centre,"SB\4d.png",320,240 F,0,151480,160257,0,1 F,0,160257,164646,1
Sprite,Background,Centre,"SB\5a.png",320,240 F,0,164646,175789,1
Sprite,Background,Centre,"SB\5b.png",320,240 F,0,164646,175789,0,1 F,0,175789,181360,1
Sprite,Background,Centre,"SB\5c.png",320,240 F,0,170217,181360,0,1 F,0,181360,186932,1
Sprite,Background,Centre,"SB\5d.png",320,240 F,0,175789,186932,0,1 F,0,186932,192503,1
Sprite,Background,Centre,"SB\5e.png",320,240 F,0,181360,192503,0,1 F,0,192503,198074,1
Sprite,Background,Centre,"SB\5f.png",320,240 F,0,186932,198074,0,1 F,0,198074,203646,1
Sprite,Background,Centre,"SB\5g.png",320,240 F,0,192503,203646,0,1 F,1,203646,209217,1,0
//Storyboard Layer 1 (Fail)
//Storyboard Layer 2 (Pass)
//Storyboard Layer 3 (Foreground)
Sprite,Foreground,Centre,"SB\f.png",320,249 L,54760,1 F,2,0,172,0,0.5 F,1,172,343,0.5,0 L,120589,1 F,2,0,172,0,0.5 F,1,172,343,0.5,0.2 L,120932,15 F,2,0,172,0.2,0.25 F,1,172,685,0.25,0.2 L,131560,1 F,2,0,172,0.3,0.85 F,1,172,343,0.85,0.3 L,131903,8 F,2,0,172,0.25,0.35 F,1,172,685,0.35,0.25 L,137389,7 F,2,0,172,0.35,0.5 F,1,172,685,0.5,0.35 L,142189,1 F,2,0,172,0.35,0.5 F,1,172,343,0.5,0.35 L,142532,1 F,2,0,172,0.5,0.8 F,1,172,343,0.8,0 L,164475,1 F,2,0,172,0,0.5 F,1,172,343,0.5,0 S,0,54760,,1.365 R,0,120589,142875,0,6.28
//Storyboard Sound Samples
//Background Colour Transformations
3,100,163,162,255

[TimingPoints]
75,342.857142857143,4,2,0,75,1,0
5560,-133.333333333333,4,2,0,75,0,0
7103,-100,4,2,0,75,0,0
27503,-100,4,1,0,45,0,0
65903,-100,4,2,0,100,0,0
66003,-100,4,1,0,45,0,0
66417,-100,4,2,0,100,0,0
66517,-100,4,1,0,45,0,0
66932,-100,4,2,0,100,0,0
67032,-100,4,1,0,45,0,0
67789,-100,4,2,0,100,0,0
68817,-100,4,1,0,45,0,0
69160,-100,4,2,0,100,0,0
69260,-100,4,1,0,45,0,0
69675,-100,4,2,0,100,0,0
69775,-100,4,1,0,45,0,0
70360,-100,4,2,0,100,0,0
70460,-100,4,1,0,45,0,0
70703,-100,4,2,0,100,0,0
70803,-100,4,1,0,45,0,0
71389,-100,4,2,0,100,0,0
71489,-100,4,1,0,45,0,0
71903,-100,4,2,0,100,0,0
72003,-100,4,1,0,45,0,0
72417,-100,4,2,0,100,0,0
72517,-100,4,1,0,45,0,0
73275,-100,4,2,0,100,0,0
73960,-100,4,1,0,45,0,0
74132,-100,4,2,0,100,0,0
74232,-100,4,1,0,45,0,0
74646,-100,4,2,0,100,0,0
74746,-100,4,1,0,45,0,0
75160,-100,4,2,0,100,0,0
75260,-100,4,1,0,45,0,0
76875,-100,4,1,0,55,0,0
97446,-100,4,2,0,35,0,0
98132,-100,4,2,0,55,0,0
98817,-200,4,2,0,75,0,0
109789,-200,4,2,0,50,0,0
111160,-200,4,2,0,55,0,0
112532,-200,4,2,0,60,0,0
113903,-200,4,2,0,65,0,0
115275,-200,4,2,0,70,0,0
116646,-200,4,2,0,75,0,0
118017,-133.333333333333,4,2,0,85,0,0
120075,-133.333333333333,4,1,0,40,0,0
120760,-100,4,1,0,55,0,1
131689,-100,4,1,0,55,0,0
131732,-100,4,1,0,55,0,1
142703,-100,4,2,0,75,0,0
153675,-100,4,2,0,100,0,0
153775,-100,4,1,0,55,0,0
154189,-100,4,2,0,100,0,0
154289,-100,4,1,0,55,0,0
154703,-100,4,2,0,100,0,0
154803,-100,4,1,0,55,0,0
155560,-100,4,2,0,100,0,0
156589,-100,4,1,0,55,0,0
156932,-100,4,2,0,100,0,0
157032,-100,4,1,0,55,0,0
157446,-100,4,2,0,100,0,0
157546,-100,4,1,0,55,0,0
158132,-100,4,2,0,100,0,0
158575,-100,4,1,0,55,0,0
159160,-100,4,2,0,100,0,0
159260,-100,4,1,0,55,0,0
159675,-100,4,2,0,100,0,0
159775,-100,4,1,0,55,0,0
160189,-100,4,2,0,100,0,0
160289,-100,4,1,0,55,0,0
161046,-100,4,2,0,100,0,0
162075,-100,4,1,0,55,0,0
162417,-100,4,2,0,100,0,0
162517,-100,4,1,0,55,0,0
162932,-100,4,2,0,100,0,0
163032,-100,4,1,0,55,0,0
186589,-100,4,1,0,100,0,1
186675,-100,4,2,0,100,0,0

[Colours]
Combo1 : 235,100,10
Combo2 : 252,66,3
Combo3 : 241,230,3

[HitObjects]
52,128,27503,5,0
188,128,28189,1,0
324,128,28875,1,0
460,128,29561,1,0
456,264,30246,6,0,B|360:268,1,96.9999999999999
359,268,30932,2,0,B|260:256,1,96.9999999999999
262,256,31617,2,0,B|228:164,1,96.9999999999999
228,165,32303,2,0,B|172:244,1,96.9999999999999
120,288,32989,6,0,B|68:208|76:100,2,194
256,280,35046,1,8
392,288,35732,2,0,B|444:208|436:100,2,194,0|0|8
256,292,37789,2,0,B|256:196,1,96.9999999999999,8|0
256,195,38475,6,0,B|236:100|236:100|148:48,1,194,0|8
144,188,39846,2,0,B|164:283|164:283|252:335,1,194,0|8
336,232,41217,2,0,B|420:184,3,96.9999999999999,0|8|0|8
436,116,42589,2,0,B|244:112,1,194,0|8
160,220,43960,6,0,B|344:284,1,194,0|8
440,188,45332,2,0,B|360:132|256:132,2,194,0|8|0
312,232,47389,1,8
256,356,48075,2,0,B|200:276|200:172,2,194,8|0|8
360,272,50132,5,0
468,192,50817,2,0,B|392:132|292:116,1,194,0|8
156,124,52189,1,8
40,192,52875,2,0,B|236:192,2,194,0|8|0
132,292,54932,5,4
92,112,65903,6,0,B|56:272,2,145.5,2|2|2
256,256,67617,2,0,B|256:152,2,96.9999999999999,0|2|2
324,268,68646,2,0,B|360:108,2,145.5,2|2|2
256,148,70360,2,0,B|256:252,1,96.9999999999999,2|4
420,272,71389,6,0,B|456:112,2,145.5,2|2|2
256,128,73103,2,0,B|256:225,2,96.9999999999999,0|2|2
204,84,74132,2,0,B|168:244,2,145.5,2|2|2
268,52,75503,2,0,B|364:76,1,96.9999999999999
362,75,76189,2,0,B|396:184,1,96.9999999999999
391,168,76875,6,0,B|332:248|232:272,1,194,0|8
112,208,78246,2,0,B|171:128|271:104,1,194,0|8
256,240,79617,2,0,B|280:336,3,96.9999999999999,0|8|0|8
344,332,80989,2,0,B|388:244|392:124,1,194,0|8
256,124,82360,6,0,B|256:268,2,145.5,0|8|0
192,104,83732,2,0,B|116:120|68:176,2,145.5,0|8|0
256,80,85103,2,0,B|452:96,1,194,0|8
440,232,86475,2,0,B|256:296,1,194,0|8
168,192,87846,5,8
168,192,88532,2,0,B|360:192,2,194,0|0|8
32,196,90589,2,0,B|48:292,2,96.9999999999999,0|8|0
120,96,91960,2,0,B|316:92,1,194,8|0
312,228,93332,6,0,B|256:376|200:228,1,194,8|0
88,152,94703,2,0,B|144:4|200:152,1,194,0|8
336,144,96075,1,0
436,222,96760,1,8
358,323,97446,1,2
257,244,98132,1,2
336,144,98817,5,4
32,32,109789,6,0,B|132:32,1,96.9999999999999
148,124,111160,2,0,B|244:124,1,96.9999999999999,0|0
264,216,112532,2,0,B|360:216,1,96.9999999999999,0|0
340,308,113903,6,0,B|244:308,1,96.9999999999999,0|0
224,216,115275,2,0,B|128:216,1,96.9999999999999,0|0
104,124,116646,2,0,B|8:124,1,96.9999999999999,0|0
60,40,118017,6,0,B|160:40,1,72.749997831881
132,40,118703,2,0,B|176:104,1,72.749997831881
224,108,119389,2,0,B|320:128,3,72.749997831881
356,148,120760,6,0,B|268:320|36:340,1,388
48,264,122475,1,8
48,264,122817,2,0,B|76:172,1,96.9999999999999,0|8
64,96,123503,6,0,B|356:76,1,291,0|8
400,148,124875,2,0,B|428:280,1,96.9999999999999,0|8
344,240,125560,2,0,B|252:336,1,96.9999999999999,0|8
232,244,126246,6,0,B|133:309|34:276|34:145|133:112|232:178,1,388
304,212,127960,2,0,B|420:212,2,96.9999999999999,8|0|8
328,140,128989,2,0,B|48:56,1,291,0|8
44,132,130360,2,0,B|44:272,1,96.9999999999999,0|8
120,212,131046,2,0,B|128:316,1,96.9999999999999,0|8
204,312,131732,6,0,B|306:346|416:332|467:237|453:120,1,388
376,108,133446,2,0,B|288:152,1,96.9999999999999,8|0
232,96,134132,1,8
256,20,134475,2,0,B|256:312,1,291,0|8
180,304,135846,2,0,B|72:292,3,96.9999999999999,0|8|0|8
56,220,137217,6,0,B|228:132|432:136,1,388
460,208,138932,2,0,B|440:304|336:348,1,194,8|0
260,352,139960,2,0,B|128:228,2,145.5,8|0|8
312,292,141332,2,0,B|360:208,1,96.9999999999999,0|8
360,207,142017,2,0,B|332:92,1,96.9999999999999,0|8
337,113,142703,5,4
114,306,153675,6,0,B|43:159,2,145.5,2|2|2
241,129,155389,2,0,B|264:230,2,96.9999999999999,0|2|2
304,104,156418,2,0,B|375:252,2,145.5,2|2|2
265,234,158132,2,0,B|242:133,1,96.9999999999999,2|4
397,77,159161,6,0,B|468:224,2,145.5,2|2|2
270,254,160875,2,0,B|247:153,2,96.9999999999999,0|2|2
232,312,161904,2,0,B|161:164,2,145.5,2|2|2
299,325,163275,2,0,B|387:280,1,96.9999999999999
385,282,163961,2,0,B|394:168,1,96.9999999999999
392,185,164647,6,0,B|317:120|214:119,1,194,0|8
112,208,166018,2,0,B|188:272|290:273,1,194,0|8
245,145,167389,2,0,B|223:51,3,96.9999999999999,0|8|0|8
288,28,168761,2,0,B|350:104|381:220,1,194,0|8
244,232,170132,6,0,B|211:91,2,145.5,0|8|0
213,292,171504,2,0,B|135:293|76:249,2,145.5,0|8|0
281,301,172875,2,0,B|468:241,1,194,0|8
426,111,174247,2,0,B|232:90,1,194,0|8
168,212,175618,5,0
168,212,176304,2,0,B|355:169,2,194,0|0|8
36,238,178361,2,0,B|30:141,2,96.9999999999999,0|8|0
145,316,179732,2,8,B|336:275,1,194
302,144,181104,6,0,B|214:12|193:169,1,194,0|8
101,268,182475,2,0,B|189:400|210:243,1,194,0|8
344,220,183847,1,0
424,122,184532,1,8
325,41,185217,2,0,B|264:116,1,96.9999999999999,0|8
245,141,185903,2,0,B|344:220,1,96.9999999999999,0|8
344,220,186589,5,4
