osu file format v9

[General]
AudioFilename: Noisestorm - Solar.mp3
AudioLeadIn: 1996
PreviewTime: 120760
Countdown: 0
SampleSet: Normal
StackLeniency: 0.7
Mode: 0
LetterboxInBreaks: 0

[Editor]
Bookmarks: 22017,131732,142703,186589
DistanceSpacing: 1.4
BeatDivisor: 4
GridSize: 4

[Metadata]
Title:Solar
Artist:Noisestorm
Creator:Shiirn
Version:Another
Source:
Tags:Eoin O' Broin Hikato

[Difficulty]
HPDrainRate:7
CircleSize:4
OverallDifficulty:7
ApproachRate:9
SliderMultiplier:1.93
SliderTickRate:2

[Events]
//Background and Video events
0,0,"light-blue-planet-wallpaper.jpg"
//Break Periods
2,22046,26903
2,98846,107817
2,142903,144846
//Storyboard Layer 0 (Background)
Sprite,Background,Centre,"light-blue-planet-wallpaper.jpg",320,240 F,0,0,,0
Sprite,Background,Centre,"SB\1a.png",320,240 F,1,0,13789,0,1
Sprite,Background,Centre,"SB\1b.png",320,240 F,0,75,13789,0,1 F,0,13789,20646,1
Sprite,Background,Centre,"SB\1c.png",320,240 F,0,6932,20646,0,1 F,0,20646,27504,1
Sprite,Background,Centre,"SB\1d.png",320,240 F,0,13789,27504,0,1 F,0,27504,34361,1
Sprite,Background,Centre,"SB\1e.png",320,240 F,0,20646,34361,0,1 F,0,34361,41218,1
Sprite,Background,Centre,"SB\1f.png",320,240 F,0,27504,41218,0,1 F,0,41218,48075,1
Sprite,Background,Centre,"SB\1g.png",320,240 F,0,34361,48075,0,1 F,0,48075,54932,1
Sprite,Background,Centre,"SB\2a.png",320,240 F,0,54932,73740,1
Sprite,Background,Centre,"SB\2b.png",320,240 F,0,54932,73740,0,1 F,0,73740,83144,1
Sprite,Background,Centre,"SB\2c.png",320,240 F,0,64336,83144,0,1 F,0,83144,92548,1
Sprite,Background,Centre,"SB\2d.png",320,240 F,0,73740,92548,0,1 F,0,92548,101952,1
Sprite,Background,Centre,"SB\2e.png",320,240 F,0,83144,101952,0,1 F,0,101952,111356,1
Sprite,Background,Centre,"SB\2f.png",320,240 F,0,92548,111356,0,1 F,0,111356,120760,1
Sprite,Background,Centre,"SB\3a.png",320,240 F,0,120760,125636,1
Sprite,Background,Centre,"SB\3b.png",320,240 F,0,120760,125636,0,1 F,0,125636,128074,1
Sprite,Background,Centre,"SB\3c.png",320,240 F,0,123198,128074,0,1 F,0,128074,130512,1
Sprite,Background,Centre,"SB\3d.png",320,240 F,0,125636,130512,0,1 F,0,130512,132951,1
Sprite,Background,Centre,"SB\3e.png",320,240 F,0,128074,132951,0,1 F,0,132951,135389,1
Sprite,Background,Centre,"SB\3f.png",320,240 F,0,130512,135389,0,1 F,0,135389,137827,1
Sprite,Background,Centre,"SB\3g.png",320,240 F,0,132951,137827,0,1 F,0,137827,140265,1
Sprite,Background,Centre,"SB\4a.png",320,240 F,0,142703,151480,1
Sprite,Background,Centre,"SB\3h.png",320,240 F,0,135389,140265,0,1 F,0,140265,142703,1 F,0,142703,142875,1,0
Sprite,Background,Centre,"SB\4b.png",320,240 F,0,142703,151480,0,1 F,0,151480,155869,1
Sprite,Background,Centre,"SB\4c.png",320,240 F,0,147092,155869,0,1 F,0,155869,160257,1
Sprite,Background,Centre,"SB\4d.png",320,240 F,0,151480,160257,0,1 F,0,160257,164646,1
Sprite,Background,Centre,"SB\5a.png",320,240 F,0,164646,175789,1
Sprite,Background,Centre,"SB\5b.png",320,240 F,0,164646,175789,0,1 F,0,175789,181360,1
Sprite,Background,Centre,"SB\5c.png",320,240 F,0,170217,181360,0,1 F,0,181360,186932,1
Sprite,Background,Centre,"SB\5d.png",320,240 F,0,175789,186932,0,1 F,0,186932,1,0
Sprite,Background,Centre,"SB\5e.png",320,240 F,0,181360,190503,0,1 F,0,190503,191074,1,0
//Storyboard Layer 1 (Fail)
//Storyboard Layer 2 (Pass)
//Storyboard Layer 3 (Foreground)
Sprite,Foreground,Centre,"SB\f.png",320,249 L,54760,1 F,2,0,172,0,0.5 F,1,172,343,0.5,0 L,120589,1 F,2,0,172,0,0.5 F,1,172,343,0.5,0.2 L,120932,15 F,2,0,172,0.2,0.25 F,1,172,685,0.25,0.2 L,131560,1 F,2,0,172,0.3,0.85 F,1,172,343,0.85,0.3 L,131903,8 F,2,0,172,0.25,0.35 F,1,172,685,0.35,0.25 L,137389,7 F,2,0,172,0.35,0.5 F,1,172,685,0.5,0.35 L,142189,1 F,2,0,172,0.35,0.5 F,1,172,343,0.5,0.35 L,142532,1 F,2,0,172,0.5,0.8 F,1,172,343,0.8,0 L,164475,1 F,2,0,172,0,0.5 F,1,172,343,0.5,0 S,0,54760,,1.365 R,0,120589,142875,0,6.28
//Storyboard Sound Samples
//Background Colour Transformations
3,100,163,162,255

[TimingPoints]
75,342.857142857143,4,2,0,75,1,0
5560,-133.333333333333,4,2,0,75,0,0
6332,-100,4,2,0,75,0,0
27503,-100,4,1,0,45,0,0
65903,-100,4,2,0,100,0,0
66003,-100,4,1,0,45,0,0
66417,-100,4,2,0,100,0,0
66517,-100,4,1,0,45,0,0
66932,-100,4,2,0,100,0,0
67032,-100,4,1,0,45,0,0
67789,-100,4,2,0,100,0,0
68817,-100,4,1,0,45,0,0
69160,-100,4,2,0,100,0,0
69260,-100,4,1,0,45,0,0
69675,-100,4,2,0,100,0,0
69775,-100,4,1,0,45,0,0
70360,-100,4,2,0,100,0,0
70460,-100,4,1,0,45,0,0
70703,-100,4,2,0,100,0,0
70803,-100,4,1,0,45,0,0
71389,-100,4,2,0,100,0,0
71489,-100,4,1,0,45,0,0
71903,-100,4,2,0,100,0,0
72003,-100,4,1,0,45,0,0
72417,-100,4,2,0,100,0,0
72517,-100,4,1,0,45,0,0
73275,-100,4,2,0,100,0,0
73960,-100,4,1,0,45,0,0
74132,-100,4,2,0,100,0,0
74232,-100,4,1,0,45,0,0
74646,-100,4,2,0,100,0,0
74746,-100,4,1,0,45,0,0
75160,-100,4,2,0,100,0,0
75260,-100,4,1,0,45,0,0
75503,-100,4,1,0,30,0,0
75846,-100,4,1,0,45,0,0
76189,-100,4,1,0,30,0,0
76532,-100,4,1,0,45,0,0
76875,-100,4,1,0,55,0,0
97103,-100,4,2,0,25,0,0
97275,-100,4,2,0,30,0,0
97446,-100,4,2,0,35,0,0
97617,-100,4,2,0,30,0,0
97789,-100,4,2,0,45,0,0
97960,-100,4,2,0,50,0,0
98132,-100,4,2,0,55,0,0
98303,-100,4,2,0,60,0,0
98475,-100,4,2,0,65,0,0
98646,-100,4,2,0,70,0,0
109789,-200,4,2,0,50,0,0
111160,-200,4,2,0,55,0,0
112532,-200,4,2,0,60,0,0
113903,-200,4,2,0,65,0,0
115275,-200,4,2,0,70,0,0
116646,-200,4,2,0,75,0,0
118017,-133.333333333333,4,2,0,85,0,0
120075,-133.333333333333,4,1,0,40,0,0
120760,-100,4,1,0,55,0,1
131689,-100,4,1,0,55,0,0
131732,-100,4,1,0,55,0,1
142703,-100,4,2,0,75,0,0
148189,-100,4,1,0,55,0,0
153675,-100,4,2,0,100,0,0
153775,-100,4,1,0,55,0,0
154189,-100,4,2,0,100,0,0
154289,-100,4,1,0,55,0,0
154703,-100,4,2,0,100,0,0
154803,-100,4,1,0,55,0,0
155560,-100,4,2,0,100,0,0
156589,-100,4,1,0,55,0,0
156932,-100,4,2,0,100,0,0
157032,-100,4,1,0,55,0,0
157446,-100,4,2,0,100,0,0
157546,-100,4,1,0,55,0,0
158132,-100,4,2,0,100,0,0
158575,-100,4,1,0,55,0,0
159160,-100,4,2,0,100,0,0
159260,-100,4,1,0,55,0,0
159675,-100,4,2,0,100,0,0
159775,-100,4,1,0,55,0,0
160189,-100,4,2,0,100,0,0
160289,-100,4,1,0,55,0,0
161046,-100,4,2,0,100,0,0
162075,-100,4,1,0,55,0,0
162417,-100,4,2,0,100,0,0
162517,-100,4,1,0,55,0,0
162932,-100,4,2,0,100,0,0
163032,-100,4,1,0,55,0,0
186589,-100,4,2,0,100,0,1
186675,-100,4,2,0,100,0,0

[Colours]
Combo1 : 235,100,10
Combo2 : 252,66,3
Combo3 : 241,230,3

[HitObjects]
264,312,74,5,4
336,288,246,1,0
400,248,417,1,2
456,192,589,2,0,B|360:192,2,96.5
448,112,1103,2,0,B|424:72|368:56,1,96.5,2|0
256,32,1446,2,0,B|256:224,1,193,0|2
112,96,2132,2,0,B|96:192|112:288,1,193,0|2
400,96,2817,6,0,B|416:192|400:288,1,193,0|2
328,320,3332,1,0
256,352,3503,1,0
184,320,3675,1,0
112,288,3846,2,0,B|96:192|112:96,1,193,2|0
256,172,4532,1,2
384,112,4875,1,0
128,112,5217,1,2
384,112,5560,6,0,B|312:192|200:192|128:112,1,289.499991372228,4|0
256,48,6589,2,0,B|256:144,1,96.5,2|0
80,224,7275,2,0,B|104:328|216:344,1,193,2|0
296,232,7789,1,0
432,224,7960,2,0,B|408:328|296:344,1,193,2|0
256,192,8646,6,0,B|256:288,2,96.5,2|0|0
352,80,9332,2,0,B|256:56|160:80,1,193,2|0
160,304,10017,2,0,B|256:328|352:304,1,193,2|0
160,192,10703,1,2
312,152,11046,6,0,B|360:136|408:144,2,96.5,4|0|10
368,240,11560,1,0
368,240,11646,1,0
368,240,11732,2,0,B|400:280,2,48.25,0|0|10
256,256,12075,2,0,B|256:304,2,48.25
316,216,12417,1,0
256,176,12589,1,0
256,176,12675,1,0
256,176,12760,6,0,B|256:80,1,96.5,8|0
296,64,13017,1,0
336,56,13103,1,0
376,64,13189,1,0
408,80,13275,2,0,B|408:176,1,96.5,8|0
440,160,13532,1,0
440,160,13617,2,0,B|440:256,2,96.5
348,168,14132,6,0,B|336:244|260:280,1,144.75,8|0
256,192,14475,2,0,B|204:192|164:232,1,96.5,0|8
92,176,14817,2,0,B|84:128,1,48.25
92,176,14989,2,0,B|56:216|48:268,1,96.5,0|8
180,272,15332,2,0,B|136:251,1,48.25
180,272,15503,2,0,B|192:324|230:360,1,96.5,0|8
309,254,15846,2,0,B|266:277,1,48.25
309,254,16018,2,0,B|358:274|410:263,1,96.5,0|8
364,192,16360,1,8
364,192,16532,6,0,B|396:156|396:156|448:156,2,96.5,0|0|8
276,152,17046,1,0
276,152,17132,1,0
276,152,17217,1,0
276,152,17303,1,0
276,152,17389,2,0,B|248:96|248:96|208:96,1,96.5,8|0
168,104,17646,1,0
128,132,17732,2,0,B|96:164|96:164|96:228,2,96.5
196,200,18246,6,0,B|196:296,1,96.5,8|0
232,264,18503,1,0
232,264,18589,2,0,B|280:300,2,48.25,0|0|8
316,220,18932,2,0,B|372:208,2,48.25
220,196,19275,1,0
168,132,19446,1,0
140,196,19617,6,0,B|152:120|228:84,1,144.75,8|0
228,172,19960,2,0,B|280:172|320:132,1,96.5,0|8
396,188,20302,2,0,B|404:236,1,48.25
396,188,20474,2,0,B|432:148|440:96,1,96.5,0|8
308,92,20817,2,0,B|352:113,1,48.25
308,92,20988,2,0,B|296:40|258:4,1,96.5,0|8
179,110,21331,2,0,B|222:87,1,48.25
179,110,21503,2,0,B|130:90|78:101,1,96.5,0|8
124,184,21846,1,8
480,192,27503,5,0
32,192,28189,1,0
480,192,28875,1,0
32,192,29560,1,0
448,64,30246,5,0
448,128,30417,1,0
448,192,30589,1,0
448,256,30760,1,0
448,320,30932,1,0
384,320,31103,1,0
320,320,31275,1,0
256,320,31446,1,0
192,320,31617,5,0
192,288,31703,1,0
192,256,31789,1,0
192,224,31875,1,0
192,192,31960,1,0
192,160,32046,1,0
224,160,32132,1,0
256,160,32217,1,0
288,160,32303,6,0,B|352:160,1,48.25
256,160,32475,2,0,B|256:240,1,48.25,8|0
256,112,32646,2,0,B|192:112,1,48.25,8|0
288,112,32818,2,0,B|288:32,1,48.25,8|0
320,64,32989,6,0,B|416:64,1,96.5
384,160,33332,2,0,B|480:160,1,96.5,8|0
320,256,33675,2,0,B|416:256,1,96.5
384,352,34018,2,0,B|480:352,1,96.5,8|0
256,352,34360,5,0
256,352,34532,2,0,B|296:324|304:272,1,96.5,0|8
184,256,34875,2,0,B|144:284|136:336,1,96.5
256,204,35217,2,0,B|228:164|176:156,2,96.5,0|8|0
344,176,35732,6,0,B|424:120,1,96.5
168,208,36075,2,0,B|88:264,1,96.5,8|0
294,159,36417,1,0
223,202,36589,1,0
256,96,36760,1,8
256,288,36932,1,0
256,288,37103,6,0,B|296:304|296:304|356:304,1,96.5
424,192,37446,2,0,B|328:192,1,96.5,8|0
349,80,37789,2,0,B|296:80|296:80|255:96,1,96.5
88,192,38132,2,0,B|184:192,1,96.5,8|0
256,192,38475,6,0,B|340:148|372:44,1,193,0|8
268,88,38989,1,0
268,88,39160,2,0,B|344:148,1,96.5
268,296,39503,2,0,B|344:236,1,96.5,8|0
312,120,39846,6,0,B|212:120,1,96.5
200,264,40189,2,0,B|300:264,1,96.5,8|0
236,164,40531,1,0
276,220,40703,1,0
160,192,40874,1,8
352,192,41046,1,0
380,104,41217,5,0
470,70,41389,1,0
504,159,41560,1,8
414,194,41732,1,0
379,283,41903,1,0
469,317,42075,1,0
503,228,42246,1,8
414,194,42418,1,0
316,192,42589,6,0,B|220:192,1,96.5
219,192,42932,1,8
152,124,43103,1,0
152,124,43275,2,0,B|76:184,1,96.5
76,183,43617,1,8
76,280,43789,1,0
76,280,43960,6,0,B|144:340|256:340,1,193,0|8
256,244,44475,1,0
256,148,44646,2,0,B|256:36,2,96.5,0|0|8
340,192,45160,1,0
172,192,45332,6,0,B|68:192|68:192|0:256,1,193,0|8
112,308,45846,1,0
216,320,46017,2,0,B|256:288|256:288|256:224,1,96.5
296,64,46360,2,0,B|256:96|256:96|256:160,1,96.5,8|0
176,288,46703,5,0
336,288,46875,2,0,B|436:272,1,96.5,0|8
176,216,47217,2,0,B|84:188,1,96.5
336,216,47560,2,0,B|428:188,2,96.5,0|8|0
128,180,48075,6,0,B|162:225|211:217,1,96.5
352,220,48417,2,0,B|317:174|268:182,1,96.5,8|0
256,252,48760,2,0,B|256:352,1,96.5
256,132,49103,2,0,B|256:32,1,96.5,8|0
114,37,49446,5,0
196,88,49618,1,0
145,168,49789,1,8
62,117,49961,1,0
62,267,50132,1,0
114,347,50304,1,0
196,296,50476,1,8
145,216,50647,1,0
8,192,50817,5,0
8,192,50989,2,0,B|104:192,2,96.5,0|8|0
172,192,51503,2,0,B|200:152|200:152|256:136,1,96.5
376,160,51846,2,0,B|348:200|348:200|292:216,1,96.5,8|0
220,140,52189,6,0,B|132:100,1,96.5
292,244,52532,2,0,B|380:284,1,96.5,8|0
256,192,52875,1,0
256,192,53046,1,0
256,192,53217,1,8
256,192,53389,1,0
256,144,53560,6,0,B|256:96,3,48.25
208,192,53903,2,0,B|160:192,3,48.25
256,240,54246,2,0,B|256:288,3,48.25
304,192,54589,2,0,B|352:192,3,48.25
336,108,54932,6,0,B|428:136|488:224,1,193,0|8
347,328,55446,2,0,B|248:344|156:316,1,193,0|0
88,156,55960,2,0,B|64:248,1,96.5,8|8
272,100,56303,2,0,B|184:60|80:60,1,193,0|8
152,180,56817,2,0,B|212:260|320:284,1,193
352,148,57332,2,8,B|424:160|424:160|476:196,1,96.5
76,84,57675,5,0
232,72,57846,1,0
76,84,58017,2,8,B|92:180,1,96.5
146,243,58360,1,0
252,128,58531,1,0
146,243,58702,2,8,B|223:302,1,96.5
256,40,59046,2,0,B|320:144,2,96.5,0|0|8
256,340,59560,2,0,B|312:256,2,96.5
404,192,60075,2,0,B|292:192,1,96.5,8|0
124,116,60417,6,0,B|96:208,1,96.5
212,116,60760,2,0,B|236:208|236:208|212:312,1,193,8|0
340,204,61275,2,0,B|312:112,2,96.5,0|8|0
256,288,61789,2,0,B|216:316|164:308,1,96.5
40,192,62132,2,0,B|240:192,2,193,8|0|8
132,100,62989,1,0
132,284,63160,6,0,B|228:280,1,96.5
180,220,63503,2,0,B|276:216,1,96.5,8|0
228,156,63846,2,0,B|324:152,1,96.5,0|0
276,92,64189,2,0,B|372:88,1,96.5,8|0
324,28,64532,2,0,B|132:36,1,193,0|8
188,356,65046,2,0,B|380:348,1,193
256,144,65560,2,8,B|256:240,1,96.5
44,192,65903,6,0,B|124:136|124:136|168:48,1,193,2|0
256,252,66417,2,0,B|256:40,1,193,2|0
468,192,66932,2,0,B|388:136|388:136|344:48,2,193,2|0|0
332,232,67789,1,2
216,152,67960,2,0,B|128:192,1,96.5,2|2
72,108,68303,2,0,B|28:196|28:196|48:300,1,193,2|2
132,300,68817,6,0,B|104:200,2,96.5,0|0|2
216,272,69332,2,0,B|296:328|416:304,1,193,0|2
320,220,69846,1,0
320,220,70017,2,0,B|296:264|296:264|308:316,1,96.5
320,220,70360,2,0,B|364:244|364:244|416:232,1,96.5,2|0
320,220,70703,2,0,B|360:132|360:132|344:36,1,193,6|0
256,40,71217,1,0
168,36,71389,6,0,B|120:120|112:220,1,193,2|0
256,352,71903,2,0,B|288:292|224:228|256:164,1,193,2|0
344,36,72417,2,0,B|392:120|400:220,2,193,2|0|0
256,72,73275,1,2
164,148,73446,2,0,B|144:204|144:204|164:264,1,96.5,2|2
348,148,73789,2,0,B|368:204|368:204|348:264,1,96.5,2|0
256,352,74132,6,0,B|256:252,2,96.5,2|0|0
180,288,74646,2,0,B|192:192|272:120,1,193,2|0
160,148,75160,2,0,B|116:168|48:152,1,96.5,2|0
170,69,75503,5,8
194,69,75589,1,8
218,69,75675,1,8
242,69,75760,1,8
271,53,75846,5,0
258,73,75932,1,0
244,92,76018,1,0
231,112,76103,1,0
203,129,76189,5,8
227,129,76275,1,8
251,129,76361,1,8
275,129,76446,1,8
309,128,76532,5,0
296,148,76618,1,0
282,167,76704,1,0
269,187,76789,1,0
256,208,76875,6,0,B|256:304,1,96.5,4|0
416,288,77217,2,0,B|440:192,1,96.5,8|0
96,288,77560,2,0,B|72:192,2,96.5,0|0|8
184,128,78075,2,0,B|240:48,1,96.5
328,256,78417,6,0,B|272:336,1,96.5,0|8
48,184,78760,2,0,B|95:174|95:174|139:154,1,96.5
428,208,79103,2,0,B|380:217|380:217|336:237,2,96.5,0|8|0
256,128,79617,5,0
269,241,79789,1,0
383,227,79960,1,8
369,114,80132,1,0
204,87,80303,1,0
283,188,80475,1,0
182,267,80647,1,8
103,166,80818,1,0
256,128,80989,6,0,B|160:128,1,96.5
269,241,81332,2,0,B|384:240,1,96.5,8|0
368,112,81675,2,0,B|272:112,1,96.5
381,225,82018,2,0,B|496:224,1,96.5,8|0
384,328,82360,6,0,B|292:352|192:332,1,193,0|8
120,284,82875,1,0
64,220,83046,1,0
40,136,83217,1,0
132,140,83389,2,0,B|136:188|180:220,1,96.5,8|0
128,56,83732,6,0,B|220:32|320:52,1,193,0|8
392,100,84247,1,0
448,164,84418,1,0
472,248,84589,1,0
380,244,84760,2,0,B|376:196|332:164,1,96.5,8|0
204,148,85103,6,0,B|248:64,2,96.5,0|0|8
204,148,85617,1,0
180,280,85789,2,0,B|136:196,2,96.5,0|0|8
297,296,86304,2,0,B|386:331,1,96.5
341,228,86646,2,0,B|437:228,1,96.5,0|8
356,148,86989,2,0,B|445:112,1,96.5
340,68,87332,2,0,B|409:1,2,96.5,0|8|0
256,40,87846,6,0,B|256:232,1,193,0|8
256,320,88360,1,0
332,280,88532,1,0
332,280,88703,1,0
180,280,88875,1,8
180,280,89046,1,0
104,240,89217,6,0,B|64:208|64:208|64:160,1,96.5
216,76,89560,2,0,B|256:108|256:108|256:156,1,96.5,8|0
296,332,89903,2,0,B|256:300|256:300|256:252,1,96.5
408,168,90246,2,0,B|448:200|448:200|448:248,1,96.5,8|0
384,96,90589,6,0,B|340:120|340:120|300:152,1,96.5
352,320,90932,2,0,B|328:276|328:276|296:236,1,96.5,8|0
128,288,91275,2,0,B|172:264|172:264|212:232,1,96.5
160,64,91618,2,0,B|184:108|184:108|216:148,1,96.5,8|0
256,192,91960,6,0,B|336:128|440:168,1,193,0|8
356,248,92475,1,0
356,248,92646,2,0,B|368:152|296:68,1,193,0|8
200,128,93160,1,0
200,128,93332,2,0,B|140:172|140:172|116:172,1,96.5
168,272,93675,2,0,B|228:228|228:228|250:228,1,96.5,8|0
276,320,94017,2,0,B|292:336|292:336|348:336|348:336|372:352,1,96.5
432,268,94360,2,0,B|416:252|416:252|360:252|360:252|336:236,1,96.5,8|0
320,128,94703,5,0
320,128,94875,1,0
160,160,95046,1,8
160,160,95217,1,0
192,320,95389,1,0
192,320,95561,1,0
352,288,95732,1,8
352,288,95903,1,0
256,320,96075,6,0,B|288:260|224:196|256:132,2,193
192,192,97103,5,2
320,192,97275,1,2
195,211,97446,1,2
316,172,97617,1,2
204,229,97789,1,2
307,154,97960,1,2
218,243,98132,1,2
293,140,98303,1,2
236,252,98475,1,2
275,131,98646,1,2
256,192,108417,12,0,109445
32,64,109789,6,0,B|96:96|160:32|224:64,1,193
64,128,110817,1,0
64,128,111160,2,0,B|124:158|188:94|252:126,1,193
448,128,112189,1,0
448,128,112532,2,0,B|387:158|323:94|259:126,1,193
416,192,113560,1,0
416,192,113903,6,0,B|355:222|291:158|227:190,1,193
384,256,114932,1,0
384,256,115275,2,0,B|323:286|259:222|195:254,1,193
352,320,116303,1,0
256,352,116646,2,0,B|256:256,1,96.5
256,32,117332,2,0,B|256:128,1,96.5
341,243,118017,6,0,B|403:280,1,72.374997843057,0|0
204,277,118360,2,0,B|167:339,1,72.374997843057
170,140,118703,2,0,B|108:103,1,72.374997843057,0|0
307,106,119046,2,0,B|344:44,1,72.374997843057
256,192,119389,5,0
256,192,119475,1,0
256,192,119560,1,0
256,192,119646,1,0
256,192,119732,1,0
256,192,119817,1,0
256,192,119903,1,0
256,192,119989,1,0
305,165,120075,6,0,B|361:135,1,36.1874989215285
229,142,120246,2,0,B|199:86,1,36.1874989215285,8|0
206,218,120417,2,0,B|150:248,1,36.1874989215285,8|0
282,241,120588,2,0,B|312:297,1,36.1874989215285,8|0
368,248,120760,6,0,B|404:220|404:220|404:168,1,96.5,4|0
340,88,121103,2,0,B|304:116|304:116|304:168,1,96.5,8|0
204,200,121446,2,0,B|240:172|240:172|240:120,1,96.5
176,40,121789,2,0,B|140:68|140:68|140:120,1,96.5,8|0
56,156,122132,2,0,B|144:192,2,96.5,0|0|8
452,253,122647,1,0
452,253,122817,2,0,B|356:260,2,96.5,0|0|8
108,337,123332,1,0
108,337,123503,6,0,B|240:336,1,96.5
404,337,123846,2,0,B|272:336,1,96.5,8|0
168,256,124189,2,0,B|300:255,1,96.5
464,256,124532,2,0,B|332:255,1,96.5,8|0
256,192,124875,6,0,B|300:176|364:188,1,96.5
188,240,125217,2,0,B|172:196|184:132,1,96.5,8|0
236,308,125560,2,0,B|192:324|128:312,1,96.5,0|0
304,260,125903,2,0,B|320:304|308:368,1,96.5,8|0
56,132,126246,6,0,B|128:72|232:56,1,193,0|8
456,132,126760,1,0
456,132,126932,2,0,B|384:192|280:208,1,193,0|8
56,132,127446,1,0
56,132,127617,2,0,B|80:224,1,96.5
200,108,127960,2,0,B|296:108,1,96.5,8|0
456,132,128303,2,0,B|432:224,1,96.5
296,276,128646,2,0,B|200:276,1,96.5,8|0
348,80,128989,6,0,B|256:28|164:80,1,193,0|8
320,336,129503,2,0,B|410:282|411:176,1,193
192,336,130017,2,0,B|100:283|100:178,2,193,8|0|8
130,86,130874,2,0,B|98:182,1,96.5
382,86,131217,2,0,B|414:182,2,96.5,0|8|0
348,328,131732,6,0,B|396:320|396:320|456:280,1,96.5,4|0
164,328,132075,2,0,B|116:320|116:320|56:280,1,96.5,8|0
392,152,132417,2,0,B|400:204|400:204|376:240,1,96.5
120,152,132760,2,0,B|112:204|112:204|136:240,1,96.5,8|0
352,192,133103,2,0,B|288:160|224:224|160:192,1,193,0|8
32,192,133617,1,0
32,192,133789,2,0,B|128:256,1,96.5
256,128,134132,2,0,B|256:224,1,96.5,8|0
480,192,134475,5,0
32,192,134817,1,8
480,192,135160,2,0,B|384:192|416:96|320:96,1,193,0|8
376,244,135675,1,0
256,320,135846,2,0,B|256:224,1,96.5
92,136,136189,2,0,B|185:155,1,96.5,8|0
420,136,136532,2,0,B|326:155,1,96.5
256,320,136875,2,0,B|240:280|272:280|256:224,1,96.5,8|0
116,284,137217,6,0,B|48:216|60:104,2,193,0|8|0
168,156,138075,1,0
168,156,138246,2,0,B|252:208,1,96.5,8|0
348,336,138589,2,0,B|344:228,1,96.5,0|0
464,196,138932,2,0,B|400:120|308:84,1,193,8|0
256,312,139446,2,0,B|252:270|270:270|252:212,1,96.5,0|8
152,68,139789,6,0,B|84:136,1,96.5
196,132,140132,2,0,B|188:228,1,96.5,0|8
288,192,140475,2,0,B|352:272,1,96.5
384,160,140817,2,0,B|492:180,1,96.5,0|8
424,92,141160,1,0
325,84,141332,6,0,B|299:125,3,48.25
148,122,141675,2,0,B|189:148,3,48.25
186,299,142017,2,0,B|212:258,3,48.25
363,261,142360,2,0,B|322:235,3,48.25
256,192,142703,5,4
256,192,145446,12,0,146475
204,72,146817,6,0,B|104:104|20:48,1,193
308,312,147503,2,0,B|408:280|492:336,1,193
336,108,148189,6,0,B|428:136|488:224,1,193
347,328,148703,2,0,B|248:344|156:316,1,193
88,156,149217,2,0,B|64:248,1,96.5
272,100,149560,2,0,B|184:60|80:60,1,193
152,180,150074,2,0,B|212:260|320:284,1,193
352,148,150589,2,0,B|424:160|424:160|476:196,1,96.5
164,80,150932,6,0,B|216:160,2,96.5
80,168,151446,1,0
80,168,151617,2,0,B|32:208|32:208|28:244,2,96.5
200,272,152132,1,0
448,160,152303,2,0,B|440:264,1,96.5
320,260,152646,2,0,B|368:140,1,96.5
256,120,152989,2,0,B|152:188,1,96.5
60,256,153332,2,0,B|104:272|128:324,1,96.5
204,336,153675,6,0,B|188:240|92:184,1,193,2|0
256,20,154189,2,0,B|256:212,1,193,2|0
308,336,154703,2,0,B|324:240|420:184,1,193,2|0
420,304,155217,1,0
420,304,155389,2,0,B|328:236,1,96.5,0|2
92,304,155732,2,0,B|184:236,2,96.5,2|2|2
468,224,156417,6,0,B|424:128|368:184|328:100,1,193,2|0
256,356,156932,2,0,B|256:164,1,193,2|0
44,224,157446,2,0,B|88:128|144:184|184:100,1,193,2|0
256,44,157960,1,0
256,44,158132,2,0,B|252:116|252:116|260:116|260:116|252:128|252:128|260:128|260:128|252:140|252:140|260:140|260:140|256:220,1,193,2|6
128,248,158646,2,0,B|132:296|132:296|176:320,2,96.5
48,192,159160,5,2
96,88,159332,1,0
192,144,159503,1,0
256,48,159675,1,2
320,144,159846,1,0
416,88,160017,1,0
464,192,160189,2,0,B|456:240|416:272,2,96.5,2|0|0
48,192,160703,6,0,B|56:240|96:272,2,96.5,0|0|2
208,192,161217,2,0,B|304:192,1,96.5,2|2
256,320,161560,2,0,B|256:128,2,193,2|2|0
336,272,162417,1,2
176,240,162589,1,0
336,208,162760,1,0
176,176,162932,1,2
336,144,163103,1,0
176,112,163275,6,0,B|128:128,3,48.25
208,192,163617,1,0
208,192,163703,1,0
208,192,163789,1,0
208,192,163875,1,0
136,260,163960,6,0,B|184:276,3,48.25
104,340,164302,1,0
104,340,164388,1,0
104,340,164474,1,0
104,340,164560,1,0
176,376,164646,6,0,B|288:368,1,96.5,4|0
336,144,164989,2,0,B|224:152,1,96.5,8|0
40,256,165332,2,0,B|40:296|40:296|80:352,1,96.5
88,72,165675,2,0,B|128:72|128:72|173:104,1,96.5,8|0
336,160,166017,6,0,B|408:160|408:160|432:136,1,96.5
288,272,166360,2,0,B|288:344|288:344|312:368,1,96.5,8|0
176,224,166703,2,0,B|104:224|104:224|80:248,1,96.5
224,112,167046,2,0,B|224:40|224:40|200:16,1,96.5,8|0
48,192,167389,6,0,B|256:192,1,193,0|8
464,192,167903,1,0
464,192,168075,2,0,B|256:192,1,193,0|8
48,192,168589,1,0
56,120,168760,6,0,B|80:80|80:80|136:80,1,96.5
56,264,169103,2,0,B|80:304|80:304|136:304,1,96.5,8|0
256,48,169446,2,0,B|192:128,1,96.5
256,336,169789,2,0,B|192:256,1,96.5,8|0
320,96,170132,5,0
398,196,170303,1,0
499,118,170475,1,8
420,17,170646,1,0
398,196,170817,2,0,B|352:288,1,96.5
114,196,171160,2,0,B|160:288,1,96.5,8|0
192,96,171503,5,0
114,196,171674,1,0
13,118,171846,1,8
92,17,172017,1,0
192,96,172189,2,0,B|216:136|196:188,1,96.5
320,96,172532,2,0,B|296:136|316:188,1,96.5,8|0
256,308,172875,5,0
188,192,173046,1,0
108,300,173217,1,8
24,192,173389,1,0
108,84,173560,1,0
188,192,173732,1,0
256,76,173902,1,8
324,192,174075,1,0
468,192,174246,6,0,B|368:192,1,96.5
256,24,174589,2,0,B|256:124,1,96.5,8|0
44,192,174932,2,0,B|144:192,1,96.5
256,360,175275,2,0,B|256:260,1,96.5,8|0
140,192,175617,5,0
44,96,175789,1,0
176,76,175960,1,8
256,192,176132,1,0
372,192,176303,1,0
468,288,176475,1,0
336,308,176646,1,8
256,192,176817,1,0
256,128,176989,6,0,B|296:96|296:96|304:36,1,96.5
256,256,177332,2,0,B|216:288|216:288|208:348,1,96.5,8|0
200,172,177675,1,0
312,212,177846,1,0
112,212,178017,1,8
400,172,178189,1,0
200,172,178360,6,0,B|128:148|128:148|128:116,1,96.5
312,212,178703,2,0,B|384:236|384:236|384:268,1,96.5,8|0
112,212,179046,2,0,B|72:236|72:236|48:280,1,96.5
400,172,179389,2,0,B|440:148|440:148|464:104,1,96.5,8|0
368,80,179732,6,0,B|176:100,1,193,0|8
272,308,180246,2,0,B|464:288,1,193
200,188,180760,2,0,B|156:208|104:208,1,96.5,8|0
56,112,181103,6,0,B|104:76|104:76|144:60,1,96.5
56,272,181446,2,0,B|104:308|104:308|144:324,1,96.5,8|0
456,272,181789,2,0,B|408:308|408:308|368:324,1,96.5
456,112,182132,2,0,B|408:76|408:76|368:60,1,96.5,8|0
172,128,182475,6,0,B|132:88|136:40,1,96.5
176,208,182817,2,0,B|120:199|95:157,1,96.5,8|0
226,270,183160,2,0,B|175:295|131:277,1,96.5,0|0
301,292,183503,2,0,B|275:342|228:353,1,96.5,8|0
256,116,183846,5,0
180,192,184017,1,0
256,268,184189,1,8
332,192,184360,1,0
316,48,184532,1,0
400,252,184703,1,0
196,336,184875,1,8
112,132,185046,1,0
200,132,185217,5,0
200,132,185303,1,0
200,132,185389,1,0
200,132,185475,1,0
300,152,185560,2,0,B|352:128,3,48.25
312,252,185903,5,0
312,252,185989,1,0
312,252,186075,1,0
312,252,186161,1,0
212,232,186246,2,0,B|160:256,3,48.25
256,320,186589,5,2
