osu file format v9

[General]
AudioFilename: Noisestorm - Shockwave HD.mp3
AudioLeadIn: 0
PreviewTime: 33428
Countdown: 0
SampleSet: Normal
StackLeniency: 0.7
Mode: 0
LetterboxInBreaks: 0

[Editor]
Bookmarks: 10971,21942,32914,56228,78171,89142,100114,122057,133028
DistanceSpacing: 0.8
BeatDivisor: 2
GridSize: 4

[Metadata]
Title:Shockwave
Artist:Noisestorm
Creator:Shiirn
Version:Tremor
Source:
Tags:Eoin O' Broin Gonzvlo MMzz

[Difficulty]
HPDrainRate:3
CircleSize:3
OverallDifficulty:3
ApproachRate:4
SliderMultiplier:1.05999990463257
SliderTickRate:2

[Events]
//Background and Video events
0,0,"Image1.png"
//Break Periods
2,78371,87822
//Storyboard Layer 0 (Background)
//Storyboard Layer 1 (Fail)
//Storyboard Layer 2 (Pass)
//Storyboard Layer 3 (Foreground)
//Storyboard Sound Samples
//Background Colour Transformations
3,100,163,162,255

[TimingPoints]
0,342.857142857143,4,2,0,40,1,0
21942,-100,4,2,0,40,0,0
23314,-100,4,2,0,40,0,0
24685,-100,4,2,0,50,0,0
26057,-100,4,2,0,50,0,0
27428,-100,4,2,0,60,0,0
30171,-100,4,2,0,70,0,0
31542,-100,4,2,0,75,0,0
33942,-100,4,1,0,100,0,1
34028,-100,4,2,0,70,0,0
34285,-100,4,1,0,60,0,0
54857,-100,4,2,0,70,0,0
56228,-100,4,1,0,60,0,0
76800,-100,4,2,0,65,0,0
78171,-100,4,1,0,60,0,0
87771,-133.333333333333,4,2,0,50,0,0
100114,-100,4,2,0,50,0,0
105600,-100,4,1,0,50,0,1
116571,-100,4,1,0,50,0,0
116914,-100,4,1,0,50,0,1
117000,-100,4,1,0,50,0,1
126171,-100,4,2,0,80,0,0
127542,-100,4,1,0,50,0,0
137142,-100,4,2,0,80,0,0
138514,-100,4,1,0,50,0,0
148114,-100,4,2,0,75,0,0

[Colours]
Combo1 : 36,183,208
Combo2 : 153,62,253
Combo3 : 56,69,188

[HitObjects]
60,192,21942,2,0,B|136:120,1,105.999990463257,0|8
292,192,22971,1,8
376,192,23314,6,0,B|300:264,1,105.999990463257,0|8
144,192,24343,1,8
204,136,24685,6,0,B|308:136,1,105.999990463257,0|8
256,296,25714,1,8
308,364,26057,6,0,B|204:364,1,105.999990463257,0|8
256,204,27086,1,8
340,192,27428,6,0,B|336:136|292:100,1,105.999990463257,0|8
152,192,28457,1,8
228,228,28800,6,0,B|232:284|276:320,1,105.999990463257,0|8
388,192,29828,1,8
340,124,30171,6,0,B|236:152,1,105.999990463257,0|8
68,152,31200,1,8
44,232,31542,6,8,B|176:220,1,105.999990463257,0|8
312,276,32571,1,8
256,192,33942,5,12
256,192,34285,6,0,B|360:172,1,105.999990463257,0|8
416,236,34971,2,0,B|392:340,1,105.999990463257,0|8
316,304,35657,1,0
252,248,36000,2,0,B|148:256|40:212,1,211.999980926514,8|8
60,132,37028,5,0
132,84,37371,2,0,B|172:116|232:120,1,105.999990463257,8|0
312,92,38057,2,0,B|364:108|400:148,1,105.999990463257,8|0
392,232,38742,2,0,B|324:312|324:312|216:312,1,211.999980926514,8|8
144,268,39771,6,0,B|64:220|72:136,2,158.999985694885,0|0|8
228,256,41142,2,0,B|184:173|234:105,2,158.999985694885,0|0|8
300,212,42514,1,0
380,180,42857,2,0,B|452:256,2,105.999990463257,8|0|8
344,104,43885,6,0,B|240:76,1,105.999990463257,0|8
180,132,44571,2,0,B|88:144,4,52.9999952316285,8|8|0|8|0
224,204,45600,2,8,B|248:308|248:308|352:328,1,211.999980926514
336,244,46628,1,0
416,216,46971,2,8,B|392:112|280:60,1,211.999980926514
212,108,48000,6,0,B|128:176,2,105.999990463257,0|8|0
260,180,49028,2,0,B|296:220|352:228,1,105.999990463257,8|0
368,144,49714,1,8
444,184,50057,2,0,B|464:288,1,105.999990463257,0|8
400,344,50742,5,0
400,344,51085,2,8,B|188:344,1,211.999980926514
152,268,52114,1,0
152,268,52457,2,8,B|64:208|64:208|64:100,1,211.999980926514
148,88,53485,6,0,B|200:104|212:164,1,105.999990463257,0|8
299,165,54171,2,0,B|312:104|364:88,1,105.999990463257,0|8
404,164,54857,6,0,B|444:260,1,105.999990463257,2|8
360,272,55542,2,0,B|272:316,2,52.9999952316285,0|2|8
332,192,56228,6,0,B|228:212,1,105.999990463257,0|8
144,204,56914,1,0
80,148,57257,1,8
108,68,57600,1,0
176,120,57942,2,0,B|268:68|268:68|320:60|372:76,1,211.999980926514,8|8
352,160,58971,5,0
400,228,59314,1,8
360,304,59657,2,0,B|316:336|260:340,1,105.999990463257,0|8
248,256,60342,2,0,B|196:276|96:272|48:220,1,211.999980926514,0|8
76,140,61371,2,0,B|120:112,2,52.9999952316285,8|0|0
180,168,62057,6,0,B|288:204|388:168,1,211.999980926514,8|8
368,84,63085,1,0
368,84,63428,2,8,B|260:84|260:84|200:84|200:152,1,211.999980926514
284,168,64457,1,0
368,180,64800,2,8,B|367:248|307:248|307:248|199:248,1,211.999980926514
164,172,65828,6,0,B|56:164,1,105.999990463257,0|8
48,248,66514,2,0,B|112:332,2,105.999990463257,0|8|0
80,168,67542,6,8,B|288:128,1,211.999980926514
364,88,68571,1,0
436,136,68914,1,8
432,304,69600,5,8
360,352,69943,1,0
276,340,70285,2,8,B|172:312|172:312|156:260|108:232,1,211.999980926514
148,156,71314,2,0,B|280:172,2,105.999990463257,0|8|8
108,144,72171,2,0,B|88:96,2,52.9999952316285,8|0|8
88,184,72685,6,0,B|88:236|88:236|128:272,1,105.999990463257,0|8
192,220,73371,1,0
252,160,73714,2,0,B|312:72,2,105.999990463257,8|0|8
312,212,74742,1,0
244,260,75085,2,0,B|332:320,2,105.999990463257,8|0|8
192,192,76114,1,0
228,116,76457,1,8
312,96,76800,6,0,B|424:108,1,105.999990463257,2|8
400,192,77485,2,0,B|412:260,2,52.9999952316285,0|2|8
400,192,78171,1,4
88,160,89142,6,0,B|328:160,1,238.499971434475
400,208,90514,2,0,B|336:316|196:328,1,238.499971434475
140,268,91885,2,0,B|112:152|112:152|160:44,1,238.499971434475
220,108,93257,6,0,B|300:104,1,79.4999904781584
348,176,93942,2,0,B|272:208,1,79.4999904781584
188,188,94628,2,0,B|200:308|200:308|312:340,1,238.499971434475
320,252,96000,2,0,B|200:264|200:264|136:364,1,238.499971434475
80,296,97371,6,0,B|36:184|64:60,1,238.499971434475
140,100,98742,2,0,B|376:128,1,238.499971434475
408,208,100114,6,0,B|348:296,1,105.999990463257
268,268,100800,2,0,B|168:308,1,105.999990463257
108,248,101485,2,0,B|72:208|72:208|72:152,1,105.999990463257
140,104,102171,2,0,B|188:80|188:80|252:80,1,105.999990463257
304,136,102857,6,0,B|400:196,3,105.999990463257
420,272,104228,2,0,B|316:248,3,105.999990463257,0|0|0|12
256,192,105600,5,0
256,192,105942,2,0,B|244:312,1,105.999990463257,4|0
332,296,106628,1,8
372,220,106970,2,0,B|316:132,1,105.999990463257,0|8
240,92,107656,2,0,B|148:148,2,105.999990463257,0|8|0
320,68,108685,2,8,B|408:128|408:128|448:228,1,211.999980926514
372,268,109713,6,0,B|256:272,2,105.999990463257,0|8|0
344,188,110742,2,0,B|252:132|140:136,1,211.999980926514,8|8
84,200,111770,2,0,B|136:308,2,105.999990463257,0|8|0
152,152,112799,2,8,B|240:208|240:208|360:224,1,211.999980926514
308,116,113827,1,0
308,116,114170,2,0,B|236:192|216:304,1,211.999980926514,8|8
300,304,115199,6,0,B|328:360,2,52.9999952316285,0|0|8
368,256,115885,1,8
424,316,116227,2,0,B|360:232|256:192,1,211.999980926514,0|12
168,220,117256,1,0
116,144,117599,6,8,B|152:244|280:264,1,211.999980926514
292,180,118627,2,0,B|256:140|256:140|188:128,2,105.999990463257,0|8|0
352,120,119656,2,8,B|440:188|440:304,1,211.999980926514
356,304,120685,1,0
300,240,121027,1,8
232,192,121370,2,0,B|160:208,4,52.9999952316285,8|8|0|8|0
256,108,122399,6,8,B|368:104|464:140,1,211.999980926514
396,192,123427,1,0
464,243,123770,2,0,B|368:280|256:275,1,211.999980926514,8|8
212,204,124799,2,0,B|96:140,1,105.999990463257,0|8
40,180,125485,2,0,B|64:284,1,105.999990463257,0|8
140,316,126170,6,0,B|272:312,1,105.999990463257,2|8
308,256,126856,2,0,B|400:244,2,52.9999952316285,0|2|8
256,192,127542,6,0,B|152:172,1,105.999990463257,0|8
96,236,128228,2,0,B|120:340,1,105.999990463257,0|8
196,304,128914,1,0
260,248,129257,2,0,B|364:256|472:212,1,211.999980926514,8|8
452,132,130285,5,0
380,84,130628,2,0,B|340:116|280:120,1,105.999990463257,8|0
200,92,131314,2,0,B|148:108|112:148,1,105.999990463257,8|0
120,232,131999,2,0,B|188:312|188:312|296:312,1,211.999980926514,8|8
368,268,133028,6,0,B|448:220|440:136,2,158.999985694885,0|0|8
284,256,134399,2,0,B|328:173|278:105,2,158.999985694885,0|0|8
212,212,135771,1,0
132,180,136114,2,0,B|60:256,2,105.999990463257,8|0|8
168,104,137142,6,0,B|272:76,1,105.999990463257,2|8
316,148,137828,2,0,B|408:160,4,52.9999952316285,8|2|8|8|0
224,180,138857,2,8,B|248:76|248:76|352:56,1,211.999980926514
336,140,139885,1,0
416,168,140228,2,8,B|392:272|280:324,1,211.999980926514
212,276,141257,6,0,B|128:208,2,105.999990463257,0|8|0
260,204,142285,2,0,B|296:164|352:156,1,105.999990463257,8|0
368,240,142971,1,8
444,200,143314,2,0,B|464:96,1,105.999990463257,0|8
400,40,143999,5,0
400,40,144342,2,8,B|188:40,1,211.999980926514
152,116,145371,1,0
152,116,145714,2,8,B|64:176|64:176|64:284,1,211.999980926514
148,296,146742,6,0,B|200:280|212:220,1,105.999990463257,0|8
299,219,147428,2,0,B|312:280|364:296,1,105.999990463257,0|8
404,220,148114,6,0,B|444:124,1,105.999990463257,2|8
360,112,148799,2,0,B|272:68,3,52.9999952316285,0|2|8|2
