osu file format v9

[General]
AudioFilename: Noisestorm - Shockwave HD.mp3
AudioLeadIn: 0
PreviewTime: 33428
Countdown: 0
SampleSet: Normal
StackLeniency: 0.7
Mode: 0
LetterboxInBreaks: 0

[Editor]
Bookmarks: 10971,21942,32914,56228,78171,89142,122057,133028
DistanceSpacing: 1
BeatDivisor: 4
GridSize: 4

[Metadata]
Title:Shockwave
Artist:Noisestorm
Creator:Shiirn
Version:Shake
Source:
Tags:Eoin O' Broin Gonzvlo MMzz

[Difficulty]
HPDrainRate:4
CircleSize:4
OverallDifficulty:5
ApproachRate:7
SliderMultiplier:1.57999990463257
SliderTickRate:2

[Events]
//Background and Video events
0,0,"Image1.png"
//Break Periods
2,78371,88242
//Storyboard Layer 0 (Background)
//Storyboard Layer 1 (Fail)
//Storyboard Layer 2 (Pass)
//Storyboard Layer 3 (Foreground)
//Storyboard Sound Samples
//Background Colour Transformations
3,100,163,162,255

[TimingPoints]
0,342.857142857143,4,2,0,40,1,0
21942,-100,4,2,0,40,0,0
23314,-100,4,2,0,40,0,0
24685,-100,4,2,0,50,0,0
26057,-100,4,2,0,50,0,0
27428,-100,4,2,0,60,0,0
30171,-100,4,2,0,70,0,0
31542,-100,4,2,0,75,0,0
33942,-100,4,1,0,100,0,1
34028,-100,4,2,0,70,0,0
34285,-100,4,1,0,60,0,0
54857,-100,4,2,0,70,0,0
56228,-100,4,1,0,60,0,0
76800,-100,4,2,0,65,0,0
78171,-100,4,1,0,60,0,0
87771,-133.333333333333,4,2,0,50,0,0
100114,-100,4,2,0,50,0,0
105600,-100,4,1,0,50,0,1
116571,-100,4,1,0,50,0,0
116914,-100,4,1,0,50,0,1
117000,-100,4,1,0,50,0,1
126171,-100,4,2,0,80,0,0
127542,-100,4,1,0,50,0,0
137142,-100,4,2,0,80,0,0
138514,-100,4,1,0,50,0,0
148114,-100,4,2,0,75,0,0

[Colours]
Combo1 : 36,183,208
Combo2 : 153,62,253
Combo3 : 56,69,188

[HitObjects]
256,192,21942,6,0,B|260:184|260:184|252:184|252:184|260:176|260:176|252:176|252:176|260:168|260:168|252:168|252:168|260:160|260:160|252:160|252:160|260:152|260:152|256:144|256:144|256:72,1,157.999990463257,0|8
144,156,22800,2,0,B|160:192|160:192|200:192,1,78.9999952316284,0|8
256,192,23314,6,0,B|252:200|252:200|260:200|260:200|252:208|252:208|260:208|260:208|252:216|252:216|260:216|260:216|252:224|252:224|260:224|260:224|252:232|252:232|256:240|256:240|256:312,1,157.999990463257,0|8
368,228,24172,2,0,B|352:192|352:192|312:192,1,78.9999952316284,0|8
256,192,24685,6,0,B|248:188|248:188|248:196|248:196|240:188|240:188|240:196|240:196|232:188|232:188|232:196|232:196|224:188|224:188|224:196|224:196|216:188|216:188|208:192|208:192|136:192,1,157.999990463257,0|8
68,192,25542,2,0,B|148:192,1,78.9999952316284,0|8
256,192,26057,6,0,B|264:188|264:188|264:196|264:196|272:188|272:188|272:196|272:196|280:188|280:188|280:196|280:196|288:188|288:188|288:196|288:196|296:188|296:188|304:192|304:192|376:192,1,157.999990463257,0|8
444,192,26914,2,0,B|364:192,1,78.9999952316284,0|8
256,64,27428,6,0,B|192:44|192:44|168:80|108:64,1,157.999990463257,0|8
40,192,28285,2,0,B|120:192,1,78.9999952316284,0|8
256,320,28800,6,0,B|192:340|192:340|168:304|108:320,1,157.999990463257,0|8
200,192,29657,2,0,B|121:192,1,78.9999952316284,0|8
428,192,30171,6,0,B|372:136|372:136|372:56,1,157.999990463257,0|8
256,136,31028,2,0,B|256:216,1,78.9999952316285,0|8
84,192,31542,6,0,B|140:248|140:248|140:328,1,157.999990463257,0|8
256,248,32399,2,0,B|256:168,2,78.9999952316285,0|8|8
256,192,33942,5,12
256,192,34285,6,0,B|252:112|192:52,1,157.999990463257,0|8
164,136,34800,1,0
164,136,34971,2,0,B|240:116|320:112,1,157.999990463257,0|8
372,184,35485,1,0
456,156,35657,6,0,B|456:248,1,78.9999952316285
388,292,36000,2,0,B|388:204,1,78.9999952316285,8|0
320,156,36342,2,0,B|320:248,1,78.9999952316285,0|8
252,292,36685,2,0,B|252:204,1,78.9999952316285,8|0
256,124,37028,6,0,B|252:32,1,78.9999952316285
252,45,37371,2,0,B|172:48|172:48|96:80,1,157.999990463257,8|0
64,156,37885,2,0,B|124:228,2,78.9999952316285,0|8|0
48,244,38400,6,0,B|36:324,1,78.9999952316285
116,292,38742,2,0,B|168:228,1,78.9999952316285,8|0
192,328,39085,2,0,B|268:300,3,78.9999952316284,8|8|0|8
336,324,39771,6,0,B|416:324|476:260,1,157.999990463257,0|8
452,192,40285,2,0,B|360:192,2,78.9999952316284
475,123,40800,2,0,B|416:60|336:60,1,157.999990463257,8|0
320,128,41314,5,0
320,128,41485,2,0,B|264:184,1,78.9999952316284,8|0
204,144,41828,2,0,B|204:228,1,78.9999952316284,0|8
84,128,42171,2,0,B|140:184,1,78.9999952316284,8|0
84,128,42514,6,0,B|36:192|36:192|24:268,1,157.999990463257,0|8
104,288,43028,2,0,B|160:232,1,78.9999952316285
200,304,43371,2,0,B|288:308,2,78.9999952316285,0|8|0
256,236,43885,5,0
256,236,44057,1,0
332,192,44228,1,8
332,192,44400,1,0
396,148,44571,1,0
332,104,44742,1,8
256,60,44914,2,0,B|256:144,1,78.9999952316285,0|8
168,136,45257,6,0,B|92:160|92:160|40:216,1,157.999990463257,0|8
116,256,45771,1,0
116,256,45942,2,0,B|188:224|188:224|272:224,1,157.999990463257,0|8
256,136,46457,1,0
256,48,46628,6,0,B|256:204,1,157.999990463257,0|8
328,156,47142,1,0
328,156,47314,2,0,B|256:120|256:120|184:156,1,157.999990463257,0|8
108,192,47828,1,0
20,192,48000,6,0,B|48:272|124:304,1,157.999990463257,0|8
492,192,48685,2,0,B|464:112|387:79,1,157.999990463257,0|8
312,120,49200,1,0
256,52,49371,6,0,B|256:208,1,157.999990463257,0|8
320,244,49885,1,0
256,296,50057,2,0,B|328:340,3,78.9999952316285,8|8|0|8
384,276,50742,6,0,B|440:128,1,157.999990463257,0|8
360,132,51257,1,0
304,76,51428,2,0,B|248:224,1,157.999990463257,0|8
328,228,51942,1,0
384,276,52114,6,0,B|440:128,1,157.999990463257,0|8
360,132,52629,1,0
304,76,52800,2,0,B|232:112|148:96,1,157.999990463257,0|8
192,28,53314,1,0
192,28,53485,6,0,B|232:96|228:180,1,157.999990463257,0|8
148,192,54000,2,0,B|48:192,2,78.9999952316285,0|0|8
192,256,54514,2,0,B|200:292|236:320,1,78.9999952316285,8|0
308,288,54857,5,4
384,264,55028,1,2
356,188,55199,1,8
280,216,55371,1,2
248,136,55542,2,0,B|248:88,2,39.4999976158142,2|0|8
172,152,55885,2,0,B|120:152,3,39.4999976158142,2|0|8|2
116,192,56228,6,0,B|272:192,1,157.999990463257,0|8
340,148,56742,1,0
340,148,56914,2,0,B|404:196|404:196|340:244,1,157.999990463257,0|8
268,260,57428,2,0,B|228:328,1,78.9999952316285
200,216,57771,6,0,B|120:244,1,78.9999952316285,0|8
188,136,58114,2,0,B|104:120,1,78.9999952316285
220,44,58457,2,0,B|272:124,2,78.9999952316285,8|8|0
300,40,58971,6,0,B|380:52|380:52|452:84,1,157.999990463257,0|8
436,160,59485,1,0
360,140,59657,2,0,B|308:200|312:288,1,157.999990463257,0|8
256,232,60171,1,0
200,286,60342,6,0,B|204:200|152:140,1,157.999990463257,0|8
92,192,60857,1,0
40,132,61028,2,0,B|116:156,1,78.9999952316285,8|8
40,252,61371,2,0,B|116:228,1,78.9999952316285,0|8
188,192,61714,6,0,B|344:192,1,157.999990463257,0|8
312,120,62228,2,0,B|280:192|280:192|312:264,1,157.999990463257
256,320,62742,2,0,B|220:296|208:260,1,78.9999952316285,8|0
128,256,63085,6,0,B|56:216,1,78.9999952316285
52,140,63428,2,0,B|116:92|196:80,1,157.999990463257,8|0
256,128,63942,2,0,B|256:212,2,78.9999952316285,8|8|0
316,72,64457,6,0,B|356:80|356:80|408:80,1,78.9999952316285
452,136,64800,2,0,B|452:296,1,157.999990463257,8|0
372,284,65314,2,0,B|300:248,1,78.9999952316285,0|8
256,312,65657,1,0
256,312,65828,6,0,B|256:204,2,78.9999952316285,0|0|8
180,32,66514,2,0,B|220:100,1,78.9999952316285,8|8
332,32,66857,2,0,B|292:100,1,78.9999952316285,0|8
256,36,67200,6,0,B|228:112|284:112|256:192,1,157.999990463257,0|8
188,148,67714,1,0
256,192,67885,2,0,B|178:219|178:163|102:191,1,157.999990463257,0|8
140,260,68400,1,0
192,320,68571,6,0,B|348:340,1,157.999990463257,0|8
320,64,69257,2,0,B|164:44,1,157.999990463257,0|8
96,104,69771,1,0
108,192,69942,6,0,B|148:184|148:184|184:144,2,78.9999952316285,0|0|8
104,272,70457,2,0,B|184:272,1,78.9999952316285
256,244,70800,2,0,B|296:252|296:252|332:292,2,78.9999952316285,0|8|0
176,232,71314,5,0
424,192,71657,1,8
424,192,71828,2,0,B|452:164|456:120,1,78.9999952316285,0|8
376,128,72171,2,0,B|344:104|300:104,2,78.9999952316285,8|0|8
312,192,72685,6,0,B|212:188|212:188|160:152,1,157.999990463257,0|8
112,236,73200,1,0
36,296,73371,2,0,B|83:328|83:328|183:332,1,157.999990463257,0|8
256,296,73885,1,0
316,244,74057,6,0,B|360:172,1,78.9999952316285
256,196,74400,1,8
196,244,74571,2,0,B|152:172,1,78.9999952316285
256,196,74914,2,0,B|256:100,2,78.9999952316285,8|8|0
312,268,75428,6,0,B|384:292|392:292|465:268,1,157.999990463257,0|8
424,200,75942,1,0
512,140,76114,2,8,B|440:116|432:116|358:139,1,157.999990463257,0|8
296,80,76628,1,0
256,160,76800,6,0,B|184:124,1,78.9999952316284,4|2
256,224,77142,2,0,B|328:260,1,78.9999952316284,8|2
256,292,77485,2,0,B|256:336,2,39.4999976158142,2|0|8
184,272,77828,2,0,B|136:312,2,39.4999976158142,2|0|8
112,212,78171,1,4
32,196,89142,6,0,B|9:156|98:69|170:225|217:138,1,236.999978631736
128,80,90171,1,0
112,64,90514,2,0,B|64:140|136:196|92:296,1,236.999978631736
240,304,91542,1,0
256,320,91885,6,0,B|362:343|413:289|345:224|390:185,1,236.999978631736
464,280,92914,1,0
448,292,93257,2,0,B|388:328|332:236|220:264,1,236.999978631736
104,176,94285,5,0
76,192,94628,2,0,B|80:292|188:324,2,177.749983973802
160,208,96000,2,0,B|222:286|319:258,2,177.749983973802
275,172,97371,2,0,B|373:148|432:228,2,177.749983973802
184,112,98742,6,0,B|152:160|152:224,1,118.499989315868
328,272,99428,2,0,B|360:224|360:160,1,118.499989315868
296,96,100114,6,0,B|232:148|200:220,1,157.999990463257
308,208,100800,2,0,B|256:144|184:112,1,157.999990463257
88,236,101485,2,0,B|152:184|184:112,1,157.999990463257
76,124,102171,2,0,B|128:188|200:220,1,157.999990463257
284,192,102857,6,0,B|368:192,3,78.9999952316285
320,268,103542,2,0,B|420:268,3,78.9999952316285
416,200,104228,2,0,B|516:200,3,78.9999952316285
459,124,104914,2,0,B|380:124,2,78.9999952316285,0|0|12
344,60,105600,6,0,B|256:192,1,157.999990463257,0|8
184,160,106114,2,0,B|144:176|144:176|104:164,1,78.9999952316285
116,244,106457,2,0,B|76:228|76:228|36:240,2,78.9999952316285,0|8|0
76,312,106971,6,0,B|148:344|148:344|227:347,1,157.999990463257,0|8
256,272,107486,1,0
304,208,107657,2,0,B|380:232,1,78.9999952316285,0|8
440,180,108000,2,0,B|480:256,1,78.9999952316285,8|0
464,328,108343,6,0,B|352:344,1,78.9999952316285
308,332,108686,2,0,B|248:280|240:192,1,157.999990463257,8|0
308,152,109200,1,0
256,92,109371,2,0,B|144:104,1,78.9999952316285,8|0
104,132,109714,5,0
60,196,109886,1,0
44,272,110057,2,0,B|120:292|200:296,1,157.999990463257,8|8
216,220,110571,2,0,B|264:156,1,78.9999952316285,8|0
320,212,110914,1,8
376,156,111085,6,0,B|423:219,1,78.9999952316285,0|0
320,212,111427,2,0,B|304:288|224:332,1,157.999990463257,8|0
140,288,111942,1,0
140,288,112113,2,0,B|204:212,1,78.9999952316285,8|0
120,160,112456,6,0,B|60:240,1,78.9999952316285
120,160,112799,2,0,B|184:116|268:104,1,157.999990463257,8|0
324,160,113313,2,0,B|340:200|384:208,2,78.9999952316285,8|8|0
400,136,113827,6,0,B|360:289,1,157.999990463257,0|8
296,336,114342,1,0
256,268,114513,2,0,B|176:256|96:268,1,157.999990463257,0|8
176,336,115027,1,0
176,336,115199,6,0,B|164:256|184:180,1,157.999990463257,0|8
248,240,115713,2,0,B|288:228|320:200,1,78.9999952316285,0|8
380,252,116056,2,0,B|416:272|456:276,2,78.9999952316285,8|0|8
332,324,116570,6,0,B|264:284|256:192,1,157.999990463257,0|12
208,140,117085,2,0,B|188:176|180:212,2,78.9999952316285
304,140,117599,2,0,B|324:176|332:212,1,78.9999952316285,8|0
302,44,117942,6,0,B|384:64|328:128|390:163,1,157.999990463257,0|8
209,44,118456,2,0,B|128:64|184:128|121:163,1,157.999990463257,0|8
256,108,118970,2,0,B|256:188,1,78.9999952316285,8|0
160,256,119313,5,0
87,222,119484,1,0
121,149,119656,1,8
193,183,119827,1,0
160,256,119999,2,0,B|121:290|121:290|121:338,1,78.9999952316285,0|0
212,324,120342,2,0,B|252:336|252:336|308:308,1,78.9999952316285,8|0
352,256,120685,5,0
425,222,120856,1,0
391,149,121028,1,8
319,183,121199,1,0
352,256,121371,2,0,B|318:295|318:295|270:295,1,78.9999952316285,8|8
424,220,121714,2,0,B|463:254|463:254|463:302,1,78.9999952316285,0|8
436,356,122057,6,0,B|380:360|380:360|328:340,1,78.9999952316285,0|0
290,295,122399,2,0,B|212:316|132:308,1,157.999990463257,8|0
96,240,122913,1,0
32,192,123085,2,0,B|192:192,1,157.999990463257,8|0
96,144,123599,5,0
132,72,123770,2,0,B|208:56|296:60,1,157.999990463257,8|0
328,136,124285,2,0,B|360:164|360:164|360:208,2,78.9999952316285,0|8|0
184,136,124799,6,0,B|152:164|152:164|152:208,1,78.9999952316285
172,276,125142,2,0,B|252:280|252:280|329:276,1,157.999990463257,8|0
304,200,125656,1,0
256,140,125827,1,8
208,200,125999,1,0
132,188,126170,6,0,B|36:196,1,78.9999952316285,4|2
112,284,126513,2,0,B|192:272,1,78.9999952316285,8|2
260,312,126856,2,0,B|304:336,2,39.4999976158142,2|0|8
316,256,127199,2,0,B|376:256,2,39.4999976158142,2|0|8
308,176,127542,6,0,B|264:112|264:112|192:80,1,157.999990463257,4|8
196,160,128056,1,0
196,160,128227,2,0,B|264:120|264:120|316:60,1,157.999990463257,0|8
384,104,128742,1,0
448,152,128913,5,0
448,232,129085,1,0
380,192,129256,2,0,B|300:192,1,78.9999952316285,8|0
328,264,129599,2,0,B|248:264,1,78.9999952316285,0|8
280,336,129942,2,0,B|184:336,1,78.9999952316285,8|0
124,312,130285,6,0,B|68:164,1,157.999990463257,0|8
148,168,130800,1,0
204,112,130971,2,0,B|260:260,1,157.999990463257,0|8
180,264,131485,1,0
260,260,131656,6,0,B|411:213,1,157.999990463257,0|8
342,159,132170,1,0
268,180,132342,2,8,B|192:203,1,78.9999952316285,8|8
132,152,132685,1,0
92,220,132856,1,8
92,220,133027,6,0,B|140:284|140:284|216:304,1,157.999990463257,0|8
212,224,133542,1,0
220,144,133713,2,0,B|304:152,1,78.9999952316285
368,112,134056,2,0,B|444:136|444:136|468:212,1,157.999990463257,8|0
388,212,134570,6,0,B|364:288,2,78.9999952316285,0|8|0
308,196,135085,2,0,B|216:216,3,78.9999952316285,0|0|8|0
180,152,135770,6,0,B|36:220,1,157.999990463257,0|8
36,140,136285,1,0
36,140,136456,2,0,B|168:224,1,157.999990463257,0|8
208,296,136970,1,0
256,232,137142,6,0,B|344:240,1,78.9999952316285,4|2
376,172,137485,2,0,B|456:224,1,78.9999952316285,8|2
376,256,137827,2,0,B|416:296,2,39.4999976158142,2|0|8
312,212,138170,2,0,B|272:180,2,39.4999976158142,2|0|8
204,208,138513,6,0,B|248:272|248:272|320:304,1,157.999990463257,4|8
316,224,139028,1,0
316,224,139200,2,0,B|248:264|248:264|196:324,1,157.999990463257,0|8
128,280,139714,1,0
64,232,139884,5,0
64,152,140056,1,0
132,192,140227,2,0,B|212:192,1,78.9999952316285,8|0
184,120,140570,2,0,B|264:120,1,78.9999952316285,0|8
232,48,140913,2,0,B|328:48,1,78.9999952316285,8|0
388,72,141256,6,0,B|444:220,1,157.999990463257,0|8
364,216,141771,1,0
308,272,141942,2,0,B|252:124,1,157.999990463257,0|8
332,120,142456,1,0
252,124,142627,6,0,B|101:171,1,157.999990463257,0|8
170,225,143141,1,0
244,204,143313,2,8,B|320:181,1,78.9999952316285,8|8
380,232,143656,1,0
420,164,143827,1,8
420,164,144000,6,0,B|372:100|372:100|296:80,1,157.999990463257,0|8
300,160,144513,1,0
292,240,144684,2,0,B|208:232,1,78.9999952316285
144,272,145027,2,0,B|68:248|68:248|44:172,1,157.999990463257,8|0
124,172,145541,6,0,B|148:96,2,78.9999952316285,0|8|0
204,188,146056,2,0,B|296:168,3,78.9999952316285,0|0|8|0
332,232,146741,6,0,B|476:164,1,157.999990463257,0|8
476,244,147256,1,0
476,244,147427,2,0,B|344:160,1,157.999990463257,0|8
272,192,147942,1,0
208,144,148113,6,0,B|96:156,1,78.9999952316285,4|2
200,72,148456,2,0,B|312:60,1,78.9999952316285,8|2
316,132,148800,2,0,B|392:132,2,39.4999976158142,2|0|8
400,196,149142,2,0,B|388:248,3,39.4999976158142,2|0|8|2
