osu file format v9

[General]
AudioFilename: Noisestorm - Shockwave HD.mp3
AudioLeadIn: 0
PreviewTime: 33428
Countdown: 0
SampleSet: Normal
StackLeniency: 0.7
Mode: 0
LetterboxInBreaks: 0

[Editor]
Bookmarks: 10971,21942,32914,56228,78171,89142,100114,122057,133028,171428,193371
DistanceSpacing: 1.5
BeatDivisor: 4
GridSize: 4

[Metadata]
Title:Shockwave
Artist:Noisestorm
Creator:Shiirn
Version:Quake
Source:
Tags:Eoin O' Broin Gonzvlo MMzz

[Difficulty]
HPDrainRate:6
CircleSize:4
OverallDifficulty:8
ApproachRate:8
SliderMultiplier:0.879999904632568
SliderTickRate:2

[Events]
//Background and Video events
0,0,"Image1.png"
//Break Periods
2,78371,88392
//Storyboard Layer 0 (Background)
//Storyboard Layer 1 (Fail)
//Storyboard Layer 2 (Pass)
//Storyboard Layer 3 (Foreground)
//Storyboard Sound Samples
//Background Colour Transformations
3,100,163,162,255

[TimingPoints]
0,342.857142857143,4,2,0,40,1,0
21942,-66.6666666666667,4,2,0,40,0,0
23314,-66.6666666666667,4,2,0,40,0,0
24685,-66.6666666666667,4,2,0,50,0,0
26057,-66.6666666666667,4,2,0,50,0,0
27428,-66.6666666666667,4,2,0,60,0,0
30171,-66.6666666666667,4,2,0,70,0,0
31542,-66.6666666666667,4,2,0,75,0,0
33942,-66.6666666666667,4,1,0,100,0,1
34028,-66.6666666666667,4,2,0,70,0,0
34285,-50,4,1,0,60,0,0
54857,-50,4,2,0,70,0,0
56228,-50,4,1,0,60,0,0
76800,-50,4,2,0,65,0,0
78171,-50,4,1,0,60,0,0
87771,-100,4,2,0,50,0,0
100114,-50,4,2,0,30,0,0
105600,-50,4,1,0,50,0,1
116571,-100,4,1,0,50,0,0
116914,-50,4,1,0,50,0,1
117000,-50,4,1,0,50,0,1
126171,-50,4,2,0,80,0,0
127542,-50,4,1,0,50,0,0
137142,-50,4,2,0,80,0,0
138514,-50,4,1,0,50,0,0
148114,-50,4,2,0,75,0,0

[Colours]
Combo1 : 36,183,208
Combo2 : 153,62,253
Combo3 : 56,69,188

[HitObjects]
80,192,21942,6,0,B|136:160|144:80,1,131.999981760979,0|8
256,192,22800,2,0,B|256:256,1,65.9999908804896,0|8
432,192,23314,6,0,B|376:160|368:80,1,131.999981760979,0|8
256,192,24171,2,0,B|256:128,1,65.9999908804896,0|8
80,192,24685,6,0,B|136:224|144:304,1,131.999981760979,0|8
256,192,25542,2,0,B|256:256,1,65.9999908804896,0|8
432,192,26057,6,0,B|376:224|368:304,1,131.999981760979,0|8
256,192,26914,2,0,B|256:128,1,65.9999908804896,0|8
488,192,27428,6,0,B|352:192,1,131.999981760979,0|8
160,272,28285,2,0,B|104:328,1,65.9999908804896,0|8
24,192,28800,6,0,B|160:192,1,131.999981760979,0|8
352,112,29657,2,0,B|408:56,1,65.9999908804896,0|8
232,152,30171,6,0,B|168:176,1,65.9999908804896
170,175,30514,2,0,B|168:248,1,65.9999908804896,8|0
168,241,30857,2,0,B|216:296,1,65.9999908804896
211,290,31200,2,0,B|304:288,1,65.9999908804896,8|0
240,224,31542,6,0,B|304:200,1,65.9999908804896
301,200,31885,2,0,B|303:127,1,65.9999908804896,8|0
303,134,32228,2,0,B|255:79,1,65.9999908804896
260,85,32571,2,0,B|167:87,1,65.9999908804896,8|8
256,192,33942,5,12
104,88,34285,6,0,B|56:160|48:256,1,175.999980926514,4|8
160,208,34800,1,0
224,312,34971,2,0,B|272:240|280:144,1,175.999980926514,0|8
200,88,35485,1,0
200,88,35657,6,0,B|160:104|160:104|80:112,1,87.9999904632568
200,296,36000,2,0,B|160:280|160:280|80:272,1,87.9999904632568,8|0
48,184,36342,2,0,B|144:200,1,87.9999904632568
320,200,36685,2,0,B|224:184,1,87.9999904632568,8|0
256,80,37028,6,0,B|312:144|312:144|404:144,1,175.999980926514,0|8
256,304,37542,2,0,B|312:240|312:240|404:240,1,175.999980926514,0|8
260,192,38057,2,0,B|172:192,1,87.9999904632568,8|0
84,192,38399,6,0,B|172:192,1,87.9999904632568
109,129,38742,2,0,B|172:192,1,87.9999904632568,8|0
108,324,39085,2,0,B|170:261,1,87.9999904632568,8|8
320,320,39428,2,0,B|257:257,1,87.9999904632568,0|8
188,188,39771,6,0,B|232:112|316:68,1,175.999980926514,4|8
180,44,40285,2,0,B|128:44|96:16,2,87.9999904632568,0|0|0
332,44,40799,2,0,B|384:44|416:16,1,87.9999904632568,8|0
256,52,41142,6,0,B|220:224,1,175.999980926514,0|8
136,288,41657,1,0
136,288,41828,2,0,B|88:284|88:284|64:240,1,87.9999904632568,0|8
100,128,42171,2,0,B|52:132|52:132|28:176,1,87.9999904632568,8|0
164,144,42514,6,0,B|208:144|208:144|237:111,1,87.9999904632568
348,240,42857,2,0,B|304:240|304:240|274:272,1,87.9999904632568,8|0
288,152,43199,2,0,B|308:96|308:96|335:90,1,87.9999904632568
224,232,43542,2,0,B|204:288|204:288|176:293,1,87.9999904632568,8|0
336,188,43885,6,0,B|432:168,1,87.9999904632568
444,192,44142,1,0
464,220,44228,2,0,B|412:292,1,87.9999904632568,8|0
300,284,44571,1,0
300,284,44657,1,0
300,284,44742,1,8
192,220,44914,1,0
192,220,44999,1,0
192,220,45085,1,8
256,296,45257,6,0,B|176:336|84:336,1,175.999980926514,4|8
48,192,45771,1,0
86,48,45942,2,0,B|176:48|256:88,1,175.999980926514,0|8
144,192,46457,1,0
56,192,46628,6,0,B|152:192,1,87.9999904632568
176,112,46971,2,0,B|256:148,1,87.9999904632568,8|0
176,272,47314,2,0,B|256:236,1,87.9999904632568,0|8
420,192,47657,2,0,B|324:192,1,87.9999904632568,8|0
280,128,47999,6,0,B|352:176|340:284,1,175.999980926514,0|8
216,336,48514,1,0
256,212,48685,2,0,B|184:164|196:56,1,175.999980926514,0|8
296,48,49199,1,0
296,48,49371,6,0,B|352:116,1,87.9999904632568
296,164,49714,2,0,B|208:164,2,87.9999904632568,8|0|8
256,244,50228,2,0,B|256:332,2,87.9999904632568,8|0|8
296,144,50742,6,0,B|224:96|128:96,1,175.999980926514,4|8
256,32,51257,1,0
216,144,51428,2,0,B|288:96|384:96,1,175.999980926514,0|8
256,32,51942,1,0
256,32,52114,6,0,B|256:120,1,87.9999904632568
168,264,52457,2,0,B|184:176,1,87.9999904632568,8|0
344,264,52799,2,0,B|328:176,1,87.9999904632568,0|8
212,336,53142,2,0,B|300:336,1,87.9999904632568,8|0
132,340,53485,6,0,B|64:284|48:188,1,175.999980926514,0|8
124,208,53999,1,0
124,88,54171,2,0,B|192:144|208:240,1,175.999980926514,0|8
48,189,54685,1,0
100,255,54857,6,0,B|144:255|144:255|176:224,1,87.9999904632568,4|2
251,192,55199,2,0,B|207:192|207:192|176:224,1,87.9999904632568,8|2
200,248,55457,1,0
224,272,55542,1,0
248,288,55628,1,0
272,312,55714,2,0,B|304:280|304:280|304:232,1,87.9999904632568,8|2
304,216,55971,1,0
304,192,56057,1,2
304,168,56142,1,0
304,144,56228,6,0,B|243:80|243:80|155:80,1,175.999980926514,4|8
256,352,56914,2,0,B|316:287|316:287|316:199,1,175.999980926514,0|8
208,264,57428,1,0
140,180,57599,2,0,B|96:180|96:180|52:188,2,87.9999904632568,0|0|8
172,100,58114,2,0,B|252:136,1,87.9999904632568
172,284,58457,2,0,B|252:248,1,87.9999904632568,0|8
320,192,58799,1,0
245,112,58971,6,0,B|204:128|180:168|180:168|92:168,1,175.999980926514,0|8
256,192,59485,1,0
420,216,59657,2,0,B|332:216|332:216|308:256|266:273,1,175.999980926514,0|8
256,192,60171,1,0
256,192,60342,6,0,B|216:172|192:132|192:132|152:156|104:156,1,175.999980926514,0|8
108,68,60857,1,0
28,136,61028,2,0,B|28:228,1,87.9999904632568,8|8
108,68,61371,2,0,B|108:160,1,87.9999904632568,0|8
200,64,61714,6,0,B|256:132|256:132|312:64,1,175.999980926514,0|8
348,144,62228,1,0
328,256,62399,1,0
256,168,62571,1,0
184,256,62742,1,8
164,144,62914,1,0
256,76,63085,6,0,B|256:252,1,175.999980926514,0|8
256,328,63599,1,0
312,228,63771,1,0
200,228,63942,1,8
356,172,64114,1,8
156,172,64285,1,0
256,116,64457,6,0,B|336:80,1,87.9999904632568
256,116,64799,2,0,B|176:80,1,87.9999904632568,8|0
256,116,65142,2,0,B|224:193|287:193|256:286,1,175.999980926514,0|8
255,287,65657,1,0
336,208,65828,6,0,B|360:244|360:244|360:288,1,87.9999904632568
332,312,66085,1,0
304,336,66171,1,8
196,304,66342,1,0
212,192,66514,1,0
212,192,66599,1,0
212,192,66685,2,0,B|304:192,1,87.9999904632568,8|0
300,192,66942,1,0
300,192,67028,1,8
172,72,67199,6,0,B|256:48|256:48|340:72,1,175.999980926514,0|8
216,136,67714,1,0
116,192,67885,1,0
176,292,68057,1,8
280,240,68228,1,8
216,136,68399,1,0
176,292,68571,6,0,B|260:316|260:316|344:292,1,175.999980926514,0|8
220,228,69085,1,0
120,172,69257,1,0
180,72,69428,1,0
284,124,69599,1,8
220,228,69771,1,0
180,72,69942,6,0,B|181:160|103:223,1,175.999980926514,0|8
72,128,70457,2,0,B|160:144|236:192,1,175.999980926514
256,36,70971,2,0,B|256:124,1,87.9999904632568,8|0
440,256,71314,6,0,B|352:240|276:192,1,175.999980926514,0|8
256,92,71828,1,0
180,152,71999,2,0,B|156:192|156:192|104:192,1,87.9999904632568,8|8
332,152,72342,2,0,B|356:192|356:192|408:192,1,87.9999904632568,0|8
363,70,72685,5,0
432,178,72857,1,0
325,248,73028,1,8
256,140,73199,1,0
148,70,73371,1,0
79,178,73542,1,0
186,248,73714,1,8
256,140,73885,1,0
432,176,74057,6,0,B|440:289,1,87.9999904632568
188,248,74399,2,0,B|196:296|196:296|236:336,1,87.9999904632568,8|0
324,248,74742,2,0,B|316:296|316:296|276:336,1,87.9999904632568,0|8
80,176,75085,2,0,B|71:289,1,87.9999904632568,8|0
176,192,75428,6,0,B|256:156|256:156|336:192,1,175.999980926514,0|8
256,260,75942,1,0
176,192,76114,2,0,B|116:192|116:192|80:168,1,87.9999904632568,0|0
336,192,76457,2,0,B|396:192|396:192|432:216,1,87.9999904632568,8|0
256,120,76799,6,0,B|256:28,2,87.9999904632568,4|2|8
360,160,77314,1,2
360,160,77399,1,0
360,160,77485,1,2
360,160,77571,1,0
360,160,77657,1,8
328,264,77828,5,2
216,224,77999,1,2
216,224,78085,1,0
216,224,78171,1,4
32,160,89142,6,0,B|112:120|112:120|200:120,1,175.999980926514
200,192,90171,1,2
200,264,90514,2,0,B|286:264|286:264|366:224,1,175.999980926514
368,136,91542,1,2
288,64,91885,6,0,B|284:152|220:224,1,175.999980926514
148,160,92914,1,2
216,96,93257,2,0,B|279:166|283:254,1,175.999980926514
368,224,94285,1,2
416,140,94628,6,0,B|488:196,1,87.9999904632568,0|2
80,176,95657,2,0,B|60:216|60:216|52:260,2,87.9999904632568,2|0|2
432,208,97028,6,0,B|452:168|452:168|460:124,2,87.9999904632568,2|0|2
196,88,98400,2,0,B|172:176,1,87.9999904632568
292,232,99085,2,0,B|300:320|300:320|308:336,2,87.9999904632568
296,144,100114,6,0,B|256:112|216:144,1,87.9999904632568
216,240,100457,2,0,B|256:272|296:240,1,87.9999904632568,8|0
208,120,100800,2,0,B|157:114|140:163,1,87.9999904632568
304,264,101142,2,0,B|354:269|371:220,1,87.9999904632568,8|0
96,128,101485,6,0,B|50:151|63:201,1,87.9999904632568
416,256,101828,2,0,B|461:232|448:182,1,87.9999904632568,8|0
40,216,102171,2,0,B|14:260|52:295,1,87.9999904632568
472,168,102514,2,0,B|497:123|459:88,1,87.9999904632568,8|0
213,225,102857,5,0
300,160,103028,1,0
149,160,103200,1,8
364,225,103371,1,0
172,282,103542,1,0
341,103,103714,1,0
104,256,103885,1,8
405,126,104057,1,0
376,104,104228,5,0
376,120,104314,1,0
376,136,104400,1,0
376,152,104485,1,0
376,168,104571,5,8
376,184,104657,1,0
376,200,104742,1,0
376,216,104828,1,0
376,232,104914,5,8
376,248,105000,1,0
376,264,105085,1,0
376,280,105171,1,0
376,296,105257,1,12
376,296,105600,6,0,B|288:272|288:272|256:192,1,175.999980926514,0|8
168,264,106114,1,0
80,192,106285,1,0
168,120,106457,1,0
256,192,106628,2,0,B|344:192,1,87.9999904632568,8|0
460,192,106971,6,0,B|452:104|452:104|380:48,1,175.999980926514,0|8
340,156,107485,1,0
256,44,107657,2,0,B|256:132,1,87.9999904632568,0|8
256,340,108000,2,0,B|256:252,1,87.9999904632568,8|0
52,192,108342,6,0,B|60:280|60:280|132:336,1,175.999980926514,0|8
172,228,108857,1,0
256,340,109028,2,0,B|256:252,1,87.9999904632568
256,44,109371,2,0,B|256:132,1,87.9999904632568,8|0
324,156,109714,6,0,B|364:136|376:88,1,87.9999904632568
188,228,110057,2,0,B|148:248|136:296,1,87.9999904632568,8|0
220,124,110400,2,0,B|200:84|152:72,1,87.9999904632568,8|8
292,260,110742,2,0,B|312:300|360:312,1,87.9999904632568,0|8
280,152,111085,6,0,B|227:223,1,87.9999904632568,4|0
359,311,111428,2,0,B|412:240,1,87.9999904632568,12|0
316,192,111771,1,0
359,72,111942,2,0,B|412:144,1,87.9999904632568,0|8
316,192,112285,2,0,B|228:192,1,87.9999904632568
68,192,112628,6,0,B|156:192,2,87.9999904632568,0|8|0
48,116,113142,1,0
136,116,113314,1,0
136,268,113485,1,8
48,268,113657,1,0
220,192,113828,5,0
256,84,114000,1,0
296,192,114171,1,8
256,300,114342,1,0
328,120,114514,2,0,B|368:136|368:136|392:176,1,87.9999904632568
184,264,114857,2,0,B|144:248|144:248|120:208,1,87.9999904632568,8|0
152,120,115200,6,0,B|240:136,1,87.9999904632568
256,160,115457,1,0
272,184,115542,2,0,B|360:200,1,87.9999904632568,8|0
180,216,115885,1,0
180,216,115971,1,0
180,216,116057,1,8
332,216,116228,1,0
332,216,116314,1,0
332,216,116400,1,8
168,148,116914,5,12
256,76,117085,1,0
344,148,117257,1,0
312,256,117428,1,0
196,256,117600,1,8
168,148,117771,1,0
344,148,117942,6,0,B|372:184|420:188,1,87.9999904632568
196,256,118285,2,0,B|150:250|113:281,1,87.9999904632568,8|0
256,76,118628,2,0,B|220:104|172:92,1,87.9999904632568,0|8
316,256,118971,2,0,B|361:250|398:281,1,87.9999904632568,8|0
132,192,119314,6,0,B|84:120|84:120|96:32,1,175.999980926514,0|8
188,100,119828,1,0
240,192,120000,2,0,B|324:172,1,87.9999904632568
252,272,120342,2,0,B|268:368,1,87.9999904632568,8|0
496,192,120685,6,0,B|480:286|412:342,1,175.999980926514,0|8
376,224,121200,1,0
376,224,121371,1,8
336,100,121542,1,8
256,204,121714,1,0
216,80,121885,1,8
296,304,122057,6,0,B|296:260|296:260|324:220,1,87.9999904632568,4|0
216,80,122400,2,0,B|216:124|216:124|188:164,1,87.9999904632568,12|0
92,316,122742,2,0,B|92:272|92:272|120:232,1,87.9999904632568
336,260,123085,2,0,B|320:220|320:220|284:192,1,87.9999904632568,8|0
128,148,123428,5,0
128,148,123600,1,0
200,260,123771,1,8
200,260,123942,1,0
312,124,124114,1,0
312,124,124285,1,0
384,236,124457,1,8
384,236,124628,1,0
256,192,124800,6,0,B|168:186|119:92,1,175.999980926514,0|8
160,240,125314,1,0
160,240,125485,2,0,B|160:152|228:80,1,175.999980926514,0|8
344,120,126000,1,0
256,192,126171,6,0,B|256:236|256:236|288:268,1,87.9999904632568,0|2
256,192,126514,2,0,B|300:192|300:192|332:160,1,87.9999904632568,8|2
292,128,126771,1,0
256,92,126857,1,0
220,128,126942,1,0
180,160,127028,2,0,B|212:192|212:192|256:192,1,87.9999904632568,8|2
256,232,127285,1,0
256,272,127371,1,2
256,312,127457,1,0
256,348,127542,6,0,B|344:352|344:352|430:336,1,175.999980926514,4|8
344,256,128057,1,0
448,272,128228,2,0,B|484:192|484:192|460:108,1,175.999980926514,0|8
344,128,128742,1,0
426,47,128914,6,0,B|340:32|340:32|252:36,1,175.999980926514,0|8
252,112,129428,2,0,B|296:188,1,87.9999904632568
184,160,129771,2,0,B|176:248,1,87.9999904632568,0|8
92,168,130114,1,0
76,24,130285,6,0,B|44:104|44:104|32:192,1,175.999980926514,0|8
436,360,130971,2,0,B|468:280|468:280|480:192,1,175.999980926514,0|8
380,192,131485,1,0
300,192,131657,6,0,B|300:280,1,87.9999904632568
212,192,132000,2,0,B|212:104,1,87.9999904632568,8|0
348,140,132342,1,8
372,232,132514,1,8
164,244,132685,1,0
140,152,132857,1,8
76,240,133028,6,0,B|84:152|136:76,1,175.999980926514,0|8
216,184,133542,1,0
256,56,133714,1,0
296,184,133885,1,0
400,104,134057,1,8
416,232,134228,1,0
328,328,134400,6,0,B|416:320|492:268,1,175.999980926514,0|8
360,240,134914,1,0
256,320,135085,1,0
256,184,135257,1,0
256,56,135428,1,8
144,120,135600,1,0
75,241,135771,6,0,B|48:68,1,175.999980926514,0|8
216,100,136285,1,0
72,244,136457,2,0,B|245:271,1,175.999980926514,0|8
216,100,136971,1,0
256,152,137142,6,0,B|256:64,2,87.9999904632568,4|2|8
224,232,137657,1,2
232,224,137742,1,0
240,216,137828,1,2
248,208,137914,1,0
256,200,138000,2,0,B|256:288,1,87.9999904632568,8|2
264,296,138257,1,0
272,304,138342,1,2
280,312,138428,1,2
288,320,138514,6,0,B|364:276|388:180,1,175.999980926514,0|8
320,104,139028,1,0
224,64,139200,2,0,B|148:108|124:204,1,175.999980926514,0|8
192,280,139714,1,0
288,320,139885,2,0,B|364:276|388:180,1,175.999980926514,0|8
320,104,140400,1,0
220,64,140571,2,0,B|132:80,2,87.9999904632568,0|8|8
224,192,141085,6,0,B|136:192,1,87.9999904632568
220,320,141428,2,0,B|132:304,2,87.9999904632568,0|8|0
352,348,141942,1,0
456,268,142114,1,0
396,192,142285,1,8
456,116,142457,1,0
352,36,142628,5,0
256,52,142800,2,0,B|256:140,1,87.9999904632568,0|8
196,204,143142,2,0,B|160:232|160:232|120:248,1,87.9999904632568,0|8
316,204,143485,2,0,B|352:232|352:232|392:248,2,87.9999904632568,8|0|8
256,104,144000,6,0,B|240:184|272:200|256:280,1,175.999980926514,0|8
256,352,144514,1,0
176,296,144685,2,0,B|140:268|92:280,1,87.9999904632568,0|8
336,296,145028,2,0,B|372:268|420:280,1,87.9999904632568,8|0
216,308,145371,6,0,B|127:308|127:308|43:332,1,175.999980926514,0|8
136,192,145885,1,0
216,76,146057,2,0,B|127:76|127:76|43:52,1,175.999980926514,0|8
136,192,146571,1,0
32,192,146742,5,0
61,333,146914,1,0
203,303,147085,1,8
174,160,147257,1,0
18,259,147428,1,0
126,329,147600,1,0
194,221,147771,1,8
89,151,147942,1,0
109,242,148114,6,0,B|195:225,1,87.9999904632568,0|2
194,223,148371,1,0
194,223,148457,2,0,B|289:275,1,87.9999904632568,8|2
271,266,148714,1,0
271,266,148800,2,0,B|300:356,1,87.9999904632568,8|8
186,338,149142,2,0,B|144:360,3,43.9999952316284,2|2|8|2
