osu file format v10

[General]
AudioFilename: Noisestorm - Afterburner.mp3
AudioLeadIn: 0
PreviewTime: 32958
Countdown: 0
SampleSet: Normal
StackLeniency: 0.7
Mode: 0
LetterboxInBreaks: 1

[Editor]
Bookmarks: 23363,87801,152277,175591
DistanceSpacing: 0.8
BeatDivisor: 4
GridSize: 8

[Metadata]
Title:Afterburner
TitleUnicode:Afterburner
Artist:Noisestorm
ArtistUnicode:Noisestorm
Creator:PandaRoflmao
Version:Flare
Source:
Tags:Noisestorm drum and bass dnb Eoin o Broin
BeatmapID:149746
BeatmapSetID:45351

[Difficulty]
HPDrainRate:7
CircleSize:5
OverallDifficulty:7
ApproachRate:9
SliderMultiplier:1.39999990463257
SliderTickRate:2

[Events]
//Background and Video events
0,0,"image-51689893-1024x768.jpg"
//Break Periods
2,59048,62534
2,77048,85848
//Storyboard Layer 0 (Background)
//Storyboard Layer 1 (Fail)
//Storyboard Layer 2 (Pass)
//Storyboard Layer 3 (Foreground)
//Storyboard Sound Samples
//Background Colour Transformations
3,100,192,192,192

[TimingPoints]
49,342.857142857143,4,1,0,100,1,0
391,-200,4,1,0,100,0,0
38106,-50,4,1,0,100,0,0
87820,-50,4,1,0,100,0,1
98791,-50,4,1,0,100,0,0
153649,-50,4,1,0,100,0,1
175591,-50,4,1,0,100,0,0

[Colours]
Combo1 : 128,255,255
Combo2 : 0,0,128
Combo3 : 0,80,159
Combo4 : 0,0,255

[HitObjects]
408,104,2105,1,8,0:0:0
456,204,2448,1,0,0:0:0
376,280,2791,1,8,0:0:0
64,64,3477,1,0,0:0:0
444,68,4163,5,8,0:0:0
136,288,4848,1,8,0:0:0
56,192,5191,1,8,0:0:0
96,80,5534,1,8,0:0:0
464,64,6220,5,8,0:0:0
256,64,6563,1,8,0:0:0
48,64,6906,1,0,0:0:0
436,192,7591,5,0,0:0:0
340,328,7934,1,8,0:0:0
256,192,8277,1,0,0:0:0
172,328,8620,1,8,0:0:0
76,192,8963,1,8,0:0:0
376,56,9648,5,8,0:0:0
328,176,10334,1,8,0:0:0
280,148,10677,1,0,0:0:0
248,100,11020,1,4,0:0:0
72,56,11706,5,0,0:0:0
72,84,11877,1,0,0:0:0
440,328,12734,1,0,0:0:0
440,300,12906,1,0,0:0:0
56,224,13420,6,0,B|64:221|379:285|63:29|489:197|386:136|473:179,1,419.99997138977
259,303,15820,1,8,0:0:0
256,80,16163,1,0,0:0:0
456,160,16506,2,0,B|448:163|133:99|449:355|23:187|126:248|39:205,1,419.99997138977,8|8,0:0|0:0,0:0:0
308,96,18906,1,0,0:0:0
256,96,19077,1,8,0:0:0
76,122,19420,5,0,0:0:0
56,144,19591,1,8,0:0:0
39,169,19763,1,0,0:0:0
31,194,19934,1,8,0:0:0
31,219,20106,1,8,0:0:0
39,243,20277,1,0,0:0:0
64,260,20449,1,8,0:0:0
89,268,20620,1,0,0:0:0
114,268,20791,1,8,0:0:0
138,268,20963,1,8,0:0:0
163,276,21134,1,8,0:0:0
192,285,21306,1,0,0:0:0
217,297,21477,1,0,0:0:0
246,309,21649,1,12,0:0:0
271,318,21820,1,0,0:0:0
299,326,21991,1,12,0:0:0
328,326,22163,5,8,0:0:0
357,318,22334,1,8,0:0:0
472,144,22677,1,8,0:0:0
256,64,23363,5,8,0:0:0
144,288,23706,1,8,0:0:0
376,128,23877,1,8,0:0:0
144,128,24220,1,8,0:0:0
376,288,24563,1,8,0:0:0
256,64,25249,5,0,0:0:0
320,120,26106,1,8,0:0:0
192,120,26449,1,0,0:0:0
144,184,26620,1,8,0:0:0
376,184,26963,1,0,0:0:0
56,184,27134,5,8,0:0:0
464,184,27306,1,8,0:0:0
256,296,27477,1,8,0:0:0
176,40,28849,6,0,B|136:40,1,34.9999976158142,0|0,0:0|0:0,0:0:0
336,40,29106,2,0,B|376:40,1,34.9999976158142,0|0,0:0|0:0,0:0:0
96,128,29363,6,0,B|72:128,1,17.4999988079071
413,128,29534,2,0,B|442:128,1,17.4999988079071,0|0,0:0|0:0,0:0:0
176,216,29706,5,0,0:0:0
256,90,29791,1,0,0:0:0
344,216,29877,1,0,0:0:0
256,192,29963,12,0,30734,0:0:0
256,192,31077,5,0,0:0:0
384,328,31591,1,0,0:0:0
420,288,31677,1,8,0:0:0
256,192,31849,1,0,0:0:0
116,104,32020,1,0,0:0:0
148,64,32106,1,8,0:0:0
480,192,32449,1,8,0:0:0
372,64,32791,5,4,0:0:0
344,48,32963,2,0,B|311:23|279:47,1,69.9999952316283
200,96,33649,1,0,0:0:0
120,24,33820,1,8,0:0:0
40,96,34163,1,0,0:0:0
40,212,34334,1,8,0:0:0
48,328,35020,5,8,0:0:0
80,296,35191,1,0,0:0:0
216,328,35534,1,0,0:0:0
184,296,35706,1,8,0:0:0
40,40,36049,1,8,0:0:0
181,40,36220,1,0,0:0:0
181,164,36391,1,8,0:0:0
322,164,36563,1,0,0:0:0
320,287,36734,1,8,0:0:0
461,287,36906,1,8,0:0:0
96,40,37077,1,8,0:0:0
96,176,37420,2,0,B|40:176|16:224|32:280,1,139.999995231628
192,96,38448,6,0,B|336:96,1,139.999995231628,8|0,0:0|0:0,0:0:0
140,264,38791,2,0,B|0:264,1,139.999995231628,8|0,0:0|0:0,0:0:0
224,336,39134,1,8,0:0:0
336,336,39306,1,8,0:0:0
424,264,39477,1,0,0:0:0
424,152,39648,1,8,0:0:0
352,64,39820,1,8,0:0:0
128,64,40163,5,0,0:0:0
64,160,40334,1,8,0:0:0
128,256,40506,1,0,0:0:0
240,256,40677,1,8,0:0:0
304,160,40848,1,0,0:0:0
240,64,41020,1,8,0:0:0
116,56,41191,5,0,0:0:0
108,96,41277,1,0,0:0:0
124,128,41363,1,0,0:0:0
156,152,41448,1,0,0:0:0
196,160,41534,1,8,0:0:0
236,160,41620,1,0,0:0:0
276,160,41706,5,0,0:0:0
316,160,41792,1,8,0:0:0
356,152,41878,1,0,0:0:0
388,128,41963,1,0,0:0:0
404,96,42049,1,0,0:0:0
396,56,42135,1,0,0:0:0
256,343,42220,5,8,0:0:0
256,292,42306,1,0,0:0:0
256,291,42391,1,8,0:0:0
256,241,42477,1,0,0:0:0
164,252,42563,2,0,B|164:40|164:40|340:252|340:252|340:40|340:40,1,699.999976158142
256,184,43506,2,0,B|176:200|176:120|256:80|320:104|360:184|328:280|192:232,1,349.999988079071
329,36,44106,6,4,B|297:36|257:36|217:28|185:52,1,139.999995231628
192,48,44448,2,0,B|169:60|160:96|161:124|185:140|217:156,1,139.999995231628
216,155,44791,2,0,B|257:171|305:187|352:232,1,139.999995231628
338,220,45048,2,0,B|367:247|359:287,1,69.9999976158142
360,284,45306,2,0,B|360:331|304:355|256:352|208:352|248:347,1,139.999995231628
251,351,45563,2,0,B|176:352,1,69.9999976158142,0|8,0:0|0:0,0:0:0
128,248,45820,5,0,0:0:0
24,192,45991,1,8,0:0:0
104,112,46163,1,8,0:0:0
216,152,46334,5,0,0:0:0
280,136,46420,1,8,0:0:0
440,80,46591,1,0,0:0:0
400,56,46677,1,8,0:0:0
384,104,46763,1,0,0:0:0
352,57,46848,2,8,B|384:64|328:40|320:64|312:64|336:104|304:104|320:120|296:112|296:112|304:136|264:136,1,139.999995231628
256,208,47191,1,0,0:0:0
256,256,47277,1,0,0:0:0
256,304,47363,1,8,0:0:0
304,328,47534,1,8,0:0:0
208,328,47706,1,8,0:0:0
472,40,48048,5,0,0:0:0
376,112,48220,1,8,0:0:0
272,184,48391,1,0,0:0:0
152,256,48563,1,0,0:0:0
296,304,48734,5,8,0:0:0
344,320,48820,1,8,0:0:0
392,304,48906,1,8,0:0:0
472,232,49077,1,0,0:0:0
392,144,49248,1,8,0:0:0
344,128,49334,1,8,0:0:0
296,144,49420,1,0,0:0:0
160,112,49591,5,0,0:0:0
40,184,49763,2,0,B|96:312|96:312,3,139.999995231628
128,80,50448,2,0,B|168:160,2,69.9999976158142
312,80,50791,6,0,B|360:32|416:24|416:24|480:40|512:144,1,279.999990463257
256,308,51306,1,8,0:0:0
200,80,51477,2,0,B|152:32|96:24|96:24|32:40|0:144,1,279.999990463257
472,336,52163,6,0,B|464:328|464:328|456:336|456:336|448:328|448:328|440:336|440:336|432:328|432:328|424:336|424:336|416:320|416:320|400:320|400:320|392:304|392:304|384:312|384:312|376:304|376:304|368:312|368:312|368:296,1,139.999995231628,0|8,0:0|0:0,0:0:0
256,272,52506,1,8,0:0:0
144,304,52677,2,0,B|136:312|136:312|128:304|128:304|120:312|120:312|112:304|112:304|104:312|104:312|96:304|96:304|88:320|88:320|72:320|72:320|64:336|64:336|56:328|56:328|48:336|48:336|40:328|40:328|40:344,1,139.999995231628,0|8,0:0|0:0,0:0:0
32,240,53020,1,0,0:0:0
88,160,53191,2,8,B|26:129|26:129|90:97,1,139.999995231628
176,56,53534,5,0,0:0:0
216,80,53620,1,8,0:0:0
256,112,53706,1,8,0:0:0
296,80,53791,1,0,0:0:0
336,56,53877,1,8,0:0:0
392,56,53963,2,8,B|416:56|440:72|440:104,1,69.9999976158142,8|0,0:0|0:0,0:0:0
408,136,54134,1,8,0:0:0
424,208,54306,2,0,B|432:200|432:216|440:208|440:224|448:216|448:232|448:232|456:224|456:240|464:232|464:232|464:248,2,69.9999976158142
464,248,54563,1,0,0:0:0
376,312,54734,5,0,0:0:0
352,320,54820,1,0,0:0:0
320,336,54906,1,8,0:0:0
216,336,54991,1,8,0:0:0
176,336,55077,2,8,B|152:336|112:328|96:288|112:312,1,69.9999976158142
40,248,55420,1,0,0:0:0
112,184,55677,2,0,B|136:176|136:176|136:128,1,69.9999976158142
136,56,55934,1,4,0:0:0
240,56,56106,1,0,0:0:0
280,56,56191,1,8,0:0:0
320,56,56277,1,8,0:0:0
448,72,56448,5,0,0:0:0
416,96,56534,1,8,0:0:0
448,128,56620,1,8,0:0:0
424,160,56706,1,8,0:0:0
456,192,56791,1,8,0:0:0
420,232,57048,1,8,0:0:0
452,272,57134,1,8,0:0:0
408,324,57220,2,0,B|344:240|280:424|212:240|136:327,1,279.999990463257
64,283,57820,5,0,0:0:0
34,261,57906,1,0,0:0:0
64,232,57991,1,0,0:0:0
93,261,58077,1,0,0:0:0
144,176,58334,1,0,0:0:0
95,123,58506,1,8,0:0:0
64,100,58591,1,8,0:0:0
56,138,58677,1,0,0:0:0
128,48,58848,1,0,0:0:0
400,256,63134,5,0,0:0:0
405,144,63306,1,8,0:0:0
464,48,63477,1,0,0:0:0
340,48,63648,2,0,B|200:48,1,139.999995231628,0|8,0:0|0:0,0:0:0
240,136,63991,5,0,0:0:0
264,216,64163,1,8,0:0:0
296,304,64334,1,8,0:0:0
183,331,64506,1,0,0:0:0
142,318,64591,1,8,0:0:0
111,285,64677,1,0,0:0:0
95,238,64763,1,0,0:0:0
102,191,64848,1,8,0:0:0
256,192,65020,12,0,65877,0:0:0
312,312,66048,5,0,0:0:0
410,326,66220,1,8,0:0:0
456,296,66306,1,8,0:0:0
478,249,66391,1,0,0:0:0
512,144,66563,1,0,0:0:0
456,72,66734,1,8,0:0:0
412,55,66820,1,8,0:0:0
368,48,66906,1,0,0:0:0
288,48,67077,1,0,0:0:0
268,124,67248,6,8,B|236:124|228:156|268:156,1,69.9999976158142
252,200,67420,1,8,0:0:0
256,272,67591,2,8,B|269:321|214:329,1,69.9999976158142
200,336,67763,1,8,0:0:0
112,352,67934,1,8,0:0:0
32,320,68106,1,8,0:0:0
0,248,68277,1,0,0:0:0
0,160,68448,1,0,0:0:0
24,80,68620,1,0,0:0:0
64,48,68706,1,0,0:0:0
104,32,68791,6,8,B|152:26|152:26|174:37,1,69.9999976158142
216,40,68963,1,8,0:0:0
304,72,69134,1,8,0:0:0
384,32,69306,1,8,0:0:0
472,64,69477,1,0,0:0:0
496,144,69648,2,0,B|520:184|520:232|504:296|464:336|368:328,1,279.999990463257
344,296,70077,2,0,B|288:168,1,139.999990463257
272,200,70334,2,0,B|232:336,1,139.999990463257
192,320,70591,2,0,B|144:264,1,69.9999952316285
120,296,70763,2,0,B|88:368,1,69.9999952316285
88,184,71020,2,0,B|81:199|65:231|96:264|128:264|161:231|128:172|112:172|104:172|104:172,1,139.999995231628
48,80,71363,1,0,0:0:0
48,80,72734,6,0,B|328:80,1,279.999990463257
464,152,73420,2,0,B|184:152,1,279.999990463257
256,192,74106,5,0,0:0:0
256,46,74277,5,8,0:0:0
256,192,74448,5,0,0:0:0
104,192,74620,5,8,0:0:0
256,192,74791,5,0,0:0:0
256,337,74963,5,8,0:0:0
256,192,75134,5,8,0:0:0
401,192,75306,5,8,0:0:0
104,192,75477,5,0,0:0:0
104,192,75563,1,8,0:0:0
104,192,75649,1,8,0:0:0
256,48,75820,1,8,0:0:0
400,192,75991,1,8,0:0:0
400,192,76077,1,8,0:0:0
400,192,76163,1,0,0:0:0
256,48,76334,1,0,0:0:0
128,224,76506,1,0,0:0:0
186,261,76591,1,0,0:0:0
254,274,76677,1,0,0:0:0
323,262,76763,1,0,0:0:0
382,225,76848,1,0,0:0:0
256,192,86448,12,4,87477,0:0:0
232,184,87648,5,4,0:0:0
112,200,87820,2,0,B|176:168|176:136|112:104,2,139.999995231628
112,264,88248,2,0,B|160:328|208:384|264:296|320:200|432:304,1,349.999988079071
256,145,88849,6,0,B|288:66|256:-12,1,139.999995231628,0|8,0:0|0:0,0:0:0
256,238,89191,6,0,B|223:317|256:396,1,139.999995231628,0|8,0:0|0:0,0:0:0
220,161,89534,6,0,B|180:86|99:59,1,139.999995231628,0|8,0:0|0:0,0:0:0
290,220,89877,6,0,B|330:296|411:323,1,139.999995231628,0|8,0:0|0:0,0:0:0
209,191,90220,6,8,B|130:159|50:191,1,139.999995231628
302,191,90563,6,0,B|381:159|460:191,1,139.999995231628,0|8,0:0|0:0,0:0:0
225,227,90906,6,8,B|150:267|123:348,1,139.999995231628
286,156,91249,6,0,B|361:116|388:35,1,139.999995231628,0|8,0:0|0:0,0:0:0
256,238,91591,6,8,B|223:317|256:396,1,139.999995231628
256,145,91934,6,0,B|288:66|256:-12,1,139.999995231628,0|8,0:0|0:0,0:0:0
448,332,92277,6,0,B|448:192,1,139.999995231628,0|8,0:0|0:0,0:0:0
376,52,92620,2,0,B|376:192,1,139.999995231628,0|8,0:0|0:0,0:0:0
304,332,92963,2,8,B|304:192,1,139.999995231628
256,96,93306,5,4,0:0:0
152,128,93477,1,8,0:0:0
128,176,93563,1,8,0:0:0
152,224,93649,1,0,0:0:0
256,264,93820,1,0,0:0:0
360,224,93991,1,8,0:0:0
384,176,94077,1,8,0:0:0
360,128,94163,1,8,0:0:0
256,96,94334,1,0,0:0:0
256,208,94506,1,8,0:0:0
224,256,94591,1,8,0:0:0
288,256,94677,1,0,0:0:0
352,160,94849,6,0,B|378:161|142:161|142:17,2,279.999990463257,8|0|8,0:0|0:0|0:0,0:0:0
408,256,95706,1,0,0:0:0
336,344,95877,1,0,0:0:0
232,312,96049,1,0,0:0:0
312,240,96220,1,0,0:0:0
336,192,96306,1,0,0:0:0
320,136,96391,1,8,0:0:0
432,128,96563,5,0,0:0:0
456,240,96734,1,8,0:0:0
360,304,96906,1,8,0:0:0
312,336,96991,1,8,0:0:0
256,344,97077,1,8,0:0:0
200,336,97163,1,8,0:0:0
152,304,97249,1,8,0:0:0
200,224,97420,6,0,B|160:192|160:192|200:168|200:168|160:136|160:136,2,139.999995231628,8|8|0,0:0|0:0|0:0,0:0:0
312,224,97934,2,0,B|352:192|352:192|312:168|312:168|352:136|352:136,2,139.999995231628,8|8|0,0:0|0:0|0:0,0:0:0
256,128,98449,1,12,0:0:0
312,224,98620,1,4,0:0:0
200,224,98791,1,4,0:0:0
