osu file format v13

[General]
AudioFilename: Nogizaka46 - Yubi Bouenkyou (TV size).mp3
AudioLeadIn: 1200
PreviewTime: 44717
Countdown: 0
SampleSet: Soft
StackLeniency: 0.7
Mode: 0
LetterboxInBreaks: 0
WidescreenStoryboard: 0

[Editor]
DistanceSpacing: 0.8
BeatDivisor: 2
GridSize: 4
TimelineZoom: 1

[Metadata]
Title:Yubi Bouenkyou~Anime Ban~
TitleUnicode:指望遠鏡~アニメ版~
Artist:Nogizaka46
ArtistUnicode:乃木坂46
Creator:IamKwaN
Version:Normal
Source:Magi: The Labyrinth of Magic
Tags:KwaN yf_bmp ending tv size マギ A1P A-1 Pictures Aniplex
BeatmapID:470316
BeatmapSetID:70589

[Difficulty]
HPDrainRate:4
CircleSize:3.5
OverallDifficulty:4
ApproachRate:5
SliderMultiplier:1.2
SliderTickRate:1

[Events]
//Background and Video events
Video,522,"Video.avi"
0,0,"BG.jpg",0,0
//Break Periods
//Storyboard Layer 0 (Background)
//Storyboard Layer 1 (Fail)
//Storyboard Layer 2 (Pass)
//Storyboard Layer 3 (Foreground)
//Storyboard Sound Samples
//Background Colour Transformations
3,100,163,162,255

[TimingPoints]
1551,333.333333333333,4,2,88,40,1,0
1551,-133.333333333333,4,2,88,40,0,0
5550,-133.333333333333,4,2,88,50,0,0
5717,-133.333333333333,4,2,88,40,0,0
6884,-133.333333333333,4,2,88,5,0,0
8217,-100,4,2,1,80,0,0
10550,-100,4,2,88,80,0,0
10884,-100,4,2,1,80,0,0
22717,-100,4,2,1,60,0,0
23050,-100,4,2,1,80,0,0
34884,-133.333333333333,4,2,1,80,0,0
38884,-133.333333333333,4,2,1,70,0,0
39884,-133.333333333333,4,2,1,50,0,0
40217,-133.333333333333,4,2,1,70,0,0
42884,-100,4,2,1,70,0,0
44550,-100,4,2,1,60,0,0
44717,-100,4,2,1,70,0,0
45550,-100,4,2,88,80,0,1
56134,-100,4,2,88,80,0,0
56217,-100,4,2,88,80,0,1
66050,-100,4,2,88,50,0,1
66384,-100,4,2,88,60,0,1
66717,-100,4,2,88,70,0,1
66884,-100,4,2,1,60,0,0
82884,-133.333333333333,4,2,1,40,0,0
84217,-133.333333333333,4,2,1,30,0,0
85384,-133.333333333333,4,2,1,20,0,0
85884,-133.333333333333,4,2,1,15,0,0
86217,-133.333333333333,4,2,1,10,0,0
86717,-133.333333333333,4,2,1,5,0,0

[Colours]
Combo1 : 251,102,170
Combo2 : 66,170,231
Combo3 : 254,239,110

[HitObjects]
333,114,1551,6,0,P|370:191|332:272,1,180.000006866455,2|2,0:0|0:0,0:0:0:0:
255,295,2550,2,0,L|165:308,1,90.0000034332277,0|2,0:0|0:0,0:0:0:0:
44,200,3550,2,0,L|134:213,1,90.0000034332277,2|0,0:0|0:0,0:0:0:0:
208,183,4217,6,0,B|240:127|205:81|205:81|240:91|271:62,1,180.000006866455,2|2,0:0|0:0,0:0:0:0:
349,43,5217,2,0,L|439:59,1,90.0000034332277,0|2,0:0|0:0,0:0:0:0:
256,192,5717,12,0,6884,0:0:0:0:
202,285,8217,6,0,L|321:264,1,120,4|8,0:0|0:0,0:0:0:0:
367,255,8717,2,0,P|393:201|373:146,1,120,4|0,0:0|0:0,0:0:0:0:
318,68,9384,2,0,P|262:79|203:60,2,120,4|0|4,0:0|0:0|0:0,0:0:0:0:
411,47,10384,2,0,L|470:54,1,60,0|8,1:0|0:3,0:0:0:0:
472,150,10884,6,0,L|456:269,1,120,4|8,0:0|0:0,0:0:0:0:
422,303,11384,2,0,P|369:324|318:293,1,120,4|4,0:0|0:0,0:0:0:0:
241,236,12050,2,0,P|185:221|133:250,1,120,4|4,0:0|0:0,0:0:0:0:
62,313,12717,1,4,0:0:0:0:
34,221,13050,2,0,L|25:162,1,60,0|8,1:0|0:0,0:0:0:0:
120,160,13550,6,0,L|137:42,1,120,4|8,0:0|0:0,0:0:0:0:
224,82,14217,2,0,L|230:142,2,60,8|8|8,0:1|0:1|0:0,0:0:0:0:
315,51,14884,2,0,L|436:63,1,120,8|8,0:1|0:0,0:0:0:0:
474,149,15550,2,0,L|468:209,2,60,8|8|8,0:1|0:1|0:0,0:0:0:0:
378,139,16217,6,0,L|258:128,1,120,8|8,0:1|0:0,0:0:0:0:
183,67,16884,2,0,L|172:6,2,60,8|8|8,0:1|0:1|0:0,0:0:0:0:
93,100,17550,2,0,L|80:219,1,120,0|8,0:0|0:0,0:0:0:0:
166,177,18217,2,0,L|153:296,1,120,8|8,0:1|0:0,0:0:0:0:
239,253,18884,6,0,L|226:372,1,120,8|8,0:1|0:0,0:0:0:0:
320,353,19550,2,0,L|379:367,2,60,8|8|8,0:1|0:1|0:0,0:0:0:0:
326,257,20217,2,0,L|339:138,1,120,8|8,0:1|0:0,0:0:0:0:
389,55,20884,2,0,L|448:46,2,60,8|8|8,0:1|0:1|0:0,0:0:0:0:
294,69,21550,6,0,B|237:87|237:87|177:79,1,120,8|8,0:1|0:0,0:0:0:0:
82,64,22217,2,0,P|161:120|153:194,1,180,8|4,0:1|0:0,0:0:0:0:
221,261,23050,1,2,0:0:0:0:
221,261,23217,2,0,L|339:238,2,120,8|0|8,0:0|0:0|0:0,0:0:0:0:
285,332,24217,6,0,L|403:309,1,120,4|8,0:0|0:0,0:0:0:0:
452,226,24884,2,0,L|512:234,2,60,8|8|8,0:1|0:1|0:0,0:0:0:0:
400,144,25550,2,0,L|388:24,1,120,8|8,0:1|0:0,0:0:0:0:
312,83,26217,2,0,L|305:18,2,60,8|8|8,0:1|0:1|0:0,0:0:0:0:
241,148,26884,6,0,P|190:176|128:167,1,120,8|8,0:1|0:0,0:0:0:0:
50,115,27550,2,0,L|41:51,2,60,8|8|8,0:1|0:1|0:0,0:0:0:0:
39,210,28217,1,8,0:1:0:0:
94,288,28550,1,8,0:0:0:0:
181,327,28884,2,0,L|241:335,2,60,8|8|8,0:1|0:1|0:0,0:0:0:0:
94,288,29550,6,0,P|85:233|121:182,1,120,8|8,0:1|0:0,0:0:0:0:
206,139,30217,2,0,L|266:131,2,60,8|8|8,0:1|0:1|0:0,0:0:0:0:
245,226,30884,2,0,B|327:211|327:211|348:182,1,120,8|8,0:1|0:0,0:0:0:0:
427,126,31550,2,0,L|487:132,2,60,8|8|8,0:1|0:1|0:0,0:0:0:0:
444,31,32217,6,0,P|384:37|343:77,1,120,8|8,0:1|0:0,0:0:0:0:
263,130,32884,2,0,L|201:120,2,60,8|8|8,0:1|0:1|0:0,0:0:0:0:
297,163,33384,1,4,0:0:0:0:
306,258,33717,1,0,0:0:0:0:
364,334,34050,2,0,P|399:284|397:227,2,120,2|8|8,0:0|0:0|0:1,0:0:0:0:
320,355,34884,5,4,0:0:0:0:
221,342,35217,1,0,0:0:0:0:
153,269,35550,2,0,L|64:280,2,90.0000034332277,8|0|0,0:0|0:0|0:0,0:0:0:0:
172,171,36550,1,0,0:0:0:0:
230,91,36884,1,8,0:0:0:0:
327,75,37217,1,8,0:1:0:0:
411,125,37550,6,0,L|400:214,1,90.0000034332277,12|8,0:0|0:1,0:0:0:0:
322,275,38217,2,0,L|311:185,1,90.0000034332277,12|8,0:0|0:1,0:0:0:0:
228,239,38884,2,0,L|222:283,1,45.0000017166138,8|8,0:0|0:0,0:0:0:0:
136,312,39384,2,0,L|141:356,2,45.0000017166138,0|8|0,0:0|0:0|0:0,0:0:0:0:
98,287,39884,1,4,0:3:0:0:
22,237,40217,5,4,0:0:0:0:
74,153,40550,2,0,P|118:153|160:138,1,90.0000034332277,8|8,0:0|0:1,0:0:0:0:
250,95,41217,2,0,P|294:87|337:95,1,90.0000034332277,8|8,0:0|0:1,0:0:0:0:
438,96,41884,1,8,0:0:0:0:
437,194,42217,2,0,P|438:238|418:280,1,90.0000034332277,8|8,0:1|0:0,0:0:0:0:
331,335,42884,5,4,0:0:0:0:
244,294,43217,1,8,0:0:0:0:
244,294,43384,2,0,P|221:241|242:186,1,120,4|0,0:0|0:0,0:0:0:0:
203,157,43884,2,0,L|142:157,1,60,8|4,0:0|0:0,0:0:0:0:
92,74,44384,2,0,L|31:74,2,60,0|8|8,0:0|0:0|0:0,0:0:0:0:
278,225,45550,6,0,L|399:225,1,120,4|8,0:0|0:0,0:0:0:0:
360,313,46217,2,0,L|241:313,1,120,10|8,0:1|0:0,0:0:0:0:
150,278,46884,1,10,0:1:0:0:
150,278,47217,1,8,0:0:0:0:
113,189,47550,2,0,L|125:69,1,120,10|8,0:1|0:0,0:0:0:0:
204,15,48217,5,10,0:1:0:0:
282,69,48550,2,0,L|294:189,1,120,8|10,0:0|0:1,0:0:0:0:
367,250,49217,1,8,0:0:0:0:
316,331,49550,2,0,P|260:357|203:342,1,120,10|8,0:1|0:0,0:0:0:0:
122,294,50217,1,10,0:1:0:0:
122,294,50550,1,8,0:0:0:0:
106,199,50884,6,0,L|101:79,1,120,10|8,0:1|0:0,0:0:0:0:
191,109,51550,1,10,0:1:0:0:
282,138,51884,2,0,L|277:18,1,120,8|10,0:0|0:1,0:0:0:0:
365,54,52550,2,0,L|370:174,2,120,8|10|8,0:0|0:1|0:0,0:0:0:0:
455,86,53550,5,10,0:1:0:0:
460,182,53884,1,8,0:0:0:0:
400,256,54217,1,10,0:1:0:0:
405,352,54550,1,8,0:0:0:0:
320,307,54884,2,0,L|200:314,1,120,10|8,0:1|0:0,0:0:0:0:
117,266,55550,2,0,L|56:262,2,60,10|8|8,0:1|0:0|0:0,0:0:0:0:
187,200,56217,6,0,P|183:140|207:86,1,120,4|8,0:0|0:0,0:0:0:0:
303,86,56884,2,0,P|326:140|323:199,1,120,10|8,0:1|0:0,0:0:0:0:
395,266,57550,1,10,0:1:0:0:
452,342,57884,2,0,P|393:362|338:341,1,120,8|10,0:0|0:1,0:0:0:0:
256,295,58550,1,8,0:0:0:0:
178,352,58884,5,10,0:1:0:0:
101,295,59217,1,8,0:0:0:0:
131,204,59550,1,10,0:1:0:0:
227,203,59884,1,8,0:0:0:0:
262,114,60217,2,0,P|319:128|374:106,1,120,10|8,0:1|0:0,0:0:0:0:
464,69,60884,1,10,0:1:0:0:
453,164,61217,1,8,0:0:0:0:
373,220,61550,6,0,L|349:339,1,120,4|8,0:0|0:0,0:0:0:0:
256,365,62217,1,10,0:1:0:0:
162,337,62550,2,0,L|139:220,1,120,8|10,0:0|0:1,0:0:0:0:
203,148,63217,2,0,P|256:122|309:148,2,120,8|10|8,0:0|0:1|0:0,0:0:0:0:
123,202,64217,6,0,L|63:197,2,60,4|0|8,0:0|0:0|0:0,0:0:0:0:
161,230,64717,2,0,P|160:291|192:338,1,120,4|0,0:0|0:0,0:0:0:0:
237,355,65217,1,4,0:0:0:0:
257,261,65550,2,0,L|256:142,1,120,10|8,0:1|0:0,0:0:0:0:
316,66,66217,2,0,P|348:115|347:174,1,120,8|8,0:0|0:0,0:0:0:0:
365,268,66884,5,12,0:0:0:0:
323,354,67217,1,8,0:0:0:0:
232,322,67550,2,0,L|111:307,1,120,8|8,0:0|0:0,0:0:0:0:
65,224,68217,2,0,L|186:209,1,120,8|8,0:0|0:0,0:0:0:0:
261,151,68884,1,8,0:0:0:0:
261,151,69217,1,8,0:0:0:0:
338,93,69550,6,0,P|394:78|450:97,1,120,8|8,0:0|0:0,0:0:0:0:
496,181,70217,2,0,P|481:237|435:277,1,120,8|8,0:0|0:0,0:0:0:0:
340,278,70884,2,0,P|298:237|286:177,1,120,8|8,0:0|0:0,0:0:0:0:
338,93,71550,1,8,0:0:0:0:
338,93,71884,1,8,0:0:0:0:
245,68,72217,6,0,L|125:83,1,120,8|8,0:0|0:0,0:0:0:0:
63,156,72884,1,8,0:0:0:0:
63,156,73217,1,8,0:0:0:0:
135,218,73550,2,0,L|255:233,1,120,8|8,0:0|0:0,0:0:0:0:
235,327,74217,2,0,L|355:312,1,120,8|8,0:0|0:0,0:0:0:0:
424,246,74884,5,8,0:0:0:0:
424,246,75217,1,8,0:0:0:0:
444,152,75550,2,0,L|431:33,1,120,8|8,0:0|0:0,0:0:0:0:
337,55,76217,2,0,L|324:174,1,120,8|8,0:0|0:0,0:0:0:0:
256,241,76884,1,8,0:0:0:0:
256,241,77217,1,8,0:0:0:0:
190,170,77550,6,0,P|136:140|82:152,2,120,4|8|8,0:0|0:0|0:0,0:0:0:0:
256,241,78550,1,8,0:0:0:0:
256,241,78884,1,8,0:0:0:0:
322,310,79217,2,0,P|376:340|430:328,1,120,8|8,0:0|0:0,0:0:0:0:
487,250,79884,1,8,0:0:0:0:
465,156,80217,6,0,L|478:35,2,120,8|8|8,0:0|0:0|0:0,0:0:0:0:
388,214,81217,1,8,0:0:0:0:
292,211,81550,1,8,0:0:0:0:
242,128,81884,1,8,0:0:0:0:
164,71,82217,2,0,B|69:92|69:92|55:111,1,120,8|8,0:0|0:0,0:0:0:0:
65,205,82884,5,2,0:0:0:0:
210,330,83550,1,2,0:0:0:0:
387,256,84217,1,2,0:0:0:0:
395,160,84550,2,0,L|399:113,2,45.0000017166138,2|0|2,0:0|0:0|0:0,0:0:0:0:
387,256,85217,2,0,L|383:303,1,45.0000017166138,0|2,0:0|0:0,0:0:0:0:
256,192,85550,12,0,86717,0:0:0:0:
