osu file format v13

[General]
AudioFilename: Nogizaka46 - Yubi Bouenkyou (TV size).mp3
AudioLeadIn: 1200
PreviewTime: 44717
Countdown: 0
SampleSet: Soft
StackLeniency: 0.7
Mode: 0
LetterboxInBreaks: 0
WidescreenStoryboard: 0

[Editor]
DistanceSpacing: 1.6
BeatDivisor: 4
GridSize: 8
TimelineZoom: 1.5

[Metadata]
Title:Yubi Bouenkyou~Anime Ban~
TitleUnicode:指望遠鏡~アニメ版~
Artist:Nogizaka46
ArtistUnicode:乃木坂46
Creator:IamKwaN
Version:Insane
Source:Magi: The Labyrinth of Magic
Tags:KwaN yf_bmp ending tv size マギ A1P A-1 Pictures Aniplex
BeatmapID:470315
BeatmapSetID:70589

[Difficulty]
HPDrainRate:7
CircleSize:4
OverallDifficulty:7
ApproachRate:9
SliderMultiplier:1.8
SliderTickRate:1

[Events]
//Background and Video events
Video,522,"Video.avi"
0,0,"BG.jpg",0,0
//Break Periods
//Storyboard Layer 0 (Background)
//Storyboard Layer 1 (Fail)
//Storyboard Layer 2 (Pass)
//Storyboard Layer 3 (Foreground)
//Storyboard Sound Samples
//Background Colour Transformations
3,100,163,162,255

[TimingPoints]
1551,333.333333333333,4,2,88,40,1,0
1551,-200,4,2,88,40,0,0
5550,-200,4,2,88,50,0,0
5634,-200,4,2,88,40,0,0
6550,-200,4,2,88,45,0,0
7550,-200,4,2,88,50,0,0
7717,-200,4,2,88,60,0,0
7884,-100,4,2,1,80,0,0
10550,-100,4,2,88,80,0,0
10884,-100,4,2,1,80,0,0
22717,-100,4,2,1,60,0,0
23050,-100,4,2,1,80,0,0
34884,-133.333333333333,4,2,1,80,0,0
38884,-133.333333333333,4,2,1,70,0,0
39884,-133.333333333333,4,2,1,50,0,0
40050,-133.333333333333,4,2,1,70,0,0
40217,-111.111111111111,4,2,1,70,0,0
44550,-111.111111111111,4,2,1,60,0,0
44717,-111.111111111111,4,2,1,70,0,0
44884,-200,4,2,1,50,0,0
45550,-100,4,2,88,80,0,1
56134,-100,4,2,88,80,0,0
56217,-100,4,2,88,80,0,1
66050,-100,4,2,88,50,0,1
66384,-100,4,2,88,60,0,1
66717,-100,4,2,88,70,0,1
66884,-111.111111111111,4,2,1,60,0,0
82217,-125,4,2,1,50,0,0
82884,-166.666666666667,4,2,1,40,0,0
84217,-200,4,2,1,30,0,0
85467,-200,4,2,1,20,0,0
85884,-200,4,2,1,15,0,0
86217,-200,4,2,1,10,0,0
86717,-200,4,2,1,5,0,0

[Colours]
Combo1 : 251,102,170
Combo2 : 66,170,231
Combo3 : 254,239,110

[HitObjects]
339,153,884,5,2,0:0:0:0:
339,153,1217,1,0,0:0:0:0:
353,64,1551,5,2,0:0:0:0:
423,120,1884,1,0,0:0:0:0:
407,209,2217,1,2,0:0:0:0:
324,242,2550,1,0,0:0:0:0:
253,186,2884,2,0,L|245:94,1,90,2|0,0:0|0:0,0:0:0:0:
133,275,3550,5,2,0:0:0:0:
133,275,3884,1,0,0:0:0:0:
98,358,4217,5,2,0:0:0:0:
44,287,4550,1,0,0:0:0:0:
80,204,4884,1,2,0:0:0:0:
170,192,5217,1,0,0:0:0:0:
225,264,5550,1,2,0:0:0:0:
256,192,5634,12,0,7550,0:0:0:0:
368,114,7717,5,0,1:0:0:0:
368,114,7800,1,0,0:0:0:0:
368,114,7884,1,8,0:0:0:0:
368,114,8217,6,0,P|355:158|367:201,1,90,4|0,0:0|0:0,0:0:0:0:
432,283,8550,1,8,0:0:0:0:
296,296,8717,2,0,B|242:334|179:309|179:309|173:338|192:364,1,180,4|0,0:0|0:0,0:0:0:0:
228,217,9217,1,8,0:0:0:0:
345,370,9384,6,0,P|382:286|340:215,1,180,4|0,0:0|0:0,0:0:0:0:
272,153,9884,1,8,0:0:0:0:
104,168,10050,2,0,L|239:155,1,135,4|0,0:0|0:0,0:0:0:0:
272,153,10384,1,0,1:0:0:0:
408,67,10550,1,8,0:3:0:0:
408,67,10884,5,4,0:0:0:0:
410,192,11050,2,0,L|398:281,1,90,0|8,0:0|0:0,0:0:0:0:
302,364,11384,2,0,P|275:328|272:282,1,90,4|0,0:0|0:0,0:0:0:0:
354,136,11717,2,0,P|315:158|272:153,1,90,4|8,0:0|0:0,0:0:0:0:
141,82,12050,2,0,L|230:76,1,90,4|0,0:0|0:0,0:0:0:0:
72,28,12384,5,4,0:0:0:0:
118,165,12550,1,8,0:0:0:0:
98,333,12717,2,0,L|114:198,1,135,4|0,0:0|0:0,0:0:0:0:
118,165,13050,1,0,1:0:0:0:
232,103,13217,2,0,P|276:95|319:104,1,90,8|0,0:0|0:0,0:0:0:0:
361,231,13550,6,0,L|270:227,1,90,4|0,0:0|0:0,0:0:0:0:
431,193,13884,2,0,P|440:236|427:278,1,90,8|0,0:0|0:0,0:0:0:0:
314,333,14217,1,8,0:1:0:0:
192,297,14384,1,8,0:1:0:0:
162,175,14550,2,0,B|96:169|96:169|76:156,1,90,8|0,0:0|0:0,0:0:0:0:
227,86,14884,6,0,P|317:74|384:127,1,180,8|8,0:1|0:0,0:0:0:0:
396,272,15384,1,0,0:0:0:0:
281,336,15550,1,8,0:1:0:0:
323,182,15717,1,8,0:1:0:0:
367,357,15884,2,0,B|430:352|430:352|452:334,1,90,8|0,0:0|0:0,0:0:0:0:
418,178,16217,6,0,P|448:147|462:103,1,90,8|0,0:1|0:0,0:0:0:0:
337,87,16550,1,8,0:0:0:0:
396,272,16717,1,0,0:0:0:0:
249,222,16884,1,8,0:1:0:0:
268,38,17050,1,8,0:1:0:0:
181,148,17217,1,8,0:0:0:0:
345,196,17384,6,0,B|405:226|461:195|461:195|448:224|461:251,1,180,0|0,0:0|0:0,0:0:0:0:
402,113,17884,1,8,0:0:0:0:
461,251,18050,1,0,0:0:0:0:
461,251,18134,1,0,0:0:0:0:
461,251,18217,2,0,P|468:296|455:337,1,90,8|8,0:1|0:1,0:0:0:0:
328,345,18550,1,8,0:0:0:0:
225,271,18717,1,0,0:0:0:0:
225,271,18800,1,0,0:0:0:0:
225,271,18884,6,0,P|136:249|62:288,1,180,8|8,0:1|0:0,0:0:0:0:
247,351,19384,1,0,0:0:0:0:
293,221,19550,2,0,B|302:162|302:162|292:130,1,90,8|8,0:1|0:1,0:0:0:0:
454,225,19884,1,8,0:0:0:0:
388,71,20051,2,0,B|378:129|378:129|387:158,1,90,0|8,0:0|0:1,0:0:0:0:
364,312,20384,6,0,L|275:308,1,90,0|8,0:0|0:0,0:0:0:0:
304,136,20717,1,0,0:0:0:0:
403,236,20884,1,8,0:1:0:0:
275,308,21050,1,8,0:1:0:0:
380,160,21217,1,8,0:0:0:0:
233,191,21384,1,0,0:0:0:0:
233,191,21467,1,0,0:0:0:0:
233,191,21550,6,0,L|143:200,1,90,8|0,0:1|0:0,0:0:0:0:
104,86,21884,1,8,0:0:0:0:
86,253,22050,1,0,0:0:0:0:
176,121,22217,2,0,L|265:111,1,90,8|8,0:1|0:1,0:0:0:0:
301,106,22467,1,0,0:0:0:0:
301,106,22550,1,8,0:0:0:0:
299,263,22717,1,4,0:0:0:0:
299,263,23050,5,2,0:0:0:0:
301,106,23217,1,8,0:0:0:0:
401,158,23384,1,0,0:0:0:0:
401,158,23467,1,0,0:0:0:0:
401,158,23550,2,0,L|389:248,1,90,0|2,0:0|0:0,0:0:0:0:
231,328,23884,2,0,P|188:340|150:321,1,90,8|0,0:0|0:0,0:0:0:0:
47,168,24217,1,4,0:0:0:0:
47,168,24550,6,0,B|113:173|113:173|135:165,1,90,8|0,0:0|0:0,0:0:0:0:
196,56,24884,1,8,0:1:0:0:
211,209,25050,1,8,0:1:0:0:
273,90,25217,2,0,B|295:82|295:82|361:87,1,90,8|0,0:0|0:0,0:0:0:0:
430,230,25550,6,0,B|475:175|440:117|440:117|493:96,1,180,8|8,0:1|0:0,0:0:0:0:
373,166,26050,1,0,0:0:0:0:
341,288,26217,1,8,0:1:0:0:
466,304,26384,1,8,0:1:0:0:
275,343,26550,2,0,P|256:300|265:253,1,90,8|0,0:0|0:0,0:0:0:0:
290,155,26884,5,8,0:1:0:0:
219,22,27050,1,0,0:0:0:0:
188,123,27217,1,8,0:0:0:0:
321,53,27384,1,0,0:0:0:0:
134,57,27550,1,8,0:1:0:0:
183,209,27717,1,8,0:1:0:0:
259,87,27884,1,8,0:0:0:0:
103,154,28050,1,0,0:0:0:0:
154,291,28217,6,0,P|199:297|237:278,1,90,8|0,0:1|0:0,0:0:0:0:
55,241,28550,2,0,P|44:284|52:328,1,90,8|0,0:0|0:0,0:0:0:0:
183,209,28884,1,8,0:1:0:0:
158,68,29050,1,8,0:1:0:0:
60,146,29217,1,8,0:0:0:0:
211,134,29384,1,0,0:0:0:0:
211,134,29467,1,0,0:0:0:0:
211,134,29550,6,0,P|303:126|365:180,1,180,8|8,0:1|0:0,0:0:0:0:
270,218,30050,1,0,0:0:0:0:
399,100,30217,2,0,B|467:106|467:106|488:100,1,90,8|8,0:1|0:1,0:0:0:0:
378,204,30550,1,8,0:0:0:0:
434,297,30717,1,0,0:0:0:0:
316,322,30884,6,0,L|136:336,1,180,8|8,0:1|0:0,0:0:0:0:
94,202,31384,1,0,0:0:0:0:
48,357,31550,1,8,0:1:0:0:
149,257,31717,1,8,0:1:0:0:
13,277,31884,1,8,0:0:0:0:
48,138,32050,1,0,0:0:0:0:
29,136,32134,1,0,0:0:0:0:
11,134,32217,5,8,0:1:0:0:
123,107,32384,1,0,0:0:0:0:
149,257,32550,1,8,0:0:0:0:
156,117,32717,1,0,0:0:0:0:
281,188,32884,1,8,0:1:0:0:
200,327,33050,1,8,0:1:0:0:
197,185,33217,1,8,0:0:0:0:
322,113,33384,6,0,B|401:84|434:158|497:126,1,180,4|0,0:0|0:0,0:0:0:0:
464,38,33884,1,8,0:0:0:0:
358,201,34050,1,2,0:0:0:0:
358,201,34134,1,8,0:0:0:0:
358,201,34217,2,0,L|354:295,1,90,8|8,0:0|0:0,0:0:0:0:
289,356,34550,1,4,0:3:0:0:
434,330,34717,1,8,0:1:0:0:
289,356,34884,6,0,L|153:360,1,135.000005149842,4|0,0:0|0:0,0:0:0:0:
96,293,35384,1,0,0:0:0:0:
68,210,35550,2,0,L|67:143,1,67.5000025749208,8|8,0:0|0:1,0:0:0:0:
98,59,35884,1,8,0:0:0:0:
184,44,36051,6,0,B|200:87|244:92|244:92|239:146,1,135.000005149842,0|0,0:0|0:0,0:0:0:0:
289,214,36550,2,0,L|358:220,1,67.5000025749208,0|8,0:0|0:1,0:0:0:0:
419,130,36884,2,0,L|352:138,1,67.5000025749208,8|0,0:0|0:0,0:0:0:0:
442,210,37217,2,0,P|439:243|425:273,1,67.5000025749208,8|0,0:1|0:0,0:0:0:0:
237,326,37550,6,0,L|136:308,1,101.250003862381,12|0,0:0|0:0,0:0:0:0:
137,308,37884,2,0,P|123:275|126:242,1,67.5000025749208,8|0,0:1|0:0,0:0:0:0:
212,195,38217,2,0,L|199:92,1,101.250003862381,12|0,0:0|0:0,0:0:0:0:
199,94,38550,2,0,P|232:95|262:82,1,67.5000025749208,8|0,0:1|0:0,0:0:0:0:
330,26,38884,5,8,0:0:0:0:
365,127,39050,1,8,0:0:0:0:
441,50,39217,1,0,0:0:0:0:
316,25,39550,5,8,0:0:0:0:
360,150,39717,1,8,0:0:0:0:
454,54,39884,1,4,0:3:0:0:
285,104,40050,1,0,0:0:0:0:
336,229,40217,6,0,L|329:310,1,80.9999975280763,4|0,0:0|0:0,0:0:0:0:
183,358,40550,2,0,L|176:277,1,80.9999975280763,8|0,0:0|0:0,0:0:0:0:
106,186,40884,2,0,P|116:148|110:105,1,80.9999975280763,8|8,0:1|0:1,0:0:0:0:
213,170,41217,2,0,B|268:164|268:164|292:171,1,80.9999975280763,8|0,0:0|0:0,0:0:0:0:
364,259,41550,6,0,B|424:254|424:254|444:242,1,80.9999975280763,8|0,0:1|0:0,0:0:0:0:
387,173,41884,1,8,0:0:0:0:
289,297,42050,1,0,0:0:0:0:
289,297,42134,1,0,0:0:0:0:
289,297,42217,2,0,L|208:287,1,80.9999975280763,8|8,0:1|0:1,0:0:0:0:
54,259,42550,2,0,L|134:249,1,80.9999975280763,8|0,0:0|0:0,0:0:0:0:
211,119,42884,5,4,0:0:0:0:
211,119,43217,1,8,0:0:0:0:
307,210,43384,2,0,P|371:255|448:238,1,161.999995056153,4|0,0:0|0:0,0:0:0:0:
307,210,43884,1,8,0:0:0:0:
252,301,44050,2,0,L|171:309,1,80.9999975280763,4|0,0:0|0:0,0:0:0:0:
80,240,44384,1,8,0:0:0:0:
62,128,44550,1,8,0:0:0:0:
223,158,44717,1,8,0:0:0:0:
379,95,44884,6,0,P|396:54|387:11,1,90,2|8,0:0|0:1,0:0:0:0:
375,289,45550,6,0,L|465:301,1,90,4|0,0:0|0:0,0:0:0:0:
277,245,45884,2,0,L|185:254,1,90,8|0,0:0|0:0,0:0:0:0:
26,169,46217,2,0,B|77:162|77:162|106:171|106:171|159:166,1,135,10|0,0:1|0:0,0:0:0:0:
225,126,46550,2,0,B|246:82|226:39,1,90,8|0,0:0|0:0,0:0:0:0:
291,181,46884,5,10,0:1:0:0:
159,82,47050,1,0,0:0:0:0:
220,222,47217,1,8,0:0:0:0:
317,99,47384,1,0,0:0:0:0:
459,192,47550,2,0,P|424:220|380:226,1,90,10|0,0:1|0:0,0:0:0:0:
237,307,47884,2,0,B|299:294|299:294|325:294,1,90,8|0,0:0|0:0,0:0:0:0:
184,375,48217,6,0,P|153:316|172:252,1,135,10|0,0:1|0:0,0:0:0:0:
237,307,48550,2,0,B|299:294|299:294|325:294,1,90,8|0,0:0|0:0,0:0:0:0:
406,173,48884,2,0,B|346:186|346:186|317:173|317:149|345:131,1,135,10|0,0:1|0:0,0:0:0:0:
429,103,49217,2,0,P|464:128|478:172,1,90,8|0,0:0|0:0,0:0:0:0:
340,268,49550,5,10,0:1:0:0:
265,107,49717,1,0,0:0:0:0:
406,173,49884,1,8,0:0:0:0:
261,207,50050,1,0,0:0:0:0:
178,88,50217,2,0,L|173:178,1,90,10|0,0:1|0:0,0:0:0:0:
80,215,50550,2,0,L|88:305,1,90,8|0,0:0|0:0,0:0:0:0:
10,188,50884,6,0,P|55:141|121:151,1,135,10|0,0:1|0:0,0:0:0:0:
80,215,51217,2,0,L|88:305,1,90,8|0,0:0|0:0,0:0:0:0:
202,250,51550,2,0,P|275:282|333:215,1,180,10|8,0:1|0:0,0:0:0:0:
274,98,52050,1,0,0:0:0:0:
393,149,52217,6,0,L|482:140,1,90,10|0,0:1|0:0,0:0:0:0:
456,271,52550,2,0,B|393:277|393:277|346:298|346:298|281:306,1,180,8|10,0:0|0:1,0:0:0:0:
234,192,53050,1,0,0:0:0:0:
138,138,53217,2,0,P|125:96|130:52,1,90,8|0,0:0|0:0,0:0:0:0:
234,192,53550,6,0,P|327:179|389:246,2,180,10|8|10,0:1|0:0|0:1,0:0:0:0:
142,298,54384,1,0,0:0:0:0:
295,282,54550,2,0,L|319:146,1,135,8|0,0:0|0:0,0:0:0:0:
358,84,54884,6,0,B|308:97|308:97|278:78|225:83,1,135,10|0,0:1|0:0,0:0:0:0:
152,101,55217,1,8,0:0:0:0:
124,273,55384,1,0,0:0:0:0:
124,273,55467,1,8,0:0:0:0:
124,273,55550,1,10,0:1:0:0:
256,161,55717,1,8,0:0:0:0:
82,172,55884,1,8,0:0:0:0:
218,297,56050,1,0,0:0:0:0:
312,220,56217,6,0,P|336:182|336:138,1,90,4|0,0:0|0:0,0:0:0:0:
354,298,56550,2,0,L|444:311,1,90,8|0,0:0|0:0,0:0:0:0:
256,161,56884,2,0,B|206:174|206:174|165:153|170:106,1,135,10|0,0:1|0:0,0:0:0:0:
155,28,57217,2,0,P|200:31|234:58,1,90,8|0,0:0|0:0,0:0:0:0:
335,205,57550,5,10,0:1:0:0:
443,315,57717,1,0,0:0:0:0:
273,270,57884,1,8,0:0:0:0:
421,230,58050,1,0,0:0:0:0:
225,329,58217,2,0,P|202:293|201:246,1,90,10|0,0:1|0:0,0:0:0:0:
239,82,58550,2,0,P|262:118|263:165,1,90,8|0,0:0|0:0,0:0:0:0:
52,211,58884,6,0,L|187:202,1,135,10|0,0:1|0:0,0:0:0:0:
241,138,59217,2,0,L|150:143,1,90,8|0,0:0|0:0,0:0:0:0:
218,274,59550,2,0,P|286:295|334:260,1,135,8|0,0:0|0:0,0:0:0:0:
271,223,59884,2,0,L|360:215,1,90,8|0,0:0|0:0,0:0:0:0:
395,65,60217,5,10,0:1:0:0:
361,215,60384,1,0,0:0:0:0:
328,125,60550,1,8,0:0:0:0:
422,151,60717,1,0,0:0:0:0:
413,284,60884,2,0,P|371:298|327:292,1,90,10|0,0:1|0:0,0:0:0:0:
185,231,61217,2,0,P|227:216|272:223,1,90,8|0,0:0|0:0,0:0:0:0:
155,301,61550,6,0,P|109:258|119:191,1,135,4|0,0:0|0:0,0:0:0:0:
110,116,61884,2,0,B|45:122|45:122|65:136,1,90,8|0,0:0|0:0,0:0:0:0:
233,170,62217,2,0,P|296:194|349:161,1,135,8|0,0:0|0:0,0:0:0:0:
375,90,62550,2,0,B|390:62|384:30|384:30|397:35|405:50,1,90,8|0,0:0|0:0,0:0:0:0:
420,231,62884,6,0,P|464:242|506:228,1,90,10|0,0:1|0:0,0:0:0:0:
367,169,63217,1,8,0:0:0:0:
269,127,63384,1,0,0:0:0:0:
189,194,63550,1,8,0:0:0:0:
189,194,63884,1,8,0:0:0:0:
230,350,64050,1,0,0:0:0:0:
146,324,64217,5,4,0:0:0:0:
291,290,64384,1,0,0:0:0:0:
291,290,64467,1,8,0:0:0:0:
291,290,64550,1,8,0:0:0:0:
367,169,64717,2,0,P|379:87|308:30,1,180,4|0,0:0|0:0,0:0:0:0:
178,115,65217,2,0,B|243:137|243:137|306:114,1,135,4|0,0:0|0:0,0:0:0:0:
367,169,65550,6,0,P|359:212|380:257,1,90,12|0,0:0|0:0,0:0:0:0:
465,297,65884,1,8,0:0:0:0:
291,290,66050,1,4,0:3:0:0:
446,198,66217,1,8,0:0:0:0:
394,356,66384,1,4,0:3:0:0:
446,198,66550,1,8,0:0:0:0:
293,209,66717,1,4,0:3:0:0:
220,365,66884,5,12,0:0:0:0:
125,251,67050,1,8,0:1:0:0:
291,290,67217,1,8,0:0:0:0:
112,372,67384,1,8,0:1:0:0:
144,180,67550,5,8,0:0:0:0:
293,209,67717,1,8,0:1:0:0:
163,313,67884,1,8,0:0:0:0:
203,128,68050,1,8,0:1:0:0:
229,272,68217,5,8,0:0:0:0:
282,111,68384,1,8,0:1:0:0:
384,240,68550,1,8,0:0:0:0:
277,340,68717,1,8,0:1:0:0:
293,209,68884,6,0,L|301:128,1,80.9999975280763,8|8,0:0|0:1,0:0:0:0:
412,28,69217,2,0,L|421:110,1,80.9999975280763,8|8,0:0|0:1,0:0:0:0:
450,286,69550,5,12,0:0:0:0:
505,142,69717,1,8,0:1:0:0:
346,156,69884,1,8,0:0:0:0:
377,336,70050,1,8,0:1:0:0:
433,195,70217,5,8,0:0:0:0:
278,223,70384,1,8,0:1:0:0:
243,364,70550,1,8,0:0:0:0:
350,262,70717,1,8,0:1:0:0:
179,299,70884,5,8,0:0:0:0:
26,253,71050,1,8,0:1:0:0:
168,267,71217,1,8,0:0:0:0:
8,220,71384,1,8,0:1:0:0:
134,75,71550,6,0,L|50:88,1,80.9999975280763,8|8,0:0|0:1,0:0:0:0:
170,158,71884,2,0,L|251:171,1,80.9999975280763,8|8,0:0|0:1,0:0:0:0:
427,179,72217,5,12,0:0:0:0:
249,246,72384,1,8,0:1:0:0:
371,301,72550,1,8,0:0:0:0:
303,123,72717,1,8,0:1:0:0:
421,252,72883,5,8,0:0:0:0:
251,172,73050,1,8,0:1:0:0:
296,297,73217,1,8,0:0:0:0:
376,124,73384,1,8,0:1:0:0:
249,246,73550,6,0,L|165:256,1,80.9999975280763,12|8,0:0|0:1,0:0:0:0:
303,123,73884,2,0,P|312:80|298:47,1,80.9999975280763,8|8,0:0|0:1,0:0:0:0:
251,172,74217,5,8,0:0:0:0:
427,179,74384,1,8,0:1:0:0:
326,319,74550,2,0,L|337:231,1,80.9999975280763,8|8,0:0|0:1,0:0:0:0:
184,300,74884,6,0,B|129:308|129:308|104:298,1,80.9999975280763,12|8,0:0|0:1,0:0:0:0:
82,157,75217,1,8,0:0:0:0:
3,280,75384,1,8,0:1:0:0:
140,213,75550,6,0,L|222:200,1,80.9999975280763,12|8,0:0|0:1,0:0:0:0:
270,70,75883,1,8,0:0:0:0:
340,223,76050,1,8,0:1:0:0:
457,129,76217,5,12,0:0:0:0:
412,284,76384,1,8,0:1:0:0:
482,157,76550,1,8,0:0:0:0:
455,314,76717,1,8,0:1:0:0:
326,309,76884,6,0,P|285:308|248:325,1,80.9999975280763,8|8,0:0|0:1,0:0:0:0:
102,279,77217,2,0,P|143:280|180:263,1,80.9999975280763,8|8,0:0|0:1,0:0:0:0:
219,110,77550,5,12,0:0:0:0:
340,223,77717,1,8,0:1:0:0:
189,215,77884,1,8,0:0:0:0:
295,80,78050,1,8,0:1:0:0:
264,256,78217,5,8,0:0:0:0:
146,147,78384,1,8,0:1:0:0:
136,281,78550,2,0,L|131:363,1,80.9999975280763,8|8,0:0|0:1,0:0:0:0:
189,215,78884,5,8,0:0:0:0:
63,144,79050,1,8,0:1:0:0:
221,177,79217,1,8,0:0:0:0:
57,105,79384,1,8,0:1:0:0:
241,51,79550,5,8,0:0:0:0:
294,208,79717,1,8,0:1:0:0:
397,104,79884,1,8,0:0:0:0:
226,133,80050,1,8,0:1:0:0:
355,260,80217,5,12,0:0:0:0:
313,114,80384,1,8,0:1:0:0:
208,211,80550,2,0,L|128:229,1,80.9999975280763,8|8,0:0|0:1,0:0:0:0:
226,133,80884,5,8,0:0:0:0:
270,268,81050,1,8,0:1:0:0:
388,177,81217,2,0,L|469:189,1,80.9999975280763,8|8,0:0|0:1,0:0:0:0:
414,333,81550,5,8,0:0:0:0:
323,228,81717,1,8,0:1:0:0:
344,370,81884,1,8,0:0:0:0:
291,243,82050,1,8,0:1:0:0:
193,313,82217,6,0,L|119:301,1,72,8|8,0:0|0:1,0:0:0:0:
200,199,82550,2,0,L|272:192,1,72,8|8,0:0|0:1,0:0:0:0:
331,82,82884,6,0,L|223:90,1,107.999996704102,2|0,0:0|0:0,0:0:0:0:
103,223,83550,2,0,L|210:231,1,107.999996704102,2|0,0:0|0:0,0:0:0:0:
386,276,84217,5,2,0:0:0:0:
343,108,84550,1,2,0:0:0:0:
343,108,84717,1,0,0:0:0:0:
272,106,84884,2,0,P|273:129|284:150,1,45,2|0,0:0|0:0,0:0:0:0:
417,107,85217,2,0,P|416:84|405:63,1,45,0|2,0:0|0:0,0:0:0:0:
256,192,85467,12,0,86717,0:0:0:0:
