osu file format v12

[General]
AudioFilename: bb.mp3
AudioLeadIn: 2000
PreviewTime: 44613
Countdown: 0
SampleSet: Normal
StackLeniency: 0.7
Mode: 1
LetterboxInBreaks: 0
WidescreenStoryboard: 0

[Editor]
DistanceSpacing: 1
BeatDivisor: 4
GridSize: 32
TimelineZoom: 1.3

[Metadata]
Title:Yubi Bouenkyou (TV Size)
TitleUnicode:指望遠鏡 (TV Size)
Artist:Nogizaka46
ArtistUnicode:乃木坂46
Creator:mingmichael
Version:Oni
Source:Magi (The Labyrinth of Magic)
Tags:magi alibaba aladdin ending Revo 17VA Simple_Star
BeatmapID:254648
BeatmapSetID:94670

[Difficulty]
HPDrainRate:5
CircleSize:4
OverallDifficulty:5
ApproachRate:6
SliderMultiplier:1.4
SliderTickRate:1

[Events]
//Background and Video events
0,0,"magi osu.jpg",0,0
//Break Periods
//Storyboard Layer 0 (Background)
//Storyboard Layer 1 (Fail)
//Storyboard Layer 2 (Pass)
//Storyboard Layer 3 (Foreground)
//Storyboard Sound Samples
//Background Colour Transformations
3,100,163,162,255

[TimingPoints]
1286,333.333333333333,4,1,0,90,1,0
7952,-100,4,1,0,100,0,0
13285,-100,4,1,0,90,0,0
45285,-100,4,1,0,100,0,1
82618,-100,4,1,0,80,0,0

[HitObjects]
192,96,619,5,0,0:0:0:0:
192,96,952,5,8,0:0:0:0:
192,96,1286,1,8,0:0:0:0:
192,96,1619,5,0,0:0:0:0:
192,96,1952,5,8,0:0:0:0:
192,96,2285,1,8,0:0:0:0:
192,96,2619,5,0,0:0:0:0:
192,96,3285,1,0,0:0:0:0:
192,96,3619,1,0,0:0:0:0:
192,96,3952,5,8,0:0:0:0:
192,96,4285,1,8,0:0:0:0:
192,96,4619,5,0,0:0:0:0:
192,96,4952,1,0,0:0:0:0:
256,192,5285,8,0,6952,0:0:0:0:
192,96,7453,5,12,0:0:0:0:
192,96,7620,1,12,0:0:0:0:
192,96,7953,5,4,0:0:0:0:
192,96,8119,1,0,0:0:0:0:
192,96,8286,5,8,0:0:0:0:
192,96,8453,5,4,0:0:0:0:
192,96,8786,1,0,0:0:0:0:
192,96,8952,5,8,0:0:0:0:
192,96,9119,5,4,0:0:0:0:
192,96,9452,1,0,0:0:0:0:
192,96,9619,5,8,0:0:0:0:
192,96,9786,1,12,0:0:0:0:
192,96,10119,5,0,0:0:0:0:
192,96,10286,5,8,0:0:0:0:
192,96,10452,1,8,0:0:0:0:
192,96,10619,5,4,0:0:0:0:
192,96,10786,1,0,0:0:0:0:
192,96,10952,5,8,0:0:0:0:
192,96,11120,5,0,0:0:0:0:
192,96,11453,1,0,0:0:0:0:
192,96,11620,5,8,0:0:0:0:
192,96,11786,5,4,0:0:0:0:
192,96,12119,5,8,0:0:0:0:
320,96,12286,5,0,0:0:0:0:
192,96,12453,5,12,0:0:0:0:
192,96,12619,5,0,0:0:0:0:
192,96,12785,1,0,0:0:0:0:
320,96,12869,1,0,0:0:0:0:
192,96,12952,5,8,0:0:0:0:
320,96,13036,1,8,0:0:0:0:
192,96,13120,5,0,0:0:0:0:
192,96,13286,1,4,0:0:0:0:
192,96,13619,5,8,0:0:0:0:
192,96,13786,5,0,0:0:0:0:
320,96,13869,1,0,0:0:0:0:
192,96,13952,1,0,0:0:0:0:
192,96,14119,1,0,0:0:0:0:
192,96,14286,5,8,0:0:0:0:
192,96,14452,1,8,0:0:0:0:
192,96,14619,5,0,0:0:0:0:
192,96,14953,5,8,0:0:0:0:
192,96,15119,1,8,0:0:0:0:
192,96,15286,5,0,0:0:0:0:
192,96,15619,5,8,0:0:0:0:
192,96,15786,5,0,0:0:0:0:
192,96,15952,1,0,0:0:0:0:
192,96,16119,5,8,0:0:0:0:
320,96,16202,1,8,0:0:0:0:
192,96,16286,1,8,0:0:0:0:
192,96,16452,5,0,0:0:0:0:
192,96,16619,5,8,0:0:0:0:
320,96,16702,1,8,0:0:0:0:
192,96,16786,5,0,0:0:0:0:
192,96,16952,5,8,0:0:0:0:
192,96,17119,1,0,0:0:0:0:
192,96,17452,5,0,0:0:0:0:
192,96,17619,5,8,0:0:0:0:
192,96,17786,5,0,0:0:0:0:
192,96,17952,5,8,0:0:0:0:
192,96,18119,1,8,0:0:0:0:
320,96,18202,1,8,0:0:0:0:
192,96,18286,5,0,0:0:0:0:
192,96,18452,5,8,0:0:0:0:
192,96,18619,5,0,0:0:0:0:
192,96,18952,5,8,0:0:0:0:
192,96,19119,1,8,0:0:0:0:
192,96,19286,5,0,0:0:0:0:
320,96,19369,1,0,0:0:0:0:
192,96,19452,1,0,0:0:0:0:
192,96,19619,5,8,0:0:0:0:
192,96,19786,5,0,0:0:0:0:
192,96,20119,5,8,0:0:0:0:
192,96,20286,5,0,0:0:0:0:
192,96,20452,5,8,0:0:0:0:
192,96,20786,5,0,0:0:0:0:
192,96,20952,5,8,0:0:0:0:
192,96,21119,5,0,0:0:0:0:
320,96,21202,1,0,0:0:0:0:
192,96,21286,1,0,0:0:0:0:
192,96,21452,5,8,0:0:0:0:
192,96,21619,1,8,0:0:0:0:
192,96,21786,5,0,0:0:0:0:
192,96,21952,5,8,0:0:0:0:
192,96,22119,5,0,0:0:0:0:
320,96,22202,1,0,0:0:0:0:
192,96,22286,5,8,0:0:0:0:
192,96,22452,5,4,0:0:0:0:
192,96,22786,1,0,0:0:0:0:
192,96,22952,5,8,0:0:0:0:
192,96,23119,5,0,0:0:0:0:
192,96,23286,5,8,0:0:0:0:
320,96,23369,1,8,0:0:0:0:
192,96,23452,5,0,0:0:0:0:
320,96,23536,1,0,0:0:0:0:
192,96,23619,5,8,0:0:0:0:
192,96,23786,5,0,0:0:0:0:
192,96,23952,1,4,0:0:0:0:
192,96,24286,5,8,0:0:0:0:
192,96,24452,5,0,0:0:0:0:
320,96,24536,1,0,0:0:0:0:
192,96,24619,5,8,0:0:0:0:
192,96,24786,5,0,0:0:0:0:
192,96,24952,1,8,0:0:0:0:
192,96,25119,5,8,0:0:0:0:
192,96,25286,5,0,0:0:0:0:
192,96,25452,5,8,0:0:0:0:
320,96,25536,1,8,0:0:0:0:
192,96,25619,5,0,0:0:0:0:
192,96,25786,5,8,0:0:0:0:
192,96,25952,5,0,0:0:0:0:
192,96,26120,1,0,0:0:0:0:
320,96,26203,1,0,0:0:0:0:
192,96,26286,5,8,0:0:0:0:
192,96,26452,5,0,0:0:0:0:
192,96,26785,1,0,0:0:0:0:
192,96,26952,5,8,0:0:0:0:
192,96,27119,5,0,0:0:0:0:
192,96,27286,5,8,0:0:0:0:
192,96,27452,1,8,0:0:0:0:
320,96,27536,1,8,0:0:0:0:
192,96,27620,5,0,0:0:0:0:
192,96,27786,5,8,0:0:0:0:
192,96,27953,5,0,0:0:0:0:
192,96,28119,5,8,0:0:0:0:
320,96,28203,5,8,0:0:0:0:
192,96,28286,5,8,0:0:0:0:
192,96,28452,5,0,0:0:0:0:
192,96,28619,5,8,0:0:0:0:
192,96,28786,1,8,0:0:0:0:
320,96,28869,1,8,0:0:0:0:
192,96,28953,5,0,0:0:0:0:
192,96,29119,5,8,0:0:0:0:
192,96,29286,5,0,0:0:0:0:
192,96,29619,5,8,0:0:0:0:
192,96,29786,5,8,0:0:0:0:
320,96,29869,1,8,0:0:0:0:
192,96,29952,5,0,0:0:0:0:
192,96,30119,1,0,0:0:0:0:
192,96,30286,5,8,0:0:0:0:
192,96,30452,5,0,0:0:0:0:
320,96,30536,1,0,0:0:0:0:
192,96,30620,1,0,0:0:0:0:
192,96,30786,5,8,0:0:0:0:
192,96,30952,5,0,0:0:0:0:
192,96,31119,5,8,0:0:0:0:
192,96,31286,5,0,0:0:0:0:
320,96,31370,1,0,0:0:0:0:
192,96,31452,5,8,0:0:0:0:
192,96,31619,1,0,0:0:0:0:
192,96,31786,5,8,0:0:0:0:
192,96,31952,5,0,0:0:0:0:
192,96,32119,5,8,0:0:0:0:
320,96,32203,1,8,0:0:0:0:
192,96,32286,1,8,0:0:0:0:
192,96,32452,5,0,0:0:0:0:
192,96,32619,5,8,0:0:0:0:
192,96,32786,5,0,0:0:0:0:
320,96,32869,1,0,0:0:0:0:
192,96,32952,5,8,0:0:0:0:
192,96,33119,5,4,0:0:0:0:
192,96,33452,1,0,0:0:0:0:
192,96,33619,5,8,0:0:0:0:
192,96,33786,5,0,0:0:0:0:
320,96,33869,1,0,0:0:0:0:
192,96,33952,5,8,0:0:0:0:
192,96,34119,1,8,0:0:0:0:
192,96,34286,1,8,0:0:0:0:
192,96,34452,5,0,0:0:0:0:
192,96,34619,1,4,0:0:0:0:
192,96,34952,1,0,0:0:0:0:
192,96,35119,5,8,0:0:0:0:
192,96,35286,5,0,0:0:0:0:
192,96,35619,5,8,0:0:0:0:
192,96,35786,5,0,0:0:0:0:
192,96,35953,5,8,0:0:0:0:
192,96,36286,5,0,0:0:0:0:
192,96,36452,1,0,0:0:0:0:
192,96,36619,5,8,0:0:0:0:
192,96,36786,5,0,0:0:0:0:
320,96,36869,1,0,0:0:0:0:
192,96,36952,5,8,0:0:0:0:
192,96,37119,5,0,0:0:0:0:
192,96,37286,1,4,0:0:0:0:
192,96,37619,5,8,0:0:0:0:
192,96,37952,5,4,0:0:0:0:
192,96,38286,5,8,0:0:0:0:
192,96,38452,5,0,0:0:0:0:
192,96,38619,1,4,0:0:0:0:
192,96,38786,1,0,0:0:0:0:
192,96,38952,5,8,0:0:0:0:
192,96,39119,5,0,0:0:0:0:
192,96,39286,5,8,0:0:0:0:
320,96,39369,5,0,0:0:0:0:
192,96,39452,1,0,0:0:0:0:
320,96,39536,1,0,0:0:0:0:
192,96,39619,5,8,0:0:0:0:
192,96,39786,5,0,0:0:0:0:
192,96,39952,1,4,0:0:0:0:
192,96,40286,5,8,0:0:0:0:
192,96,40452,5,0,0:0:0:0:
320,96,40535,5,0,0:0:0:0:
192,96,40619,5,8,0:0:0:0:
192,96,40786,5,0,0:0:0:0:
192,96,40952,5,8,0:0:0:0:
192,96,41119,1,8,0:0:0:0:
320,96,41202,1,8,0:0:0:0:
192,96,41286,5,0,0:0:0:0:
192,96,41452,1,0,0:0:0:0:
192,96,41619,5,8,0:0:0:0:
320,96,41702,1,8,0:0:0:0:
192,96,41786,5,0,0:0:0:0:
320,96,41869,1,0,0:0:0:0:
192,96,41952,5,8,0:0:0:0:
192,96,42119,5,0,0:0:0:0:
192,96,42286,5,8,0:0:0:0:
192,96,42452,5,0,0:0:0:0:
192,96,42619,5,12,0:0:0:0:
192,96,42952,5,0,0:0:0:0:
192,96,43119,5,12,0:0:0:0:
192,96,43452,5,0,0:0:0:0:
192,96,43619,5,8,0:0:0:0:
192,96,43786,5,4,0:0:0:0:
192,96,44119,1,0,0:0:0:0:
192,96,44286,5,12,0:0:0:0:
192,96,44452,1,12,0:0:0:0:
192,96,44619,5,0,0:0:0:0:
192,96,44952,5,8,0:0:0:0:
192,96,45286,5,4,0:0:0:0:
192,96,45619,5,8,0:0:0:0:
192,96,45786,5,0,0:0:0:0:
320,96,45869,1,0,0:0:0:0:
192,96,45952,5,8,0:0:0:0:
192,96,46119,1,8,0:0:0:0:
192,96,46286,5,0,0:0:0:0:
192,96,46452,5,8,0:0:0:0:
192,96,46619,5,0,0:0:0:0:
192,96,46952,5,8,0:0:0:0:
192,96,47120,5,0,0:0:0:0:
192,96,47286,1,0,0:0:0:0:
320,96,47370,1,0,0:0:0:0:
192,96,47452,1,0,0:0:0:0:
192,96,47619,5,8,0:0:0:0:
192,96,47786,5,0,0:0:0:0:
320,96,47870,1,0,0:0:0:0:
192,96,47952,5,8,0:0:0:0:
192,96,48119,5,0,0:0:0:0:
192,96,48286,5,8,0:0:0:0:
192,96,48452,5,0,0:0:0:0:
320,96,48536,1,0,0:0:0:0:
192,96,48619,5,8,0:0:0:0:
192,96,48786,1,8,0:0:0:0:
192,96,48952,5,0,0:0:0:0:
192,96,49119,5,8,0:0:0:0:
320,96,49202,1,8,0:0:0:0:
192,96,49286,5,0,0:0:0:0:
192,96,49619,5,8,0:0:0:0:
192,96,49786,5,0,0:0:0:0:
192,96,49952,1,0,0:0:0:0:
320,96,50036,1,0,0:0:0:0:
192,96,50119,1,0,0:0:0:0:
192,96,50286,5,8,0:0:0:0:
192,96,50452,5,0,0:0:0:0:
320,96,50536,1,0,0:0:0:0:
192,96,50619,5,8,0:0:0:0:
192,96,50786,5,0,0:0:0:0:
192,96,50952,5,8,0:0:0:0:
192,96,51119,1,8,0:0:0:0:
320,96,51202,1,8,0:0:0:0:
192,96,51286,5,0,0:0:0:0:
320,96,51369,1,0,0:0:0:0:
192,96,51452,1,0,0:0:0:0:
192,96,51619,5,8,0:0:0:0:
192,96,51786,5,0,0:0:0:0:
320,96,51870,5,8,0:0:0:0:
192,96,51952,5,0,0:0:0:0:
192,96,52120,1,0,0:0:0:0:
192,96,52286,5,8,0:0:0:0:
192,96,52452,1,8,0:0:0:0:
320,96,52536,1,8,0:0:0:0:
192,96,52619,5,0,0:0:0:0:
192,96,52786,1,0,0:0:0:0:
192,96,52952,5,8,0:0:0:0:
192,96,53119,1,0,0:0:0:0:
192,96,53286,5,12,0:0:0:0:
192,96,53620,5,0,0:0:0:0:
192,96,53786,1,0,0:0:0:0:
192,96,53952,5,12,0:0:0:0:
192,96,54286,1,8,0:0:0:0:
192,96,54619,5,4,0:0:0:0:
192,96,54952,5,8,0:0:0:0:
192,96,55120,5,0,0:0:0:0:
192,96,55286,5,8,0:0:0:0:
320,96,55369,1,8,0:0:0:0:
192,96,55452,5,0,0:0:0:0:
320,96,55536,1,0,0:0:0:0:
192,96,55619,5,8,0:0:0:0:
192,96,55786,5,0,0:0:0:0:
192,96,55953,5,12,0:0:0:0:
192,96,56286,5,0,0:0:0:0:
192,96,56452,1,0,0:0:0:0:
320,96,56536,1,0,0:0:0:0:
192,96,56619,5,8,0:0:0:0:
192,96,56786,1,8,0:0:0:0:
192,96,56952,5,0,0:0:0:0:
192,96,57119,5,8,0:0:0:0:
320,96,57203,1,8,0:0:0:0:
192,96,57286,5,0,0:0:0:0:
192,96,57619,5,8,0:0:0:0:
192,96,57786,5,0,0:0:0:0:
192,96,57953,1,0,0:0:0:0:
320,96,58036,1,0,0:0:0:0:
192,96,58119,1,0,0:0:0:0:
320,96,58203,1,0,0:0:0:0:
192,96,58286,5,8,0:0:0:0:
192,96,58452,5,0,0:0:0:0:
192,96,58619,5,8,0:0:0:0:
192,96,58786,5,0,0:0:0:0:
320,96,58869,1,0,0:0:0:0:
192,96,58952,5,8,0:0:0:0:
192,96,59119,5,0,0:0:0:0:
192,96,59286,5,8,0:0:0:0:
192,96,59452,1,8,0:0:0:0:
320,96,59536,1,8,0:0:0:0:
192,96,59619,5,0,0:0:0:0:
192,96,59786,5,8,0:0:0:0:
192,96,59952,5,0,0:0:0:0:
192,96,60286,5,8,0:0:0:0:
192,96,60453,5,0,0:0:0:0:
192,96,60619,5,8,0:0:0:0:
320,96,60703,1,8,0:0:0:0:
192,96,60786,5,0,0:0:0:0:
320,96,60870,1,0,0:0:0:0:
192,96,60952,5,8,0:0:0:0:
192,96,61119,5,0,0:0:0:0:
192,96,61286,5,8,0:0:0:0:
192,96,61453,5,0,0:0:0:0:
320,96,61536,1,0,0:0:0:0:
192,96,61620,5,8,0:0:0:0:
192,96,61786,1,8,0:0:0:0:
320,96,61869,1,8,0:0:0:0:
192,96,61952,5,0,0:0:0:0:
320,96,62036,1,0,0:0:0:0:
192,96,62119,1,0,0:0:0:0:
192,96,62286,5,8,0:0:0:0:
192,96,62452,5,0,0:0:0:0:
192,96,62619,5,8,0:0:0:0:
192,96,62952,1,8,0:0:0:0:
192,96,63119,1,8,0:0:0:0:
192,96,63286,5,0,0:0:0:0:
192,96,63453,5,8,0:0:0:0:
320,96,63536,1,8,0:0:0:0:
192,96,63619,5,0,0:0:0:0:
192,96,63786,1,0,0:0:0:0:
192,96,63953,5,12,0:0:0:0:
192,96,64286,5,0,0:0:0:0:
192,96,64452,5,12,0:0:0:0:
192,96,64786,1,8,0:0:0:0:
192,96,64952,5,4,0:0:0:0:
192,96,65286,1,0,0:0:0:0:
192,96,65452,5,8,0:0:0:0:
192,96,65619,1,8,0:0:0:0:
192,96,65786,5,0,0:0:0:0:
192,96,65952,5,8,0:0:0:0:
320,96,66036,1,8,0:0:0:0:
192,96,66119,5,0,0:0:0:0:
320,96,66202,1,0,0:0:0:0:
192,96,66286,5,8,0:0:0:0:
192,96,66452,5,0,0:0:0:0:
192,96,66619,5,8,0:0:0:0:
192,96,66952,5,0,0:0:0:0:
192,96,67286,5,8,0:0:0:0:
320,96,67452,5,0,0:0:0:0:
192,96,67619,5,8,0:0:0:0:
192,96,67952,1,8,0:0:0:0:
192,96,68286,5,0,0:0:0:0:
192,96,68619,1,0,0:0:0:0:
320,96,68786,1,0,0:0:0:0:
192,96,68952,5,8,0:0:0:0:
192,96,69285,1,8,0:0:0:0:
192,96,69620,5,0,0:0:0:0:
192,96,69953,5,8,0:0:0:0:
320,96,70120,5,0,0:0:0:0:
192,96,70286,1,0,0:0:0:0:
192,96,70619,1,0,0:0:0:0:
192,96,70952,5,8,0:0:0:0:
192,96,71286,5,0,0:0:0:0:
320,96,71452,1,0,0:0:0:0:
192,96,71619,5,8,0:0:0:0:
192,96,71952,1,8,0:0:0:0:
192,96,72286,1,8,0:0:0:0:
192,96,72619,1,8,0:0:0:0:
320,96,72786,5,0,0:0:0:0:
192,96,72952,5,8,0:0:0:0:
192,96,73286,5,0,0:0:0:0:
192,96,73619,1,0,0:0:0:0:
192,96,73952,5,8,0:0:0:0:
320,96,74120,5,0,0:0:0:0:
192,96,74286,1,0,0:0:0:0:
192,96,74620,5,8,0:0:0:0:
192,96,74952,5,0,0:0:0:0:
192,96,75286,5,8,0:0:0:0:
192,96,75619,1,8,0:0:0:0:
192,96,75953,5,0,0:0:0:0:
192,96,76286,5,8,0:0:0:0:
320,96,76452,5,0,0:0:0:0:
192,96,76619,5,8,0:0:0:0:
320,96,76702,1,8,0:0:0:0:
192,96,76786,5,0,0:0:0:0:
192,96,76952,5,8,0:0:0:0:
192,96,77119,5,0,0:0:0:0:
192,96,77286,1,0,0:0:0:0:
192,96,77619,1,0,0:0:0:0:
192,96,77952,5,8,0:0:0:0:
192,96,78120,5,0,0:0:0:0:
192,96,78286,5,8,0:0:0:0:
192,96,78619,5,0,0:0:0:0:
192,96,78952,5,8,0:0:0:0:
192,96,79286,5,0,0:0:0:0:
192,96,79453,1,0,0:0:0:0:
192,96,79619,5,8,0:0:0:0:
192,96,79952,1,8,0:0:0:0:
192,96,80286,1,8,0:0:0:0:
192,96,80619,1,8,0:0:0:0:
192,96,80786,5,0,0:0:0:0:
192,96,80952,5,8,0:0:0:0:
192,96,81286,5,0,0:0:0:0:
192,96,81619,5,8,0:0:0:0:
192,96,81952,5,0,0:0:0:0:
192,96,82120,1,0,0:0:0:0:
192,96,82286,5,8,0:0:0:0:
192,96,82619,5,0,0:0:0:0:
192,96,82952,1,0,0:0:0:0:
192,96,83286,5,8,0:0:0:0:
192,96,83619,5,0,0:0:0:0:
192,96,83952,5,8,0:0:0:0:
192,96,84286,1,8,0:0:0:0:
192,96,84452,1,8,0:0:0:0:
192,96,84619,5,0,0:0:0:0:
192,96,84952,1,0,0:0:0:0:
256,192,85119,8,0,86619,0:0:0:0:
