osu file format v12

[General]
AudioFilename: yubi bouenkyou.mp3
AudioLeadIn: 0
PreviewTime: 44617
Countdown: 0
SampleSet: Soft
StackLeniency: 0.7
Mode: 0
LetterboxInBreaks: 0
WidescreenStoryboard: 0

[Editor]
DistanceSpacing: 1.2
BeatDivisor: 4
GridSize: 4

[Metadata]
Title:Yubi Bouenkyou (TV Size)
TitleUnicode:指望遠鏡 (TV Size)
Artist:Nogizaka46
ArtistUnicode:乃木坂46
Creator:Restrict
Version:Hard
Source:Magi: The Labyrinth of Magic
Tags:aladdin alibaba
BeatmapID:330777
BeatmapSetID:131317

[Difficulty]
HPDrainRate:6
CircleSize:4
OverallDifficulty:7
ApproachRate:8
SliderMultiplier:1.4
SliderTickRate:1

[Events]
//Background and Video events
Video,-341,"video.avi"
0,0,"background.jpg",0,0
//Break Periods
2,74649,81867
//Storyboard Layer 0 (Background)
//Storyboard Layer 1 (Fail)
//Storyboard Layer 2 (Pass)
//Storyboard Layer 3 (Foreground)
//Storyboard Sound Samples
//Background Colour Transformations
3,100,163,162,255

[TimingPoints]
1283,666.666666666667,4,2,0,100,1,0
1283,-200,4,2,0,100,0,0
7285,333.333333333333,4,2,0,100,1,0
13284,333.333333333333,4,2,0,100,1,0
13284,-111.111111111111,4,2,0,100,0,0
33783,-100,4,2,0,100,0,0
34617,-133.333333333333,4,2,0,100,0,0
37283,-133.333333333333,4,2,0,90,0,0
37950,-133.333333333333,4,2,0,80,0,0
38617,-133.333333333333,4,2,0,70,0,0
39283,-133.333333333333,4,2,0,90,0,0
39950,-111.111111111111,4,2,0,100,0,0
45283,-100,4,2,0,100,0,1
57283,-111.111111111111,4,2,0,100,0,1
58617,-100,4,2,0,100,0,1
65283,-100,4,2,0,100,0,0
66617,-90.9090909090909,4,2,0,100,0,0

[Colours]
Combo1 : 244,64,118
Combo2 : 3,151,231
Combo3 : 255,231,89

[HitObjects]
432,256,1283,2,0,P|400:276|360:272,1,70,0|2,0:0|0:0,0:0:0:0:
300,252,2616,2,0,P|264:240|224:248,1,70,0|2,0:0|0:0,0:0:0:0:
164,264,3949,2,0,P|120:268|88:248,1,70,0|2,0:0|0:0,0:0:0:0:
256,192,5283,12,0,6616,0:0:0:0:
176,200,7451,6,0,L|176:144,2,35
140,336,7951,2,0,P|184:344|224:328,1,70,4|0,0:0|0:0,0:0:0:0:
336,268,8451,1,4,0:0:0:0:
336,268,8784,2,0,P|348:224|328:180,1,70,0|0,0:0|0:0,0:0:0:0:
308,124,9118,1,4,0:0:0:0:
308,124,9451,2,0,P|264:96|224:100,1,70
248,180,9784,2,0,P|192:212|116:188,1,140,4|0,0:0|0:0,0:0:0:0:
122,193,10284,1,4,0:0:0:0:
122,193,10451,1,0,0:0:0:0:
180,132,10618,6,0,P|212:104|260:96,1,70,4|0,0:0|0:0,0:0:0:0:
380,188,11118,1,4,0:0:0:0:
376,192,11451,1,4,0:0:0:0:
372,196,11784,1,4,0:0:0:0:
368,200,12118,1,4,0:0:0:0:
364,204,12451,2,0,P|308:232|236:204,1,140,4|0,0:0|0:0,0:0:0:0:
180,148,12951,1,4,0:0:0:0:
76,224,13284,6,0,P|132:268|188:264,1,125.999996154785,4|0,0:0|0:0,0:0:0:0:
244,232,13784,1,0,0:0:0:0:
308,208,13950,2,0,P|348:200|388:212,1,62.9999980773926
432,232,14283,1,0,0:0:0:0:
308,296,14617,6,0,P|268:248|268:168,1,125.999996154785
292,124,15117,1,0,0:0:0:0:
348,84,15283,2,0,P|388:76|428:96,1,62.9999980773926
448,140,15617,1,0,0:0:0:0:
292,124,15950,6,0,P|232:140|200:200,1,125.999996154785
208,260,16450,1,0,0:0:0:0:
244,320,16617,2,0,P|280:340|328:336,1,62.9999980773926
368,324,16950,1,0,0:0:0:0:
460,220,17283,6,0,P|420:180|352:180,1,125.999996154785
256,80,17950,2,0,P|192:108|160:180,1,125.999996154785
56,240,18617,2,0,P|84:304|144:332,1,125.999996154785
268,320,19283,5,0,0:0:0:0:
328,284,19450,1,0,0:0:0:0:
368,228,19617,2,0,P|384:176|348:108,1,125.999996154785
228,56,20283,2,0,P|188:56|144:76,1,62.9999980773926
104,96,20617,1,0,0:0:0:0:
68,156,20783,1,0,0:0:0:0:
100,220,20950,2,0,P|132:240|168:244,1,62.9999980773926
188,308,21283,2,0,P|248:280|320:292,1,125.999996154785
440,320,21950,5,0,0:0:0:0:
400,184,22283,1,0,0:0:0:0:
400,184,22450,2,0,P|360:132|288:120,1,125.999996154785,0|0,0:0|0:0,0:0:0:0:
236,116,22950,1,0,0:0:0:0:
168,120,23117,2,0,P|124:120|96:96,1,62.9999980773926,0|0,0:0|0:0,0:0:0:0:
148,52,23450,1,0,0:0:0:0:
216,68,23617,2,0,P|236:128|200:184,1,125.999996154785,0|6,0:0|0:0,0:0:0:0:
84,244,24283,6,0,P|76:284|96:324,1,62.9999980773926,0|0,0:0|0:0,0:0:0:0:
144,204,24617,2,0,P|120:180|80:172,1,62.9999980773926,0|0,0:0|0:0,0:0:0:0:
148,276,24950,2,0,P|184:264|212:228,1,62.9999980773926,0|0,0:0|0:0,0:0:0:0:
260,148,25283,6,0,L|288:84,1,62.9999980773926,0|0,0:0|0:0,0:0:0:0:
384,192,25617,2,0,L|352:272,1,62.9999980773926,0|0,0:0|0:0,0:0:0:0:
344,112,25950,2,0,L|416:140,1,62.9999980773926,0|0,0:0|0:0,0:0:0:0:
304,236,26283,2,0,L|236:204,1,62.9999980773926
196,256,26617,6,0,P|128:248|88:200,1,125.999996154785,0|0,0:0|0:0,0:0:0:0:
216,84,27283,6,0,P|256:92|288:120,1,62.9999980773926
160,184,27617,2,0,P|148:148|156:108,1,62.9999980773926
276,184,27950,2,0,P|248:212|204:220,1,62.9999980773926,0|0,0:0|0:0,0:0:0:0:
164,252,28283,6,0,P|128:268|104:304,1,62.9999980773926
245,348,28617,2,0,P|241:308|209:276,1,62.9999980773926
128,356,28950,2,0,P|188:372|256:336,1,125.999996154785
339,208,29617,6,0,P|311:194|280:192,1,62.9999980773926
368,276,29950,2,0,P|396:289|428:288,1,62.9999980773926
416,212,30283,2,0,P|408:176|384:148,1,62.9999980773926
292,268,30617,6,0,P|296:300|316:328,1,62.9999980773926
216,240,30950,2,0,P|204:200|176:176,1,62.9999980773926
280,192,31283,2,0,P|316:196|352:220,1,62.9999980773926
224,316,31617,2,0,P|188:312|152:288,1,62.9999980773926
184,88,31950,6,0,P|244:76|328:96,1,125.999996154785
372,116,32450,2,0,P|404:140|416:176,1,62.9999980773926
344,192,32783,1,0,0:0:0:0:
344,192,32867,1,0,0:0:0:0:
344,192,32950,2,0,L|272:228,1,62.9999980773926,0|4,0:0|0:0,0:0:0:0:
240,272,33283,2,0,L|168:256,2,62.9999980773926,0|0|0,0:0|0:0|0:0,0:0:0:0:
296,324,33783,2,0,L|360:324,2,35
372,312,34117,2,0,L|420:312,2,35
444,292,34450,1,0,0:0:0:0:
416,136,34617,6,0,P|368:108|304:112,1,105.000004005432,4|0,0:0|0:0,0:0:0:0:
256,132,35117,1,0,0:0:0:0:
196,164,35283,2,0,P|140:184|88:168,1,105.000004005432
36,296,35950,1,0,0:0:0:0:
36,296,36117,2,0,L|-8:256,2,52.5000020027161
104,292,36617,2,0,P|156:304|212:288,1,105.000004005432
308,240,37283,2,0,P|340:196|340:140,1,105.000004005432,4|0,0:0|0:0,0:0:0:0:
176,88,37950,2,0,P|198:137|246:165,1,105.000004005432,4|0,0:0|0:0,0:0:0:0:
376,48,38617,2,0,P|321:42|273:70,1,105.000004005432,4|0,0:0|0:0,0:0:0:0:
308,176,39283,2,0,L|368:156,2,52.5000020027161
220,280,39950,6,0,P|152:280|96:240,1,125.999996154785,4|0,0:0|0:0,0:0:0:0:
88,112,40617,1,0,0:0:0:0:
136,64,40783,1,0,0:0:0:0:
200,36,40950,2,0,P|268:32|328:56,1,125.999996154785
240,180,41617,2,0,L|192:244,1,62.9999980773926
284,244,41950,2,0,L|321:193,1,62.9999980773926
400,208,42283,2,0,L|352:272,1,62.9999980773926
288,328,42617,2,0,P|224:340|152:328,1,125.999996154785,4|0,0:0|0:0,0:0:0:0:
216,268,43117,2,0,P|148:252|88:216,1,125.999996154785,4|0,0:0|0:0,0:0:0:0:
168,180,43617,1,0,0:0:0:0:
168,180,43783,2,0,P|108:140|72:84,1,125.999996154785,4|0,0:0|0:0,0:0:0:0:
196,52,44283,1,0,0:0:0:0:
288,140,44450,1,0,0:0:0:0:
360,276,45283,6,0,P|304:296|220:276,1,140,4|2,0:0|0:0,0:0:0:0:
76,208,45950,2,0,L|16:292,1,70
12,152,46283,2,0,L|60:84,1,70,2|0,0:0|0:0,0:0:0:0:
136,100,46617,2,0,P|204:84|284:112,1,140,0|2,0:0|0:0,0:0:0:0:
348,252,47283,6,0,P|420:224|464:168,1,140,0|2,0:0|0:0,0:0:0:0:
312,84,47950,2,0,P|264:80|224:100,1,70
284,160,48283,2,0,P|328:164|376:140,1,70,2|0,0:0|0:0,0:0:0:0:
376,52,48617,2,0,P|352:24|304:8,1,70
216,192,48950,2,0,P|240:220|288:236,1,70,2|0,0:0|0:0,0:0:0:0:
344,268,49283,2,0,B|392:284|424:312|424:312|472:256|456:184,1,210,0|0,0:0|0:0,0:0:0:0:
424,128,49950,6,0,P|399:112|343:108,1,70
296,48,50283,2,0,P|280:72|276:128,1,70,2|0,0:0|0:0,0:0:0:0:
216,176,50617,2,0,P|239:192|295:196,1,70
344,256,50950,2,0,P|360:232|363:176,1,70,2|0,0:0|0:0,0:0:0:0:
328,116,51283,2,0,P|304:92|252:80,1,70
184,84,51617,1,2,0:0:0:0:
184,84,51950,2,0,P|124:132|108:200,1,140,0|2,0:0|0:0,0:0:0:0:
196,332,52617,2,0,P|256:284|272:216,1,140,0|2,0:0|0:0,0:0:0:0:
152,104,53283,6,0,L|95:145,1,70
216,136,53617,2,0,L|272:94,1,70,2|0,0:0|0:0,0:0:0:0:
224,204,53950,2,0,L|167:245,1,70
288,232,54283,2,0,L|345:191,1,70,2|0,0:0|0:0,0:0:0:0:
292,300,54617,2,0,L|220:348,1,70
148,344,54950,6,0,L|104:304,3,35
100,284,55283,2,0,L|104:236,3,35
96,208,55617,2,0,L|72:168,3,35
60,140,55950,6,0,P|128:104|200:116,1,140,4|2,0:0|0:0,0:0:0:0:
344,184,56617,2,0,P|276:220|204:208,1,140,0|2,0:0|0:0,0:0:0:0:
96,172,57283,2,0,L|28:144,2,62.9999980773926
208,236,57950,2,0,L|136:276,2,62.9999980773926
332,304,58617,6,0,P|360:236|348:172,1,140
304,100,59117,1,0,0:0:0:0:
276,20,59283,2,0,P|244:40|224:76,1,70
208,148,59617,2,0,P|172:132|144:100,1,70
288,180,59950,2,0,P|352:212|388:272,1,140
332,332,60450,1,0,0:0:0:0:
248,348,60617,2,0,P|176:324|124:264,1,140
12,160,61283,6,0,P|72:120|152:120,1,140,4|0,0:0|0:0,0:0:0:0:
220,140,61783,1,0,0:0:0:0:
292,180,61950,2,0,L|380:224,1,70
396,136,62283,2,0,L|324:100,1,70
272,276,62617,2,0,B|348:304|416:264,1,140
452,196,63117,1,0,0:0:0:0:
396,136,63283,2,0,B|320:108|252:148,1,140
192,176,63783,1,0,0:0:0:0:
132,244,63950,6,0,P|112:176|132:108,1,140
192,176,64450,2,0,P|225:113|288:79,1,140
284,172,64950,2,0,P|351:150|420:168,1,140
288,276,65617,5,0,0:0:0:0:
263,318,65783,1,0,0:0:0:0:
222,344,65950,1,0,0:0:0:0:
174,348,66117,1,0,0:0:0:0:
129,329,66283,1,0,0:0:0:0:
98,292,66450,1,0,0:0:0:0:
72,244,66617,6,0,L|44:168,1,77.0000023498536
116,112,66950,2,0,L|204:152,1,77.0000023498536
244,216,67283,2,0,L|320:176,1,77.0000023498536
392,228,67617,2,0,L|388:313,1,77.0000023498536
308,344,67950,2,0,L|235:298,1,77.0000023498536
172,248,68283,2,0,L|144:164,1,77.0000023498536
44,140,68617,2,0,L|68:214,1,77.0000023498536
132,124,68950,2,0,L|104:40,1,77.0000023498536
200,72,69283,6,0,L|272:116,1,77.0000023498536
236,200,69617,2,0,L|332:200,1,77.0000023498536
352,284,69950,2,0,L|419:216,1,77.0000023498536
492,268,70283,2,0,L|492:184,1,77.0000023498536
456,104,70617,2,0,L|408:28,1,77.0000023498536
280,116,70950,2,0,L|321:181,1,77.0000023498536
388,144,71283,2,0,L|347:79,1,77.0000023498536
216,156,71617,2,0,L|258:222,1,77.0000023498536
320,288,71950,6,0,L|420:336,1,77.0000023498536
384,228,72283,2,0,L|284:180,1,77.0000023498536
328,336,72617,2,0,L|412:372,1,77.0000023498536
376,180,72950,2,0,L|292:144,1,77.0000023498536
212,152,73283,6,0,L|112:200,1,77.0000023498536
148,92,73616,2,0,L|248:44,1,77.0000023498536
204,200,73950,2,0,L|120:236,1,77.0000023498536
156,44,74283,2,0,L|240:8,1,77.0000023498536
256,192,82617,12,0,85283,0:0:0:0:
