osu file format v5

[General]
AudioFilename: Now If There is a Smile.mp3
AudioLeadIn: 0
PreviewTime: -1
Countdown: 0
SampleSet: Normal
StackLeniency: 0.2
Mode: 0
LetterboxInBreaks: 0

[Editor]
DistanceSpacing: 1
BeatDivisor: 4
GridSize: 8

[Metadata]
Title:Now If There is a Smile
Artist:Nogawa Sakura
Creator:ztrot
Version:GATE OPEN!!!
Source:Gate Keepers 21
Tags:Nogawa Sakura Gate Keepers 21

[Difficulty]
HPDrainRate:6
CircleSize:5
OverallDifficulty:8
SliderMultiplier:1.5
SliderTickRate:1

[Events]
//Background and Video events
0,0,"gatekeepers21_mia_1280x1024_1.jpg"
Video,0,"Gate Keepers 21.avi"
//Break Periods
//Storyboard Layer 0 (Background)
//Storyboard Layer 1 (Fail)
//Storyboard Layer 2 (Pass)
//Storyboard Layer 3 (Foreground)
//Storyboard Sound Samples
//Background Colour Transformations
3,100,163,162,255

[TimingPoints]
141,869.565217391304,4,2,0,70,1,0
10329,-100,4,1,0,70,0,0
10585,379.746835443038,4,1,1,70,1,0
54635,-100,4,1,1,70,0,1
88022,-100,4,2,0,3,0,0

[Colours]
Combo1 : 255,255,255
Combo2 : 224,255,193
Combo3 : 102,132,251
Combo4 : 217,4,4

[HitObjects]
216,328,2749,1,0
296,328,2967,1,2
192,256,3184,1,0
320,256,3401,1,2
256,200,3619,1,2
72,72,4054,5,0
72,72,4271,1,2
440,72,4706,1,0
440,72,4923,1,2
216,128,6010,5,2
296,128,6227,1,0
176,192,6445,1,2
336,192,6662,1,0
216,264,6880,1,2
296,264,7097,1,0
72,312,7532,5,0
72,312,7749,1,2
440,312,8184,1,0
440,312,8401,1,2
256,192,8619,12,0,10140
256,336,10585,5,0
336,336,10774,1,4
360,304,10869,1,0
376,264,10964,1,8
360,224,11059,1,4
328,192,11154,1,4
256,240,11344,5,2
184,192,11534,1,2
256,152,11724,1,10
328,192,11914,1,2
256,48,12103,5,0
176,48,12293,1,4
152,80,12388,1,0
136,120,12483,1,8
152,160,12578,1,0
184,192,12673,1,4
256,152,12863,5,2
328,192,13053,1,2
256,240,13243,1,10
184,192,13433,1,2
256,336,13622,5,0
336,336,13812,1,4
368,304,13907,1,0
376,264,14002,1,8
360,224,14097,1,4
328,192,14192,1,0
384,136,14382,5,2
384,56,14572,1,2
304,56,14762,1,14
256,216,15141,5,4
352,256,15331,1,4
160,256,15521,1,0
160,256,15711,2,4,B|264:368|368:240,1,225,4|4
256,120,16660,5,0
144,256,17040,1,8
144,254,17230,2,0,B|184:350|258:260,1,150,0|0
366,254,17800,2,0,B|326:350|254:262,1,150,8|0
256,96,18559,1,8
256,264,18939,6,8,B|336:208|168:192|256:152,2,150,0|8|0
104,192,20078,1,8
144,120,20268,2,0,B|184:24|256:112,1,150
366,120,20838,2,0,B|326:24|254:112,1,150,8|0
256,264,21597,5,8
256,112,21977,1,0
256,184,22167,1,0
256,112,22357,1,8
440,280,22736,6,0,B|368:328|296:344,1,150,0|8
208,344,23306,2,0,B|144:330|64:274,1,150
72,200,23876,1,8
120,136,24066,6,0,B|264:208,1,150
254,202,24635,2,0,B|416:119,1,150,8|0
328,192,25205,5,0
256,248,25395,1,8
176,192,25584,1,0
256,160,25774,2,0,B|192:128|352:112|240:32,1,150,0|8
104,160,26534,6,0,B|256:160,1,150,0|8
256,161,27103,1,0
256,328,27483,5,0
320,280,27673,1,8
328,200,27863,1,0
328,160,27958,1,0
328,120,28053,2,0,B|240:88,2,75,0|0|8
184,208,28812,6,0,B|256:272|328:208,5,150,0|8|0|8|0|8
256,160,30901,2,0,B|216:136|280:120|248:80,2,75
176,144,31471,1,8
176,216,31660,1,0
256,216,31850,2,0,B|320:288|400:216,1,150,0|8
256,88,32610,2,0,B|328:24|392:96,1,150,0|8
320,160,33179,1,0
72,192,33749,5,8
184,312,34129,1,0
224,312,34224,1,0
264,312,34319,2,8,B|352:312,1,75,0|8
216,216,34888,6,0,B|160:120,1,75,0|0
216,88,35268,2,0,B|296:88,1,75,8|0
328,152,35648,2,0,B|280:232,1,75,0|0
160,232,36028,2,0,B|112:144,1,75,8|0
216,32,36407,2,0,B|328:32,1,75,0|0
384,176,36787,2,0,B|328:264,1,75,8|0
256,312,37167,2,0,B|256:216,1,75
256,152,37547,2,0,B|184:144|168:104,2,75,8|0|4
256,192,38116,12,0,39825
256,32,40205,5,0
256,112,40395,1,0
256,192,40584,1,8
136,320,40964,5,0
72,264,41154,1,0
72,224,41249,1,0
72,184,41344,1,8
136,136,41534,5,0
136,136,41724,1,0
200,184,41914,1,0
200,224,42009,1,0
200,264,42103,1,8
256,320,42293,5,0
256,320,42483,1,0
312,264,42673,1,0
312,224,42768,1,0
312,184,42863,1,8
376,136,43053,5,0
376,136,43243,1,0
440,184,43433,1,0
440,224,43528,1,0
440,264,43622,1,8
376,320,43812,5,0
376,320,44002,1,0
312,264,44192,1,0
312,224,44287,1,0
312,184,44382,1,8
256,136,44572,5,0
256,136,44762,1,0
200,184,44952,1,0
200,224,45047,1,0
200,264,45141,1,8
136,312,45331,5,0
136,312,45521,1,0
72,264,45711,1,0
72,224,45806,1,0
72,184,45901,1,8
136,128,46091,5,0
136,128,46281,1,0
200,176,46471,1,0
200,224,46566,1,0
200,264,46660,1,8
256,312,46850,5,0
312,264,47040,2,4,B|384:264|376:144,2,150,4|12|4
256,216,47990,1,0
256,144,48179,1,8
256,64,48369,2,4,B|168:64|136:168,1,150
144,184,48844,1,0
144,224,48939,1,8
256,344,49319,5,0
456,192,49698,1,8
256,40,50078,1,0
56,192,50458,1,8
256,192,50838,2,0,B|256:240|216:264|264:312,1,112.5
254,300,51217,1,8
256,192,51407,1,0
256,192,51502,12,0,52736
72,192,53116,5,4
256,48,53401,1,4
432,192,53686,1,4
376,192,53876,5,8
336,192,53971,1,0
296,192,54066,1,0
256,192,54160,1,0
216,192,54255,1,8
176,192,54350,1,0
136,192,54445,1,4
256,48,54635,5,6
56,192,55015,1,8
56,192,55205,1,6
448,192,55585,1,8
448,192,55774,1,6
256,336,56154,5,0
256,296,56249,1,0
256,256,56344,1,0
256,176,56534,1,8
216,112,56724,5,0
256,96,56819,1,0
296,112,56914,1,0
192,224,57103,5,0
320,224,57293,1,8
256,296,57483,1,0
256,336,57673,5,6
448,192,58053,1,10
448,192,58243,1,6
64,192,58622,1,0
64,192,58812,1,14
216,192,59192,5,0
256,160,59287,1,0
296,192,59382,1,0
296,256,59572,5,8
216,256,59762,1,0
256,160,59952,5,0
256,80,60141,2,0,B|256:32,2,37.5,0|0|8
192,136,60521,5,0
320,136,60711,1,0
256,192,60901,1,0
256,232,60996,1,0
256,272,61091,1,8
144,192,61281,5,0
144,192,61471,2,0,B|88:248|208:312,4,150,0|8|0|8|0
256,312,63369,1,8
256,232,63559,2,8,B|320:256|432:272|440:128|448:40|304:16|232:112,1,450,0|4
80,144,65078,1,0
120,144,65173,1,0
160,144,65268,1,0
256,24,65648,1,12
256,272,66028,5,0
168,192,66217,1,0
344,192,66407,1,8
256,104,66597,1,0
256,32,66787,5,6
64,192,67167,1,10
64,192,67357,1,4
448,192,67736,1,0
448,192,67926,1,14
296,192,68306,5,0
256,160,68401,1,0
216,192,68496,1,0
208,312,68686,5,8
304,312,68876,1,0
152,248,69066,1,0
360,248,69255,1,0
200,176,69445,1,8
312,176,69635,1,0
256,248,69825,5,6
256,96,70205,1,8
256,96,70395,1,6
424,192,70774,1,0
424,192,70964,2,6,B|296:344|256:144,1,225,14|6
264,184,71724,1,8
128,192,72103,5,0
128,272,72293,1,0
128,352,72483,1,8
256,248,72863,5,0
256,168,73053,1,0
256,88,73243,1,8
328,128,73433,1,0
328,128,73528,1,0
328,128,73622,1,4
328,208,73812,1,0
256,248,74002,1,8
184,208,74192,5,0
184,128,74382,1,0
256,88,74572,1,0
328,128,74762,1,8
328,208,74952,1,0
328,208,75047,1,4
328,208,75141,1,0
256,248,75331,1,0
256,168,75521,1,8
328,64,75711,5,0
184,64,75901,1,0
88,128,76186,5,0
88,168,76281,1,8
88,240,76471,1,0
88,312,76660,1,0
256,336,77040,5,12
256,48,77420,1,4
256,192,77800,5,8
392,192,78179,1,0
120,192,78464,1,0
120,192,78559,1,8
256,336,79129,5,0
256,256,79319,1,8
256,176,79509,1,0
320,176,79698,5,0
192,176,79888,1,0
320,104,80078,1,8
192,104,80268,1,0
256,32,80458,5,4
72,192,80838,1,14
72,192,81028,1,0
440,192,81407,1,0
440,192,81597,1,14
312,192,81977,5,8
256,256,82167,1,0
200,192,82357,1,8
48,192,82736,5,4
464,192,83496,1,4
256,192,83686,12,0,88053
