osu file format v9

[General]
AudioFilename: 2 hundred over.mp3
AudioLeadIn: 0
PreviewTime: 45344
Countdown: 0
SampleSet: Normal
StackLeniency: 0.7
Mode: 0
LetterboxInBreaks: 1

[Editor]
Bookmarks: 6686,45344,71115,96887,122659,148431,167760,174203
DistanceSpacing: 2
BeatDivisor: 4
GridSize: 8

[Metadata]
Title:2 hundred over
Artist:Nogawa Sakura
Creator:SaSam1
Version:Normal
Source:STRIKE WITCHES
Tags:erica hartmann

[Difficulty]
HPDrainRate:2
CircleSize:3
OverallDifficulty:3
ApproachRate:4
SliderMultiplier:1
SliderTickRate:0.5

[Events]
//Background and Video events
0,0,"BG.jpg"
//Break Periods
2,58530,69896
2,110074,121440
2,135846,147211
2,161617,166540
//Storyboard Layer 0 (Background)
//Storyboard Layer 1 (Fail)
//Storyboard Layer 2 (Pass)
//Storyboard Layer 3 (Foreground)
//Storyboard Sound Samples
//Background Colour Transformations
3,100,163,162,255

[TimingPoints]
6787,402.684563758389,4,1,1,80,1,0
22189,-100,4,1,1,90,0,0
22592,-100,4,1,1,80,0,0
25411,-100,4,1,1,90,0,0
25813,-100,4,1,1,80,0,0
28632,-100,4,1,1,90,0,0
29035,-100,4,1,1,80,0,0
31854,-100,4,1,1,90,0,0
32256,-100,4,1,1,80,0,0
45344,-100,4,1,1,80,0,1
49572,-100,4,1,1,90,0,1
49974,-100,4,1,1,80,0,1
56216,-100,4,1,1,90,0,1
56417,-100,4,1,1,80,0,0
77156,-100,4,1,1,90,0,0
77357,-100,4,1,1,80,0,0
90444,-100,4,1,1,90,0,0
90646,-100,4,1,1,80,0,0
96887,-100,4,1,1,80,0,1
101115,-100,4,1,1,90,0,1
101518,-100,4,1,1,80,0,1
107760,-100,4,1,1,90,0,1
107961,-100,4,1,1,80,0,0
125075,-100,4,1,1,90,0,0
125679,-100,4,1,1,80,0,0
127491,-100,4,1,1,90,0,0
128498,-100,4,1,1,80,0,0
131518,-100,4,1,1,90,0,0
132122,-100,4,1,1,80,0,0
135545,-100,4,1,1,90,0,0
135746,-100,4,1,1,80,0,0
152055,-100,4,1,1,90,0,0
152256,-100,4,1,1,80,0,0
161317,-100,4,1,1,90,0,0
161518,-100,4,1,1,80,0,0
172592,-100,4,1,1,90,0,0
174001,-100,4,1,1,80,0,0
174203,-100,4,1,1,80,0,1
178431,-100,4,1,1,90,0,1
178833,-100,4,1,1,80,0,1
185075,-100,4,1,1,90,0,1
185276,-100,4,1,1,80,0,0

[Colours]
Combo1 : 255,198,111
Combo2 : 255,255,255
Combo3 : 151,151,253
Combo4 : 253,138,138

[HitObjects]
256,192,6786,1,0
328,120,7189,2,0,B|368:80|432:80,2,100
400,192,8397,1,0
400,240,8800,1,0
400,288,9203,2,0,B|400:336,2,50
304,264,10008,2,0,B|264:304|200:304,3,100
120,304,11619,1,0
120,304,12021,1,0
120,208,12424,2,0,B|120:176,4,25
216,208,13229,6,0,B|216:152|256:104,2,100
216,208,14438,1,0
320,184,14840,1,0
320,184,15243,1,0
344,80,15646,2,0,B|299:49|243:49,1,100
72,72,16451,2,0,B|117:103|173:103,1,100
296,136,17256,2,0,B|251:105|195:105,2,100
368,200,18364,1,0
304,272,18666,1,0
208,272,18968,1,0
256,192,19270,5,0
256,192,19471,1,0
256,192,19672,1,0
128,120,20075,6,0,B|128:56|200:56,2,100
384,264,21283,2,0,B|384:328|312:328,2,100
464,336,22290,1,2
464,336,22491,1,2
464,144,22894,6,0,B|360:144,1,100
240,56,23699,2,0,B|352:56,2,100
208,144,24907,2,0,B|88:144,1,100
48,48,25511,1,2
48,48,25713,1,2
48,192,26115,5,0
144,192,26518,1,0
240,192,26921,2,0,B|240:296,2,100
344,192,28129,2,0,B|344:88,1,100
464,48,28733,1,2
464,48,28934,1,2
432,144,29337,6,0,B|432:200|432:256,1,100
400,272,30142,2,0,B|288:320,1,100
168,312,30948,2,0,B|280:312,2,100
48,336,31954,1,2
48,336,32156,1,2
128,192,32558,5,0
168,104,32961,2,0,B|208:48|304:48|344:112,1,200
424,192,34169,2,0,B|384:248|288:248|240:184,1,200
248,192,35377,1,0
64,64,36182,2,0,B|184:64,1,100
256,64,36988,1,0
256,160,37391,2,0,B|152:160,1,100
256,160,38196,2,0,B|360:160,2,100
320,256,39404,5,0
410,324,39807,2,0,B|464:240,1,100
464,144,40612,2,0,B|408:56,1,100
304,48,41417,2,0,B|365:148,1,100
256,280,42223,5,0
168,192,42625,1,0
256,104,43028,1,0
344,192,43431,1,0
256,192,43833,8,0,45042
88,88,45444,6,0,B|200:88,1,100
360,160,46250,2,0,B|256:160,1,100
192,232,47055,1,0
104,288,47458,2,0,B|144:344|240:344|280:280,1,200
368,232,48666,1,0
368,232,49068,2,0,B|400:184|368:136,1,100
296,56,49672,1,8
296,56,49874,1,8
224,136,50276,2,0,B|176:104|128:136,2,100
160,240,51887,6,0,B|272:240,1,100
312,328,52693,2,0,B|208:328,1,100
352,240,53498,2,0,B|320:176|368:136,1,100
440,184,54303,2,0,B|472:120|424:80,1,100
256,88,55109,2,0,B|200:48|152:104,2,100
256,192,56317,1,4
256,192,56719,8,0,58330
256,192,71216,6,0,B|152:192,1,100
208,280,72021,2,0,B|324:280,1,100
352,192,72827,2,0,B|352:88,1,100
440,144,73632,2,0,B|440:248,2,100
344,88,74840,2,0,B|304:32|208:32|168:96,1,200
256,176,76048,2,0,B|216:232|120:232|80:168,1,200
72,72,77256,1,2
72,72,77659,6,0,B|176:72,1,100
344,144,78464,2,0,B|240:144,1,100
192,288,79270,2,0,B|312:288,2,100
136,216,80478,1,0
88,136,80880,2,0,B|32:136,2,50
184,136,81686,2,0,B|184:80,2,50
280,136,82491,2,0,B|384:136,2,100
232,216,83699,2,0,B|232:256,4,25
128,192,84505,6,0,B|128:72|256:72,1,200
384,192,85713,2,0,B|384:312|256:312,1,200
256,312,86921,1,0
256,192,87726,2,0,B|256:72,2,100
160,192,88934,2,0,B|160:304,3,100
160,312,90545,1,2
72,144,90948,2,0,B|72:248,2,100
160,96,92156,1,0
256,72,92558,1,0
352,96,92961,1,0
440,144,93364,1,0
440,144,93766,2,0,B|440:256,1,100
352,296,94572,2,0,B|352:184,1,100
256,192,95377,8,0,96585
440,96,96988,6,0,B|328:96,1,100
288,192,97793,2,0,B|400:192,1,100
440,288,98599,2,0,B|328:288,1,100
256,288,99404,2,0,B|216:344|120:344|80:280,1,200
160,192,100612,2,0,B|120:152,2,50
256,192,101216,1,8
256,192,101417,1,8
312,112,101820,2,0,B|416:112,1,100
440,112,102625,1,0
256,40,103028,1,0
72,112,103431,5,0
104,112,103833,2,0,B|216:112,1,100
256,192,104639,1,0
352,192,105042,1,0
448,192,105444,1,0
440,320,105847,2,0,B|400:264|304:264|264:328,1,200
352,360,107055,1,0
352,192,107458,1,0
256,192,107860,1,4
256,192,108263,8,0,109874
256,192,122760,5,0
256,192,123162,1,0
328,120,123565,2,0,B|448:120,1,100
464,256,124370,2,0,B|352:256,1,100
256,320,125176,1,2
256,320,125578,1,2
256,192,125981,2,0,B|256:144,2,50
128,256,126786,2,0,B|184:256,2,50
128,144,127592,5,4
256,96,127995,1,4
384,144,128397,1,4
208,320,129203,2,0,B|240:256|192:216,1,100
120,272,130008,2,0,B|64:232|64:136|128:96,1,200
48,48,131216,1,0
168,184,131619,2,2,B|288:184,1,100
352,256,132424,5,0
352,256,132827,1,0
448,320,133229,2,0,B|448:216,2,100
352,256,134438,1,0
256,192,134840,1,0
160,256,135243,1,0
256,320,135646,1,4
256,192,148531,6,0,B|136:192,1,100
64,192,149337,2,0,B|64:88,2,100
64,288,150545,1,0
160,288,150948,2,0,B|272:288,2,100
160,192,152156,1,2
256,192,152558,2,0,B|376:192,1,100
456,104,153364,2,0,B|352:104,1,100
256,104,154169,2,0,B|224:104,4,25
120,112,154974,6,0,B|64:152|64:248|128:288,1,200
216,288,156182,1,0
312,288,156585,2,0,B|312:320,4,25
408,288,157391,2,0,B|408:256,4,25
328,120,158196,2,0,B|368:80|432:80,2,100
256,192,159404,1,0
256,192,159807,1,0
184,264,160209,2,0,B|144:304|80:304,2,100
256,192,161417,1,4
256,56,167860,5,0
392,120,168666,1,0
392,264,169471,1,0
256,328,170276,1,0
120,264,171082,1,0
120,120,171887,1,0
256,192,172693,2,2,B|368:192,1,100
456,280,173498,2,2,B|352:280,1,100
256,192,174303,5,0
256,192,174706,1,0
256,288,175109,2,0,B|152:288,1,100
56,200,175914,2,0,B|160:200,1,100
208,96,176719,2,0,B|264:64|320:104,2,100
256,192,177927,2,0,B|208:192,2,50
360,192,178531,1,8
360,192,178733,1,8
416,296,179135,2,0,B|296:296,1,100
216,296,179941,2,0,B|328:296,1,100
208,144,180746,6,0,B|104:144,1,100
152,232,181552,2,0,B|256:232,1,100
256,64,182357,1,0
160,40,182760,1,0
64,64,183162,1,0
256,192,183565,5,0
352,216,183968,1,0
448,192,184370,1,0
352,112,184773,1,0
256,192,185176,5,4
256,192,185578,8,0,187189
