osu file format v6

[General]
AudioFilename: Boss Theme.mp3
AudioLeadIn: 1963
PreviewTime: 1290
Countdown: 0
SampleSet: Normal
StackLeniency: 0.2
Mode: 0
LetterboxInBreaks: 1

[Editor]
Bookmarks: 2175,3689,7391,9073,9410,9494,18159,18832,19505,20178,25562,27581,34648,38686,51137
DistanceSpacing: 0.800000011920929
BeatDivisor: 1
GridSize: 8

[Metadata]
Title:Boss Theme
Artist:Nobuyuki Shioda
Creator:Bassmaster
Version:Normal
Source:Bananan Ouji No Daibouken
Tags:Banana Prince NES

[Difficulty]
HPDrainRate:2
CircleSize:4
OverallDifficulty:2
SliderMultiplier:1
SliderTickRate:2

[Events]
//Background and Video events
0,0,"1158785109-00.png"
//Break Periods
//Storyboard Layer 0 (Background)
//Storyboard Layer 1 (Fail)
//Storyboard Layer 2 (Pass)
//Storyboard Layer 3 (Foreground)
//Storyboard Sound Samples
//Background Colour Transformations
3,100,163,162,255

[TimingPoints]
1531,336.511497476164,4,1,0,40,1,0

[Colours]
Combo1 : 121,121,0
Combo2 : 255,255,0
Combo3 : 221,221,0
Combo4 : 166,166,0

[HitObjects]
256,192,1531,2,0,L|368:192|368:280|256:280,1,300,8|0
200,240,2877,2,0,L|184:40|64:40,1,300
64,104,4223,1,8
72,264,4896,1,0
232,248,5569,1,8
376,176,6242,2,0,L|376:96,2,50,0|8|0
328,112,6915,6,0,B|288:80|224:128,3,100,0|8|0|8
248,200,8261,2,0,B|208:168|144:216,3,100,0|8|0|8
256,192,9439,12,0,11626
56,184,12299,6,0,B|56:72,1,100,0|8
136,80,12972,2,0,B|240:80,1,100,0|8
312,88,13645,2,0,B|392:208,1,100,0|8
368,248,14318,2,0,B|280:312,1,100,0|8
208,296,14991,5,0
144,248,15327,1,8
88,184,15664,1,0
120,112,16000,1,8
192,80,16337,1,0
264,104,16674,1,8
344,120,17010,2,0,B|416:160|416:144,2,50,0|8|0
304,192,17683,6,0,B|208:280,2,100,0|8|0
232,136,18693,1,8
152,144,19029,2,0,B|168:24,2,100,0|8|0
56,272,20375,5,8
224,104,21385,2,8,B|328:48,1,100,8|8
296,136,22058,2,0,B|408:168,1,100,0|8
480,296,23067,6,0,B|296:112,1,200
304,128,23909,1,8
272,104,24077,1,0
192,104,24413,6,0,B|48:256,1,200
40,288,25255,1,8
48,328,25423,1,0
144,200,26096,5,0
296,248,26769,1,8
424,152,27442,1,0
200,64,28115,6,0,L|416:72|416:256,1,400
352,304,29797,2,0,L|48:304,1,300
208,320,31480,5,8
176,168,32153,1,0
256,168,32490,1,8
56,288,33499,1,0
72,208,33836,5,8
128,152,34172,1,0
208,152,34509,2,0,L|280:152,2,50,8|0|0
128,152,35182,1,8
112,232,35518,1,0
168,280,35855,2,0,L|240:280,2,50,8|0|0
200,208,36528,6,0,L|200:152,2,50,0|0|8
280,208,37201,2,0,L|336:208,2,50,0|0|8
272,128,37874,1,0
352,128,38210,2,0,L|416:128,4,50,8|0|0|0|8
296,184,39220,5,0
56,264,39893,2,0,L|56:192,4,50,8|0|0|0|8
136,240,40902,1,0
216,240,41239,1,8
216,240,41407,1,0
216,240,41575,1,0
216,240,41744,1,0
216,240,41912,5,8
56,112,42921,1,0
136,128,43258,1,8
336,256,44267,1,0
264,224,44604,6,0,L|64:224,1,200
64,224,45445,1,0
64,224,45614,1,0
64,144,45950,2,0,B|272:144,1,200
264,144,46791,1,0
264,144,46960,1,0
192,176,47296,5,0
184,96,47633,1,0
264,120,47969,1,8
328,160,48306,1,0
392,208,48642,1,8
408,288,48979,1,0
352,344,49315,1,8
272,352,49652,1,0
256,192,49988,12,0,53017
144,160,54026,5,8
272,248,54699,1,0
192,256,55036,1,0
120,216,55372,1,4
