osu file format v6

[General]
AudioFilename: Boss Theme.mp3
AudioLeadIn: 1963
PreviewTime: 1290
Countdown: 0
SampleSet: Normal
StackLeniency: 0.2
Mode: 0
LetterboxInBreaks: 1

[Editor]
Bookmarks: 9073,9410,9494,18159,18832,19505,20178,25562,27581,34648,51137
DistanceSpacing: 1
BeatDivisor: 2
GridSize: 8

[Metadata]
Title:Boss Theme
Artist:Nobuyuki Shioda
Creator:Bassmaster
Version:Hard
Source:Bananan Ouji No Daibouken
Tags:Banana Prince NES

[Difficulty]
HPDrainRate:5
CircleSize:5
OverallDifficulty:6
SliderMultiplier:1.4
SliderTickRate:2

[Events]
//Background and Video events
0,0,"1158785109-00.png"
//Break Periods
//Storyboard Layer 0 (Background)
//Storyboard Layer 1 (Fail)
//Storyboard Layer 2 (Pass)
//Storyboard Layer 3 (Foreground)
//Storyboard Sound Samples
//Background Colour Transformations
3,100,163,162,255

[TimingPoints]
1531,336.511497476164,4,1,0,40,1,0

[Colours]
Combo1 : 121,121,0
Combo2 : 255,255,0
Combo3 : 221,221,0
Combo4 : 166,166,0

[HitObjects]
32,64,1531,1,0
128,160,1868,1,8
232,64,2205,2,0,L|328:96|328:144,1,140,0|8
424,232,2878,1,0
328,344,3214,1,8
216,272,3551,1,0
216,272,3719,1,0
216,272,3887,1,8
88,208,4224,5,0
184,112,4560,1,8
216,248,4897,1,0
312,152,5233,1,8
392,264,5570,2,8,L|392:184,6,70,0|0|0|8|8|8|0
264,320,6916,5,0
168,216,7252,1,8
216,80,7589,1,0
336,152,7925,1,8
440,240,8262,2,0,B|344:248|288:240,1,140,0|8
168,272,8935,5,0
80,184,9271,2,2,B|80:136,4,35
136,184,9776,2,8,B|136:144,2,35,8|8|8
432,192,10617,5,0
288,192,10954,2,8,B|48:192|80:72,1,280
216,72,11963,1,0
352,72,12300,5,0
256,176,12636,1,0
344,288,12973,1,8
344,288,13141,1,8
344,288,13309,1,8
200,304,13646,1,0
104,208,13982,1,0
176,88,14319,2,8,B|200:64|248:88,2,70
304,152,14992,5,0
216,264,15328,1,8
352,264,15665,1,0
216,264,16001,1,8
280,144,16338,5,0
280,144,16506,1,0
280,144,16675,1,8
280,144,16843,1,8
280,144,17011,1,0
280,144,17179,2,2,B|280:184,2,35
408,192,17684,5,0
280,144,18021,1,8
184,248,18357,2,8,B|136:248,8,35,8|8|8|8|8|8|8|8|8
336,264,19367,1,0
472,272,19703,2,8,B|512:272,8,35,8|8|8|8|8|8|8|8|8
296,272,20713,6,0,B|64:96,1,280
200,64,21722,1,0
400,128,22227,1,8
344,176,22395,1,0
216,232,22732,1,0
104,152,23068,5,0
240,128,23405,1,8
336,232,23741,1,0
216,312,24078,1,8
112,232,24414,2,0,B|40:96,1,140,0|8
152,16,25087,2,0,B|304:16,1,140,0|8
432,192,25760,6,0,B|384:208|360:192,1,70,0|8
296,176,26097,2,0,B|256:176|216:200,1,70,0|8
160,200,26433,2,0,B|120:200|88:176,1,70,0|8
120,112,26770,2,0,B|168:104|200:112,1,70,0|8
256,128,27106,1,0
256,200,27275,1,0
328,200,27443,1,0
288,256,27611,2,8,B|288:336,3,70
256,200,28284,6,0,B|208:200,2,35,0|8|0
328,200,28621,2,0,B|368:200,2,35,0|8|0
288,144,28957,2,0,B|288:184,10,35,0|0|0|0|0|0|0|0|0|0|0
248,96,29967,6,0,B|216:72,2,35,0|8|0
320,96,30303,2,8,B|352:72,10,35,8|8|8|8|8|8|8|8|8|8|8
264,152,31313,5,0
264,152,31397,1,0
264,152,31481,1,0
64,344,32154,5,0
64,200,32491,1,8
232,72,32995,2,0,B|280:88,1,35,0|8
296,104,33164,1,0
424,160,33500,1,0
312,232,33837,6,0,B|160:232,3,140,0|8|0|8
264,128,35183,1,0
400,128,35519,1,8
368,264,35856,1,0
312,304,36024,2,8,B|312:224,1,70
192,312,36529,2,0,L|112:312|112:248,1,140,0|8
112,112,37202,6,0,L|112:48|200:48,1,140,0|8
248,176,37875,1,0
248,176,38043,1,8
248,176,38211,1,0
248,176,38380,1,8
176,176,38548,2,0,L|96:176,3,70,0|0|0|8
32,176,39221,5,0
32,312,39557,1,8
168,280,39894,2,8,B|216:280|216:232,1,70
216,168,40230,2,0,B|272:168|272:216,1,70,0|8
272,272,40567,5,0
408,256,40903,1,8
408,112,41240,2,0,B|336:112|336:144,6,70
136,192,42922,5,0
272,192,43259,2,8,B|424:192,1,140,8|0
96,248,44605,5,0
80,176,44773,2,0,B|80:128,2,35,0|8|0
152,192,45110,2,0,B|152:232,2,35,0|8|0
224,192,45446,1,0
224,192,45615,1,8
296,192,45783,2,0,B|296:144,2,35,0|8|0
360,176,46119,2,0,B|400:176,2,35,0|8|0
360,248,46456,2,0,B|360:288,2,35,0|8|0
296,264,46792,1,0
296,264,46961,1,8
224,256,47129,6,0,B|224:216,4,35,0|8|8|0|0
152,256,47634,2,0,B|104:256,2,35,0|0|8
152,184,47970,2,0,B|152:144,2,35,0|8|0
224,184,48307,2,0,B|264:184,2,35,0|8|0
224,256,48643,5,0
296,256,48811,1,8
368,256,48980,1,0
368,184,49148,1,8
312,144,49316,1,0
256,184,49484,1,8
200,144,49653,1,0
144,104,49821,6,0,L|144:184,1,70,0|8
144,240,50157,2,0,L|216:240,1,70,0|8
280,240,50494,2,0,L|352:240,1,70,0|8
352,168,50830,2,0,B|352:128|408:128,1,70,0|8
472,128,51167,2,0,B|472:208,1,70,0|8
472,264,51503,2,0,B|472:336,7,70
408,320,52850,5,0
336,304,53018,2,8,B|56:224,1,280
192,160,54027,1,8
440,72,54700,5,0
352,184,55037,1,8
256,288,55373,1,4
