osu file format v13

[General]
AudioFilename: zanarkand.ogg
AudioLeadIn: 0
PreviewTime: -1
Countdown: 0
SampleSet: None
StackLeniency: 0.7
Mode: 0
LetterboxInBreaks: 0
WidescreenStoryboard: 1

[Editor]
Bookmarks: 95585
DistanceSpacing: 0.8
BeatDivisor: 4
GridSize: 4
TimelineZoom: 2.251232

[Metadata]
Title:Zanarkand
TitleUnicode:Zanarkand
Artist:Nobuo Uematsu
ArtistUnicode:Nobuo Uematsu
Creator:Tear
Version:Normal
Source:Final Fantasy X
Tags:
BeatmapID:583077
BeatmapSetID:254125

[Difficulty]
HPDrainRate:6
CircleSize:4.5
OverallDifficulty:5
ApproachRate:6
SliderMultiplier:1.2
SliderTickRate:1

[Events]
//Background and Video events
//Break Periods
//Storyboard Layer 0 (Background)
//Storyboard Layer 1 (Fail)
//Storyboard Layer 2 (Pass)
//Storyboard Layer 3 (Foreground)
//Storyboard Sound Samples

[TimingPoints]
388,382.165605095541,6,2,0,20,1,0
770,332.409972299169,6,2,0,20,1,0
2100,459.770114942529,6,2,0,20,1,0
2560,374.531835205993,6,2,0,20,1,0
4807,340.909090909091,6,2,0,20,1,0
5147,346.820809248555,6,2,0,20,1,0
5494,303.79746835443,6,2,0,20,1,0
5797,328.767123287671,6,2,0,20,1,0
6126,346.820809248555,6,2,0,20,1,0
6473,418.118466898955,6,2,0,20,1,0
6891,377.358490566038,6,2,0,20,1,0
9154,359.281437125748,6,2,0,20,1,0
9513,309.278350515464,6,2,0,20,1,0
9822,343.24942791762,6,2,0,20,1,0
10852,373.831775700935,6,2,0,20,1,0
11225,361.01083032491,6,2,0,20,1,0
11946,342.857142857143,6,2,0,20,1,0
12974,363.636363636364,6,2,0,20,1,0
13337,305.343511450382,6,2,0,20,1,0
13642,330.578512396694,6,2,0,20,1,0
14964,416.666666666667,6,2,0,20,1,0
15379,362.976406533575,6,2,0,20,1,0
17557,352.941176470588,6,2,0,20,1,0
17909,326.975476839237,6,2,0,20,1,0
19216,398.671096345515,6,2,0,20,1,0
19614,376.175548589342,6,2,0,20,1,0
20366,327.868852459016,6,2,0,20,1,0
21348,362.537764350453,6,2,0,20,1,0
21710,337.078651685393,6,2,0,20,1,0
22046,322.58064516129,6,2,0,20,1,0
22368,306.122448979592,6,2,0,20,1,0
22674,331.491712707182,6,2,0,20,1,0
23005,322.58064516129,6,2,0,20,1,0
23327,326.086956521739,6,2,0,20,1,0
24630,344.827586206897,6,2,0,20,1,0
24975,347.826086956522,6,2,0,20,1,0
25322,420.652631578947,6,2,0,20,1,0
25742,344.827586206897,6,2,0,20,1,0
26087,334.261838440111,6,2,0,20,1,0
27757,338.983050847458,6,2,0,20,1,0
28096,323.450134770889,6,2,0,20,1,0
28742,334.634690462911,6,2,0,20,1,0
30080,319.148936170213,6,2,0,20,1,0
30399,304.568527918782,6,2,0,20,1,0
30703,346.820809248555,6,2,0,20,1,0
31049,326.086956521739,6,2,0,20,1,0
31700,339.943342776204,6,2,0,20,1,0
32039,312.5,6,2,0,20,1,0
32351,321.71581769437,6,2,0,20,1,0
32672,336.511497476164,6,2,0,20,1,0
33345,344.827586206897,6,2,0,20,1,0
33689,329.67032967033,6,2,0,20,1,0
34019,322.58064516129,6,2,0,20,1,0
34342,320,6,2,0,20,1,0
35301,329.67032967033,6,2,0,20,1,0
35631,345.820809248555,6,2,0,20,1,0
35977,322.58064516129,6,2,0,20,1,0
36299,320,6,2,0,20,1,0
36618,335.195530726257,6,2,0,20,1,0
36952,316.622691292876,6,2,0,20,1,0
37268,333.333333333333,6,2,0,20,1,0
37600,352.941176470588,6,2,0,20,1,0
37952,306.122448979592,6,2,0,20,1,0
38258,292.682926829268,6,2,0,20,1,0
38550,333.333333333333,6,2,0,20,1,0
38883,320,6,2,0,20,1,0
39203,334.261838440111,6,2,0,20,1,0
39537,346.820809248555,6,2,0,20,1,0
39884,320,6,2,0,20,1,0
40204,305.343511450382,6,2,0,20,1,0
40509,329.67032967033,6,2,0,20,1,0
40839,350.877192982456,6,2,0,20,1,0
41190,332.042058660764,6,2,0,20,1,0
41853,320.512820512821,6,2,0,20,1,0
42494,320.855614973262,6,2,0,20,1,0
42815,306.90537084399,6,2,0,20,1,0
43122,342.857142857143,6,2,0,20,1,0
43465,323.450134770889,6,2,0,20,1,0
43789,317.460317460317,6,2,0,20,1,0
44106,303.79746835443,6,2,0,20,1,0
44410,334.261838440111,6,2,0,20,1,0
44744,291.970802919708,6,2,0,20,1,0
45036,347.826086956522,6,2,0,20,1,0
45383,334.261838440111,6,2,0,20,1,0
45717,320.855614973262,6,2,0,20,1,0
46037,293.398533007335,6,2,0,20,1,0
46330,323.450134770889,6,2,0,20,1,0
46978,332.409972299169,6,2,0,20,1,0
47311,337.078651685393,6,2,0,20,1,0
47648,309.278350515464,6,2,0,20,1,0
47957,300.751879699248,6,2,0,20,1,0
48258,346.820809248555,6,2,0,20,1,0
48605,306.122448979592,6,2,0,20,1,0
48911,360.36036036036,6,2,0,20,1,0
49271,353.982300884956,6,2,0,20,1,0
49625,329.67032967033,6,2,0,20,1,0
49954,348.837209302326,6,2,0,20,1,0
50303,317.460317460317,6,2,0,20,1,0
50620,346.820809248555,6,2,0,20,1,0
50967,388.349514563107,6,2,0,20,1,0
51356,382.165605095541,6,2,0,20,1,0
52120,362.537764350453,6,2,0,20,1,0
52844,345.821325648415,6,2,0,20,1,0
53535,348.837209302326,6,2,0,20,1,0
53884,335.195530726257,6,2,0,20,1,0
54219,306.122448979592,6,2,0,20,1,0
54524,333.333333333333,6,2,0,20,1,0
54856,364.741641337386,6,2,0,20,1,0
55221,318.302387267905,6,2,0,20,1,0
55858,329.67032967033,6,2,0,20,1,0
56187,325.20325203252,6,2,0,20,1,0
56512,320,6,2,0,20,1,0
56832,310.880829015544,6,2,0,20,1,0
57142,326.975476839237,6,2,0,20,1,0
57468,331.491712707182,6,2,0,20,1,0
57799,317.460317460317,6,2,0,20,1,0
58434,337.078651685393,6,2,0,20,1,0
58771,331.491712707182,6,2,0,20,1,0
59102,390.879478827362,6,2,0,20,1,0
59493,336.134453781513,6,2,0,20,1,0
59829,333.333333333333,6,2,0,20,1,0
60161,303.79746835443,6,2,0,20,1,0
60464,329.308452250274,6,2,0,20,1,0
61452,351.906158357771,6,2,0,20,1,0
61803,329.67032967033,6,2,0,20,1,0
62132,297.029702970297,6,2,0,20,1,0
62428,315.789473684211,6,2,0,20,1,0
62744,333.333333333333,6,2,0,20,1,0
63077,315.789473684211,6,2,0,20,1,0
63393,352.941176470588,6,2,0,20,1,0
63747,319.148936170213,6,2,0,20,1,0
64066,307.692307692308,6,2,0,20,1,0
64681,330.578512396694,6,2,0,20,1,0
65341,292.682926829268,6,2,0,20,1,0
65634,346.820809248555,6,2,0,20,1,0
65981,307.692307692308,6,2,0,20,1,0
66288,317.460317460317,6,2,0,20,1,0
66923,348.837209302326,6,2,0,20,1,0
67272,335.195530726257,6,2,0,20,1,0
67606,317.460317460317,6,2,0,20,1,0
67924,310.880829015544,6,2,0,20,1,0
68234,342.857142857143,6,2,0,20,1,0
68575,322.58064516129,6,2,0,20,1,0
68897,400,6,2,0,20,1,0
69297,369.913686806412,6,2,0,20,1,0
71516,337.078651685393,6,2,0,20,1,0
71853,350.877192982456,6,2,0,20,1,0
72204,316.622691292876,6,2,0,20,1,0
72837,347.826086956522,6,2,0,20,1,0
73184,389.61038961039,6,2,0,20,1,0
73574,368.098159509202,6,2,0,20,1,0
74309,375,6,2,0,20,1,0
75059,333.333333333333,6,2,0,20,1,0
75392,392.156862745098,6,2,0,20,1,0
75785,363.636363636364,6,2,0,20,1,0
76147,331.491712707182,6,2,0,20,1,0
76479,309.278350515464,6,2,0,20,1,0
76788,320.855614973262,6,2,0,20,1,0
77107,346.820809248555,6,2,0,20,1,0
77453,337.078651685393,6,2,0,20,1,0
77790,335.195530726257,6,2,0,20,1,0
78124,314.13612565445,6,2,0,20,1,0
78438,310.880829015544,6,2,0,20,1,0
78749,333.333333333333,6,2,0,20,1,0
79081,319.148936170213,6,2,0,20,1,0
79399,359.281437125748,6,2,0,20,1,0
79757,335.195530726257,6,2,0,20,1,0
80093,292.682926829268,6,2,0,20,1,0
80386,317.460317460317,6,2,0,20,1,0
80703,335.195530726257,6,2,0,20,1,0
81037,337.078651685393,6,2,0,20,1,0
81373,359.281437125748,6,2,0,20,1,0
81731,352.941176470588,6,2,0,20,1,0
82083,317.460317460317,6,2,0,20,1,0
82717,348.837209302326,6,2,0,20,1,0
83065,333.333333333333,6,2,0,20,1,0
83398,459.770114942529,6,2,0,20,1,0
83857,375,6,2,0,20,1,0
84607,355.029585798817,6,2,0,20,1,0
85317,379.746835443038,6,2,0,20,1,0
86076,350.877192982456,6,2,0,20,1,0
87479,389.357560025957,6,2,0,20,1,0
88257,379.506641366224,6,2,0,20,1,0
89395,392.156862745098,6,2,0,20,1,0
89787,407.055630936228,6,2,0,20,1,0
90601,365.853658536585,6,2,0,20,1,0
90966,348.837209302326,6,2,0,20,1,0
91315,331.491712707182,6,2,0,20,1,0
91645,361.44578313253,6,2,0,20,1,0
92007,392.156862745098,6,2,0,20,1,0
92399,461.015267175573,6,2,0,20,1,0
92856,478.468899521531,6,2,0,20,1,0

[HitObjects]
160,152,388,6,0,P|198:196|204:255,1,120
110,235,1102,1,0,0:0:0:0:
65,149,1434,1,0,0:0:0:0:
110,64,1767,2,0,L|229:48,1,120
330,140,2559,1,0,0:0:0:0:
405,208,4807,2,0,P|384:270|333:306,1,120
204,354,5494,2,0,P|219:290|257:254,1,120,0|0,0:0|0:0,0:0:0:0:
297,172,6126,1,0,0:0:0:0:
237,97,6472,1,0,0:0:0:0:
123,125,6891,1,0,0:0:0:0:
335,55,9154,2,0,L|309:175,1,120
263,329,9822,2,0,L|237:209,1,120
190,55,10508,2,0,L|164:175,1,120
164,172,11225,1,0,0:0:0:0:
204,296,11946,1,0,0:0:0:0:
335,337,12974,1,0,0:0:0:0:
423,263,13337,2,0,P|425:205|390:157,1,120
370,63,13972,2,0,P|319:92|295:146,1,120
223,210,14633,2,0,P|273:240|332:234,1,120
410,131,15380,1,0,0:0:0:0:
192,155,17557,2,0,P|173:212|130:265,1,120
256,212,18235,2,0,L|256:332,1,120
320,155,18889,2,0,P|337:211|374:259,1,120
398,125,19614,1,0,0:0:0:0:
256,27,20366,1,0,0:0:0:0:
114,125,21348,1,0,0:0:0:0:
71,219,21710,2,0,P|85:275|139:311,1,120
231,243,22368,2,0,P|217:187|163:151,1,120
150,231,23005,1,0,0:0:0:0:
231,243,23327,1,0,0:0:0:0:
304,283,23653,2,0,P|318:339|372:375,2,120,0|0|0,0:0|0:0|0:0,0:0:0:0:
353,216,24630,1,0,0:0:0:0:
370,122,24975,1,0,0:0:0:0:
294,33,25322,1,0,0:0:0:0:
162,47,25742,1,0,0:0:0:0:
84,124,26086,2,0,L|61:241,1,120
106,323,26755,1,0,0:0:0:0:
154,240,27089,1,0,0:0:0:0:
60,241,27424,1,0,0:0:0:0:
154,240,27758,2,0,P|205:202|218:146,1,120,0|0,0:0|0:0,0:0:0:0:
161,73,28419,1,0,0:0:0:0:
253,68,28742,2,0,P|297:106|306:164,2,120,0|0|0,0:0|0:0|0:0,0:0:0:0:
219,149,29745,2,0,P|166:182|154:247,1,120
193,315,30399,1,0,0:0:0:0:
282,335,30703,2,0,P|335:302|347:237,1,120
308,169,31375,1,0,0:0:0:0:
333,79,31700,2,0,P|389:63|444:84,1,120
474,172,32351,1,0,0:0:0:0:
415,252,32672,1,0,0:0:0:0:
319,263,33008,1,0,0:0:0:0:
225,230,33345,1,0,0:0:0:0:
135,275,33689,2,0,P|126:215|162:152,1,120
243,134,34342,1,0,0:0:0:0:
336,111,34662,2,0,P|360:57|351:-1,2,120,0|0|0,0:0|0:0|0:0,0:0:0:0:
386,186,35631,2,0,L|503:209,1,120
333,258,36299,1,0,0:0:0:0:
247,227,36618,1,0,0:0:0:0:
237,126,36952,2,0,P|183:97|120:112,1,120
0,170,37600,2,0,P|54:199|117:184,1,120
147,95,38258,1,0,0:0:0:0:
235,40,38550,1,0,0:0:0:0:
347,40,38883,2,0,P|399:67|431:117,1,120
450,264,39537,2,0,P|397:236|365:186,1,120
275,139,40204,1,0,0:0:0:0:
182,179,40509,1,0,0:0:0:0:
179,274,40838,1,0,0:0:0:0:
259,326,41189,1,0,0:0:0:0:
