osu file format v11

[General]
AudioFilename: Waltz for the Moon.mp3
AudioLeadIn: 0
PreviewTime: 76725
Countdown: 0
SampleSet: Soft
StackLeniency: 0.7
Mode: 0
LetterboxInBreaks: 0

[Editor]
DistanceSpacing: 1.2
BeatDivisor: 4
GridSize: 4

[Metadata]
Title:Waltz for the Moon
TitleUnicode:Waltz for the Moon
Artist:Nobuo Uematsu
ArtistUnicode:植松 伸夫
Creator:SuperMoutarde
Version:Hard
Source:Final Fantasy VIII
Tags:squall rinoa ff8 dance 8 rpg squaresoft square enix
BeatmapID:216058
BeatmapSetID:73539

[Difficulty]
HPDrainRate:6
CircleSize:4
OverallDifficulty:6
ApproachRate:8
SliderMultiplier:0.899999999999999
SliderTickRate:1

[Events]
//Background and Video events
0,0,"WaltzBG.jpg"
Video,1800,"Waltz for the Moon.avi"
//Break Periods
//Storyboard Layer 0 (Background)
//Storyboard Layer 1 (Fail)
//Storyboard Layer 2 (Pass)
//Storyboard Layer 3 (Foreground)
//Storyboard Sound Samples
//Background Colour Transformations
3,100,163,162,255

[TimingPoints]
18131,327.868852459016,3,2,1,18,1,0
18786,-100,3,2,1,20,0,0
19442,-100,3,2,1,23,0,0
20426,-100,3,2,1,25,0,0
21081,-83.3333333333333,3,2,1,25,0,0
21409,-100,3,2,1,23,0,0
22573,357.142857142857,3,2,1,25,1,0
46144,-100,3,2,1,35,0,0
47572,-100,3,2,1,25,0,0
48108,-100,3,2,1,35,0,0
49537,-100,3,2,1,25,0,0
67572,-100,3,2,1,35,0,0
69001,-100,3,2,1,25,0,0
69537,-100,3,2,1,35,0,0
70787,-100,3,2,1,25,0,0
71858,359.281437125748,3,2,1,25,1,0
72935,405.405405405405,3,2,1,20,1,0
72935,-66.6666666666667,3,2,1,20,0,0
76728,307.692307692308,3,2,1,35,1,1
76728,-66.6666666666667,3,2,1,35,0,1
77652,294.117647058824,3,2,1,35,1,1
77652,-66.6666666666667,3,2,1,35,0,1
79416,292.682926829268,3,2,1,35,1,1
79416,-66.6666666666667,3,2,1,35,0,1
83806,294.117647058824,3,2,1,35,1,1
83806,-66.6666666666667,3,2,1,35,0,1
86453,292.682926829268,3,2,1,35,1,1
87038,-100,3,2,1,35,0,1
87331,288.461538461538,3,2,1,35,1,1
88196,292.682926829268,3,2,1,35,1,1
89074,297.029702970297,3,2,1,35,1,1
90856,292.682926829268,3,2,1,25,1,1
92612,297.029702970297,3,2,1,25,1,1
93503,-100,3,2,1,23,0,0
94649,327.868852459016,3,2,1,20,1,0
101862,-100,3,2,1,15,0,0

[Colours]
Combo1 : 255,213,170
Combo2 : 255,255,128
Combo3 : 242,196,238
SliderBorder : 255,255,255

[HitObjects]
256,201,18131,2,0,P|256:264,2,45
256,94,18786,1,0,0:0:0
320,182,19114,1,0,0:0:0
217,146,19442,1,0,0:0:0
320,116,19770,1,0,0:0:0
256,201,20098,1,0,0:0:0
256,363,20590,5,0,0:0:0
256,363,20753,1,0,0:0:0
256,254,21081,2,0,P|256:367,1,107.999996704102
432,192,22573,6,0,P|392:144|352:120,1,89.9999999999999,0|2,0:0|0:0,0:0:0
264,104,23287,1,2,0:0:0
192,184,23644,2,0,P|232:232|280:256,1,89.9999999999999,0|2,0:0|0:0,0:0:0
360,272,24358,1,2,0:0:0
440,200,24715,5,0,0:0:0
344,144,25072,1,2,0:0:0
256,88,25430,1,2,0:0:0
72,200,25787,5,0,0:0:0
168,144,26144,1,2,0:0:0
256,88,26501,1,2,0:0:0
364,96,26858,6,0,P|404:148|408:188,1,89.9999999999999,0|2,0:0|0:0,0:0:0
400,224,27394,1,0,0:0:0
360,260,27572,1,2,0:0:0
320,288,27751,1,0,0:0:0
272,312,27930,2,0,P|224:320|176:312,1,89.9999999999999,0|2,0:0|0:0,0:0:0
88,260,28644,1,2,0:0:0
64,152,29001,5,0,0:0:0
100,104,29180,1,0,0:0:0
136,64,29358,1,2,0:0:0
184,168,29715,1,2,0:0:0
232,192,29894,1,0,0:0:0
280,176,30072,2,0,P|336:184|384:216,1,89.9999999999999,0|2,0:0|0:0,0:0:0
456,256,30787,1,2,0:0:0
365,309,31144,6,0,P|301:349|277:349,1,89.9999999999999,0|2,0:0|0:0,0:0:0
256,308,31680,2,0,P|280:252,2,45,0|2|0,0:0|0:0|0:0,0:0:0
204,320,32215,2,0,P|156:304|124:272,1,89.9999999999999,0|2,0:0|0:0,0:0:0
86,177,32930,1,2,0:0:0
132,80,33287,1,0,0:0:0
186,48,33465,1,0,0:0:0
240,80,33644,2,0,P|296:96|328:80,1,89.9999999999999,2|2,0:0|0:0,0:0:0
368,112,34180,1,0,0:0:0
368,112,34358,1,0,0:0:0
404,152,34537,6,0,P|384:200,1,45,0|2,0:0|0:0,0:0:0
336,216,34894,2,0,P|316:264,1,45,0|2,0:0|0:0,0:0:0
272,288,35251,2,0,P|252:336,1,45,0|0,0:0|0:0,0:0:0
200,336,35608,5,0,0:0:0
200,280,35787,1,0,0:0:0
200,224,35965,1,0,0:0:0
200,168,36144,1,0,0:0:0
200,112,36323,1,0,0:0:0
200,56,36501,2,0,P|236:44|288:48,1,89.9999999999999,0|2,0:0|0:0,0:0:0
376,104,37215,2,0,P|388:56,2,45,2|0|0,0:0|0:0|0:0,0:0:0
364,156,37751,5,0,0:0:0
352,208,37930,1,0,0:0:0
340,260,38108,1,0,0:0:0
328,312,38287,2,0,P|272:312,1,45,0|0,0:0|0:0,0:0:0
228,312,38644,2,0,P|192:292|176:240,2,89.9999999999999,0|2|2,0:0|0:0|0:0,0:0:0
384,288,39715,6,0,P|360:232,1,45
392,200,40073,2,0,P|368:144,1,45,2|0,0:0|0:0,0:0:0
320,152,40430,1,2,0:0:0
264,152,40608,1,0,0:0:0
208,152,40787,1,0,0:0:0
104,188,41144,1,2,0:0:0
84,80,41501,5,2,0:0:0
136,80,41680,1,0,0:0:0
184,80,41858,2,0,P|216:56|272:48,1,89.9999999999999,0|2,0:0|0:0,0:0:0
288,96,42394,5,0,0:0:0
256,144,42573,1,2,0:0:0
288,192,42751,1,0,0:0:0
256,236,42930,2,0,P|280:268|336:300,1,89.9999999999999,0|2,0:0|0:0,0:0:0
372,312,43465,5,0,0:0:0
424,296,43644,1,2,0:0:0
440,244,43823,1,0,0:0:0
444,192,44001,1,0,0:0:0
408,92,44358,6,0,P|359:120,1,45,2|0,0:0|0:0,0:0:0
321,141,44715,2,0,P|265:173,1,45,2|0,0:0|0:0,0:0:0
234,192,45073,1,0,0:0:0
184,288,45430,5,2,0:0:0
236,280,45608,1,2,0:0:0
288,288,45787,1,2,0:0:0
308,304,45876,1,0,0:0:0
332,320,45965,1,0,0:0:0
360,324,46055,1,0,0:0:0
388,316,46144,1,4,0:0:0
432,220,46501,6,0,P|464:228,4,22.5,0|0|0|0|0,0:0|0:0|0:0|0:0|0:0,0:0:0
328,184,47215,1,0,0:0:0
376,88,47573,1,2,0:0:0
328,64,47751,1,2,0:0:0
280,88,47930,1,2,0:0:0
216,168,48287,5,4,0:0:0
152,80,48644,2,0,P|168:40,4,22.5
216,168,49358,1,0,0:0:0
120,216,49715,1,2,0:0:0
120,272,49894,1,2,0:0:0
120,328,50073,1,2,0:0:0
224,336,50430,6,0,P|288:320|312:296|320:288,1,89.9999999999999,0|2,0:0|0:0,0:0:0
352,280,50965,2,0,P|376:320,2,45,0|2|0,0:0|0:0|0:0,0:0:0
376,232,51501,2,0,P|400:184|408:144,1,89.9999999999999,0|2,0:0|0:0,0:0:0
456,56,52215,1,2,0:0:0
352,80,52573,1,0,0:0:0
304,48,52751,1,0,0:0:0
256,80,52930,2,0,P|168:88|152:96,1,89.9999999999999,2|2,0:0|0:0,0:0:0
136,132,53465,1,0,0:0:0
120,184,53644,2,0,P|128:232|152:272,1,89.9999999999999,0|2,0:0|0:0,0:0:0
240,208,54358,5,2,0:0:0
224,312,54715,2,0,P|280:308|328:288,1,89.9999999999999,0|2,0:0|0:0,0:0:0
360,272,55251,1,0,0:0:0
408,248,55430,1,2,0:0:0
432,200,55608,1,0,0:0:0
424,144,55787,2,0,P|376:136|328:104,1,89.9999999999999,0|2,0:0|0:0,0:0:0
256,48,56501,1,2,0:0:0
256,152,56858,5,0,0:0:0
256,208,57037,1,0,0:0:0
256,264,57215,2,0,P|204:276|152:264,1,89.9999999999999,2|2,0:0|0:0,0:0:0
112,264,57751,1,0,0:0:0
112,208,57930,2,0,P|112:160,1,45
112,112,58287,2,0,P|112:64,1,45,2|0,0:0|0:0,0:0:0
168,64,58644,1,2,0:0:0
208,96,58823,1,0,0:0:0
256,64,59001,1,0,0:0:0
312,56,59180,5,0,0:0:0
340,104,59358,1,2,0:0:0
312,152,59537,1,0,0:0:0
340,200,59715,2,0,P|372:244,2,45,2|0|0,0:0|0:0|0:0,0:0:0
236,232,60430,1,2,0:0:0
128,240,60787,6,0,P|80:280,2,45,2|0|0,0:0|0:0|0:0,0:0:0
144,192,61323,1,0,0:0:0
104,160,61501,2,0,P|140:132,1,45,2|0,0:0|0:0,0:0:0
120,88,61858,2,0,P|160:64,1,45,2|0,0:0|0:0,0:0:0
208,88,62215,2,0,P|256:96|312:80,1,89.9999999999999,0|2,0:0|0:0,0:0:0
400,80,62930,5,2,0:0:0
432,184,63287,2,0,P|400:224|352:248,1,89.9999999999999,0|2,0:0|0:0,0:0:0
312,240,63823,1,0,0:0:0
312,186,64001,1,2,0:0:0
312,131,64180,1,0,0:0:0
312,80,64358,2,0,P|264:68|208:80,1,89.9999999999999,0|2,0:0|0:0,0:0:0
116,80,65073,5,2,0:0:0
48,176,65430,2,0,P|112:184|144:176,1,89.9999999999999,0|2,0:0|0:0,0:0:0
176,144,65965,1,0,0:0:0
216,176,66144,1,2,0:0:0
256,208,66323,1,0,0:0:0
296,240,66501,6,0,P|340:232,1,45,0|0,0:0|0:0,0:0:0
392,220,66858,1,2,0:0:0
432,184,67037,1,0,0:0:0
452,136,67215,1,2,0:0:0
436,84,67394,1,0,0:0:0
388,60,67573,1,4,0:0:0
300,44,67930,5,0,0:0:0
280,40,68019,1,0,0:0:0
256,44,68108,1,0,0:0:0
236,56,68198,1,0,0:0:0
220,72,68287,1,0,0:0:0
224,168,68644,5,0,0:0:0
328,168,69001,2,0,P|388:168,2,45,2|2|2,0:0|0:0|0:0,0:0:0
224,168,69715,21,4,0:0:0
64,220,70073,1,0,0:0:0
72,241,70162,1,0,0:0:0
86,258,70251,1,0,0:0:0
105,271,70340,1,0,0:0:0
125,279,70430,1,0,0:0:0
216,296,70787,5,2,0:0:0
269,296,70965,2,0,P|269:245,2,45
323,296,71501,1,2,1:2:0
377,296,71680,1,0,0:0:0
432,296,71858,2,0,P|432:348,2,45,2|0|0,1:2|0:0|0:0,0:0:0
432,242,72396,2,0,P|487:242,2,45,0|2|0,0:0|0:0|0:0,0:0:0
432,184,72935,6,0,P|332:168|256:24,1,270.000010299683,0|2,0:0|0:0,0:0:0
292,306,74151,2,0,P|296:224|456:112,1,270.000010299683,0|2,0:0|0:0,0:0:0
361,306,75367,2,0,P|285:168|185:152,1,270.000010299683,0|2,0:0|0:0,0:0:0
396,80,76728,5,4,0:0:0
396,282,77240,1,0,0:0:0
396,282,77343,1,0,0:0:0
60,80,78240,5,0,0:0:0
100,104,78338,1,0,0:0:0
144,108,78436,1,0,0:0:0
184,88,78534,1,4,0:0:0
386,88,79024,1,0,0:0:0
386,88,79122,1,0,0:0:0
84,296,80001,5,0,0:0:0
216,328,80294,1,4,0:0:0
352,320,80586,1,0,0:0:0
409,285,80733,1,0,0:0:0
420,220,80879,1,0,0:0:0
424,80,81757,5,0,0:0:0
384,100,81855,1,0,0:0:0
340,112,81952,1,0,0:0:0
296,108,82050,1,4,0:0:0
92,116,82537,1,0,0:0:0
92,116,82635,1,0,0:0:0
120,248,82928,5,2,0:0:0
256,248,83220,1,2,0:0:0
392,248,83513,1,2,0:0:0
459,80,83806,5,4,0:0:0
256,80,84296,1,0,0:0:0
256,80,84394,1,0,0:0:0
48,304,85276,5,0,0:0:0
88,320,85374,1,0,0:0:0
132,320,85472,1,0,0:0:0
185,314,85570,2,0,P|253:306|313:262,1,135.000005149841,4|0,0:0|0:0,0:0:0
496,116,86306,2,0,P|454:156|404:168,1,67.5000025749207,0|4,0:0|0:0,0:0:0
256,60,87038,5,0,0:0:0
256,168,87331,1,0,0:0:0
256,221,87475,1,0,0:0:0
256,274,87619,1,2,0:0:0
256,274,88052,1,2,0:0:0
256,220,88196,2,0,P|188:244|120:236,1,135,0|0,0:0|0:0,0:0:0
104,188,88781,5,0,0:0:0
104,136,88927,2,0,P|104:80,1,45,0|2,0:0|0:0,0:0:0
256,48,89519,1,2,0:0:0
256,101,89668,1,2,0:0:0
352,152,89965,2,0,P|372:204|316:256,1,135,2|0,0:0|0:0,0:0:0
272,276,90559,1,0,0:0:0
220,288,90707,1,0,0:0:0
168,276,90856,5,0,0:0:0
117,225,91051,2,0,P|100:152|117:109,1,120,2|2,0:0|0:0,0:0:0
212,64,91734,5,0,0:0:0
277,93,91929,2,0,P|329:149|377:161,1,120,2|2,0:0|0:0,0:0:0
329,259,92612,5,0,0:0:0
183,125,92909,1,0,0:0:0
183,259,93206,1,0,0:0:0
329,125,93503,1,0,0:0:0
312,312,94649,22,0,P|336:192|384:136,1,180,0|2,0:0|0:0,0:0:0
440,80,95632,1,0,0:0:0
352,56,95960,1,0,0:0:0
264,80,96288,1,0,0:0:0
256,280,96616,6,0,P|232:204|144:136,1,180,0|2,0:0|0:0,0:0:0
72,72,97599,1,0,0:0:0
56,168,97927,1,0,0:0:0
88,256,98255,1,0,0:0:0
152,168,98583,5,0,0:0:0
208,168,98747,1,0,0:0:0
264,168,98911,1,0,0:0:0
400,296,99239,21,0,0:0:0
400,88,99567,1,0,0:0:0
112,88,99894,1,0,0:0:0
112,296,100222,1,0,0:0:0
256,192,100550,1,0,0:0:0
256,328,101042,5,2,0:0:0
256,328,101206,1,0,0:0:0
256,238,101534,2,0,P|256:328,1,89.9999999999999,2|4,0:0|0:0,0:0:0
