osu file format v11

[General]
AudioFilename: Waltz for the Moon.mp3
AudioLeadIn: 0
PreviewTime: 76725
Countdown: 0
SampleSet: Soft
StackLeniency: 0.7
Mode: 0
LetterboxInBreaks: 0

[Editor]
DistanceSpacing: 1.2
BeatDivisor: 4
GridSize: 4

[Metadata]
Title:Waltz for the Moon
TitleUnicode:Waltz for the Moon
Artist:Nobuo Uematsu
ArtistUnicode:植松 伸夫
Creator:SuperMoutarde
Version:Easy
Source:Final Fantasy VIII
Tags:squall rinoa ff8 dance 8 rpg squaresoft square enix
BeatmapID:210610
BeatmapSetID:73539

[Difficulty]
HPDrainRate:2
CircleSize:2
OverallDifficulty:2
ApproachRate:3
SliderMultiplier:0.599999999999999
SliderTickRate:1

[Events]
//Background and Video events
0,0,"WaltzBG.jpg"
Video,1800,"Waltz for the Moon.avi"
//Break Periods
//Storyboard Layer 0 (Background)
//Storyboard Layer 1 (Fail)
//Storyboard Layer 2 (Pass)
//Storyboard Layer 3 (Foreground)
//Storyboard Sound Samples
//Background Colour Transformations
3,100,163,162,255

[TimingPoints]
18131,327.868852459016,3,2,1,20,1,0
22573,357.142857142857,3,2,1,25,1,0
46144,-100,3,2,1,35,0,0
47572,-100,3,2,1,25,0,0
48108,-100,3,2,1,35,0,0
49537,-100,3,2,1,25,0,0
67572,-100,3,2,1,35,0,0
70787,-100,3,2,1,25,0,0
71858,359.281437125748,3,2,1,25,1,0
72935,405.405405405405,3,2,1,20,1,0
76728,307.692307692308,3,2,1,35,1,1
77652,294.117647058824,3,2,1,35,1,1
79416,292.682926829268,3,2,1,35,1,1
83806,294.117647058824,3,2,1,35,1,1
86453,292.682926829268,3,2,1,35,1,1
87331,288.461538461538,3,2,1,35,1,1
88196,292.682926829268,3,2,1,35,1,1
89074,297.029702970297,3,2,1,35,1,1
90856,292.682926829268,3,2,1,25,1,1
92612,297.029702970297,3,2,1,25,1,1
93206,-100,3,2,1,20,0,1
93503,-100,3,2,1,20,0,0
94649,327.868852459016,3,2,1,20,1,0
101862,-100,3,2,1,15,0,0

[Colours]
Combo1 : 255,213,170
Combo2 : 255,255,128
Combo3 : 242,196,238
SliderBorder : 255,255,255

[HitObjects]
368,80,22573,5,2,0:0:0
152,80,23644,1,0,0:0:0
152,296,24715,1,2,0:0:0
368,296,25787,1,0,0:0:0
192,168,26858,6,0,P|184:232|136:272,1,120,0|2,0:0|0:0,0:0:0
76,236,27930,2,0,P|84:172|132:132,1,120,0|2,0:0|0:0,0:0:0
164,76,29001,2,0,P|192:36|220:76|220:76|240:108|260:76|260:76|281:48|304:76|304:76|324:108|348:76|348:76|380:44|412:92,1,299.999999999999,0|4,0:0|0:0,0:0:0
420,152,31144,6,0,P|416:208|352:248,1,120,0|2,0:0|0:0,0:0:0
296,245,32215,2,0,P|232:232|208:180,1,120,0|2,0:0|0:0,0:0:0
208,120,33287,1,0,0:0:0
277,101,33644,1,0,0:0:0
296,245,34358,2,0,P|248:300|188:312,1,120,0|2,0:0|0:0,0:0:0
156,258,35430,6,0,P|172:200|156:144,1,120,0|2,0:0|0:0,0:0:0
80,144,36501,2,0,P|64:202|80:258,1,120,0|2,0:0|0:0,0:0:0
140,296,37573,2,0,P|196:268|260:272,1,120,0|2,0:0|0:0,0:0:0
312,308,38644,2,0,P|360:308|408:252,1,120,0|2,0:0|0:0,0:0:0
408,188,39715,6,0,P|328:152|260:192|260:192|224:120|148:108,1,299.999999999999,0|2,0:0|0:0,0:0:0
92,136,41858,2,0,P|64:192|68:260,1,120,0|2,0:0|0:0,0:0:0
104,308,42930,1,0,0:0:0
172,332,43287,5,2,0:0:0
240,312,43644,1,2,0:0:0
312,328,44001,1,0,0:0:0
376,296,44358,2,0,P|392:228|376:168,1,120,2|2,0:0|0:0,0:0:0
104,188,46144,5,4,0:0:0
176,188,46501,2,0,P|236:188,1,59.9999999999999,0|2,0:0|0:0,0:0:0
364,252,47573,2,0,P|352:284,2,30,2|2|2,0:0|0:0|0:0,0:0:0
388,184,48287,2,0,P|388:100|364:56,1,120,4|2,0:0|0:0,0:0:0
249,134,49715,2,0,P|254:167,2,30,2|2|2,0:0|0:0|0:0,0:0:0
232,64,50430,6,0,P|144:104|128:128,1,120,0|2,0:0|0:0,0:0:0
104,188,51501,2,0,P|136:236|192:268,1,120,0|2,0:0|0:0,0:0:0
256,288,52573,2,0,P|320:288|364:248,1,120,0|2,0:0|0:0,0:0:0
364,180,53644,2,0,P|336:128|276:100,1,120,0|2,0:0|0:0,0:0:0
212,100,54715,6,0,P|184:164|196:220,1,120,0|2,0:0|0:0,0:0:0
268,220,55787,2,0,P|296:156|276:92,1,120,0|2,0:0|0:0,0:0:0
256,44,56858,1,0,0:0:0
188,64,57215,1,2,0:0:0
142,120,57573,1,2,0:0:0
136,192,57930,1,0,0:0:0
352,200,59001,6,0,P|264:184|228:200,1,120,0|2,0:0|0:0,0:0:0
240,272,60073,2,0,P|328:288|360:272,1,120,0|2,0:0|0:0,0:0:0
412,236,61144,2,0,P|440:188|416:112,1,120,0|2,0:0|0:0,0:0:0
372,84,62215,5,0,0:0:0
308,120,62573,1,2,0:0:0
244,84,62930,1,2,0:0:0
256,192,63287,12,4,66501,0:0:0
244,152,67573,6,0,P|292:44|324:156,1,299.999999999999,4|2,0:0|0:0,0:0:0
327,230,69715,2,0,P|291:338|243:229,1,299.999999999999,4|2,0:0|1:2,0:0:0
284,168,71858,1,2,1:2:0
132,284,72935,6,0,P|184:232|240:232,1,120,0|2,0:0|0:0,0:0:0
296,248,74151,2,0,P|364:244|404:200,1,120,0|2,0:0|0:0,0:0:0
432,144,75367,2,0,P|424:96|380:40,1,120,0|2,0:0|0:0,0:0:0
256,76,76728,5,4,0:0:0
84,136,77651,1,2,0:0:0
200,316,78534,2,0,P|284:324|328:312,1,120,4|2,0:0|0:0,0:0:0
380,280,79416,2,0,P|412:236|400:172,1,120,2|2,0:0|0:0,0:0:0
340,140,80294,5,4,0:0:0
184,292,81172,1,2,0:0:0
112,88,82050,2,0,P|176:56|224:56,1,120,4|2,0:0|0:0,0:0:0
296,56,82928,2,0,P|372:96|384:128,1,120,2|2,0:0|0:0,0:0:0
384,196,83806,6,0,P|360:256|284:304,1,120,4|2,0:0|0:0,0:0:0
248,300,84688,2,0,P|170:297|110:253,1,120,2|2,0:0|0:0,0:0:0
88,224,85570,2,0,P|72:160|148:80,1,180,4|4,0:0|0:0,0:0:0
256,264,87331,5,2,0:0:0
448,124,88488,2,0,P|368:108,1,59.9999999999999
332,100,89074,6,0,P|308:132|232:168,1,120,2|2,0:0|0:0,0:0:0
180,212,89965,2,0,P|132:228|92:292,1,120,2|0,0:0|0:0,0:0:0
256,192,90856,12,0,93503,0:0:0
120,192,94649,6,0,P|192:304|256:112|320:304|392:192,1,299.999999999999,0|2,0:0|0:0,0:0:0
392,120,96616,2,0,P|320:8|256:200|192:8|120:120,1,299.999999999999,0|2,0:0|0:0,0:0:0
256,192,98583,12,4,101862,0:0:0
