osu file format v9

[General]
AudioFilename: Nobuo Uematsu - To Zanarkand.mp3
AudioLeadIn: 0
PreviewTime: 28039
Countdown: 0
SampleSet: Soft
StackLeniency: 0.7
Mode: 0
LetterboxInBreaks: 1

[Editor]
DistanceSpacing: 1.1
BeatDivisor: 4
GridSize: 8

[Metadata]
Title:To Zanarkand
Artist:Nobuo Uematsu
Creator:Giorgos
Version:Normal
Source:Final Fantasy X
Tags:ffx ff10 squareenix squaresoft tidus yuna wakka auron kimahri lulu rikku

[Difficulty]
HPDrainRate:4
CircleSize:3
OverallDifficulty:4
ApproachRate:5
SliderMultiplier:1.4
SliderTickRate:1

[Events]
//Background and Video events
0,0,"bn8bk.jpg"
//Break Periods
//Storyboard Layer 0 (Background)
//Storyboard Layer 1 (Fail)
//Storyboard Layer 2 (Pass)
//Storyboard Layer 3 (Foreground)
//Storyboard Sound Samples
//Background Colour Transformations
3,100,163,162,255

[TimingPoints]
4039,666.666666666667,3,2,0,50,1,0
93372,-100,3,2,0,40,0,0
94039,-100,3,2,0,30,0,0
94705,-100,3,2,0,20,0,0
95372,-100,3,2,0,10,0,0

[Colours]
Combo1 : 128,0,255
Combo2 : 255,255,128
Combo3 : 0,255,64

[HitObjects]
256,48,4039,1,0
256,200,4705,1,0
121,124,5372,2,0,B|193:124,2,70,0|0|2
256,304,8039,5,0
256,152,8705,1,0
123,229,9372,2,0,B|195:229,2,70,0|0|2
200,184,12039,6,0,B|200:160|254:132|312:160|312:184,1,140,0|2
256,328,13372,1,0
200,184,14039,6,0,B|200:208|254:236|312:208|312:184,1,140,0|2
120,64,15705,5,0
120,144,16039,2,0,B|200:144|136:232|240:232,1,140,2|0
344,320,17372,2,0,B|424:320|360:232|464:232,1,140,0|2
220,194,20039,6,0,B|220:146|255:113|292:146|292:201,1,140,0|2
256,40,21372,1,0
128,128,22039,2,0,B|72:184|120:256,1,140,2|0
256,72,23705,5,0
216,136,24039,2,0,B|200:160|240:192|272:192|312:160|296:136,1,140,2|0
448,136,25372,1,0
408,200,25705,1,0
368,264,26039,2,0,B|296:224|272:312|208:256,1,140,2|0
256,120,27372,5,0
256,120,27705,2,0,B|256:200,1,70,0|2
256,344,28705,1,0
144,232,29372,1,0
200,176,29705,1,0
256,120,30039,2,0,B|256:112|304:32|368:112|368:120,1,140,2|0
408,264,31372,5,0
304,152,32039,2,0,B|304:96|267:90|232:98|231:151,2,140,2|0|0
272,304,34039,1,2
192,168,34705,5,0
232,232,35039,1,0
312,232,35372,2,0,B|352:232|384:184|384:184|464:184,1,140,0|2
296,112,36705,5,0
256,176,37039,1,0
216,240,37372,2,0,B|176:240|144:192|144:192|64:192,1,140,0|2
216,96,38705,1,0
152,240,39372,2,0,B|208:288|232:200|296:240,1,140,0|2
104,80,41039,5,0
104,80,41372,2,0,B|104:224,1,140,0|2
240,144,42705,2,0,B|424:128|248:288|448:288,1,280,0|2
432,136,44705,5,0
304,56,45372,1,0
304,136,45705,2,0,B|304:224,1,70,0|2
168,136,46705,1,0
96,272,47372,2,0,B|184:232|152:304|248:264,1,140,0|2
304,136,48705,5,0
304,216,49039,2,0,B|304:288,1,70
408,176,50039,1,2
272,112,50705,1,0
192,112,51039,1,0
232,176,51372,6,0,B|232:256,1,70
232,246,52039,1,2
152,112,52705,1,2
312,112,53372,1,2
232,248,54039,2,0,B|232:104,1,140
232,108,55372,1,0
256,192,56039,12,0,58705
256,192,59372,5,0
256,112,59705,1,0
192,152,60039,1,2
88,264,60705,1,0
160,224,61039,2,0,B|160:296,2,70
232,264,62039,1,2
128,152,62705,6,0,B|128:104|163:74|200:104|200:152,2,140
168,304,64705,1,0
288,208,65372,2,0,B|288:256|323:286|360:256|360:208,1,140,0|2
288,72,66705,5,0
288,152,67039,1,0
224,200,67372,2,0,B|288:256|352:200,1,140,0|2
216,120,68705,5,0
248,192,69039,1,0
328,192,69372,1,0
408,192,69705,1,0
440,120,70039,1,2
256,192,70372,12,2,72039
264,280,74039,5,2
376,176,74705,1,0
328,112,75039,1,0
272,168,75372,2,0,B|206:120|136:168,1,140,0|2
248,272,76705,1,0
248,120,77372,6,0,B|248:200,2,70,0|0|2
392,64,78705,1,0
344,128,79039,1,0
296,192,79372,2,0,B|232:192|296:272|176:272,1,140,0|2
192,120,80705,1,0
304,224,81372,6,0,B|404:223|340:303|404:303,1,140,0|2
408,152,82705,1,0
256,152,83372,2,0,B|264:80|184:80|192:152,1,140,0|2
184,304,84705,5,0
264,304,85039,1,0
224,240,85372,1,0
296,104,86039,2,0,B|296:48|259:42|224:50|223:103,3,140,2|0|0|2
224,272,89372,6,0,B|225:326|260:334|297:328|297:272,1,140,0|2
256,48,91039,2,0,B|256:128,1,70,2|2
258,267,92039,1,2
256,192,92372,12,0,95372
