osu file format v9

[General]
AudioFilename: 10-Fighting.mp3
AudioLeadIn: 2000
PreviewTime: 629
Countdown: 0
SampleSet: Soft
StackLeniency: 0.7
Mode: 1
LetterboxInBreaks: 1

[Editor]
DistanceSpacing: 0.8
BeatDivisor: 4
GridSize: 8

[Metadata]
Title:Those Who Fight
Artist:Nobuo Uematsu
Creator:Sushi
Version:Taiko Muzukashii
Source:Final Fantasy VII
Tags:battle theme ff7 Eirene

[Difficulty]
HPDrainRate:3
CircleSize:5
OverallDifficulty:4
ApproachRate:4
SliderMultiplier:1.4
SliderTickRate:2

[Events]
//Background and Video events
0,0,"Final-fantasy-VII-final-fantasy-vii---158644_1024_768.jpg"
//Break Periods
//Storyboard Layer 0 (Background)
//Storyboard Layer 1 (Fail)
//Storyboard Layer 2 (Pass)
//Storyboard Layer 3 (Foreground)
//Storyboard Sound Samples
//Background Colour Transformations
3,100,163,162,255

[TimingPoints]
629,336.605890603086,4,2,0,100,1,0

[Colours]
Combo1 : 0,0,128
Combo2 : 0,128,0
Combo3 : 0,0,255
Combo4 : 0,255,0

[HitObjects]
256,192,629,1,12
256,192,1133,1,8
256,192,1638,1,8
256,192,2143,1,8
256,192,2312,1,0
256,192,2480,1,0
256,192,2648,1,8
256,192,2816,1,0
256,192,2985,1,8
256,192,3153,1,8
256,192,3321,1,8
256,192,3826,1,8
256,192,4331,1,8
256,192,4668,1,0
256,192,5004,1,12
256,192,5341,1,4
256,192,5678,1,4
256,192,6014,1,12
256,192,6519,1,8
256,192,7024,1,8
256,192,7529,1,8
256,192,7697,1,0
256,192,7866,1,0
256,192,8034,1,8
256,192,8202,1,0
256,192,8370,1,8
256,192,8539,1,8
256,192,8707,1,8
256,192,9212,1,8
256,192,9717,1,8
256,192,10222,1,0
256,192,10390,1,8
256,192,10558,1,0
256,192,10727,1,8
256,192,10895,1,8
256,192,11232,1,8
256,192,11400,1,12
256,192,11568,1,0
256,192,11736,1,0
256,192,11905,1,8
256,192,12073,1,0
256,192,12241,1,0
256,192,12410,1,8
256,192,12578,1,0
256,192,12746,1,0
256,192,12915,1,8
256,192,13083,1,0
256,192,13251,1,0
256,192,13420,1,8
256,192,13756,1,8
256,192,14093,1,8
256,192,14261,1,0
256,192,14429,1,0
256,192,14598,1,8
256,192,14766,1,0
256,192,14934,1,0
256,192,15103,1,8
256,192,15271,1,0
256,192,15439,1,0
256,192,15608,1,8
256,192,15776,1,0
256,192,15944,1,0
256,192,16113,1,8
256,192,16449,1,8
256,192,16786,1,8
256,192,16954,1,0
256,192,17122,1,0
256,192,17291,1,8
256,192,17459,1,0
256,192,17627,1,0
256,192,17796,1,8
256,192,17964,1,0
256,192,18132,1,0
256,192,18301,1,8
256,192,18469,1,0
256,192,18637,1,0
256,192,18805,2,0,B|408:192,1,140
256,192,19478,1,0
256,192,19647,1,8
256,192,19815,1,8
256,192,19983,1,0
256,192,20152,1,8
256,192,20320,1,8
256,192,20488,1,0
256,192,20657,1,8
256,192,20825,1,8
256,192,20993,1,0
256,192,21161,1,0
256,192,21330,1,0
256,192,21498,1,0
256,192,21666,1,0
256,192,21835,1,0
256,192,22003,1,0
256,192,22171,1,0
256,192,22340,1,8
256,192,22508,1,8
256,192,22676,1,8
256,192,22844,1,8
256,192,23013,1,0
256,192,23181,1,8
256,192,23349,1,8
256,192,23518,1,0
256,192,23854,1,0
256,192,24023,1,8
256,192,24359,1,8
256,192,24528,1,8
256,192,24864,1,12
256,192,25032,1,0
256,192,25200,1,0
256,192,25369,1,8
256,192,25537,1,0
256,192,25705,1,0
256,192,25874,1,8
256,192,26042,1,0
256,192,26210,1,0
256,192,26379,1,8
256,192,26547,1,0
256,192,26715,1,0
256,192,26884,1,8
256,192,27220,1,8
256,192,27557,1,8
256,192,27725,1,0
256,192,27893,1,0
256,192,28062,1,8
256,192,28230,1,0
256,192,28398,1,0
256,192,28567,1,8
256,192,28735,1,0
256,192,28903,1,0
256,192,29072,1,8
256,192,29240,1,0
256,192,29408,1,0
256,192,29577,1,8
256,192,29913,1,8
256,192,30250,1,8
256,192,30418,1,0
256,192,30586,1,0
256,192,30755,1,8
256,192,30923,1,0
256,192,31091,1,0
256,192,31260,1,8
256,192,31428,1,0
256,192,31596,1,0
256,192,31765,1,8
256,192,31933,1,0
256,192,32101,1,0
256,192,32269,2,0,B|408:192,1,140
256,192,32943,1,0
256,192,33112,1,8
256,192,33280,1,8
256,192,33448,1,0
256,192,33617,1,8
256,192,33785,1,8
256,192,33953,1,0
256,192,34122,1,8
256,192,34290,1,8
256,192,34458,1,0
256,192,34626,1,0
256,192,34795,1,0
256,192,34963,1,8
256,192,35131,1,8
256,192,35300,1,0
256,192,35468,1,8
256,192,35636,1,0
256,192,35805,1,8
256,192,35973,1,8
256,192,36141,1,0
256,192,36309,1,8
256,192,36477,1,0
256,192,36646,1,8
256,192,36814,1,8
256,192,36983,1,0
256,192,37319,1,0
256,192,37488,1,8
256,192,37824,1,8
256,192,37993,1,8
256,192,38328,1,0
256,192,38497,1,8
256,192,38665,1,8
256,192,38833,1,0
256,192,39002,1,8
256,192,39170,1,8
256,192,39338,1,0
256,192,39507,1,8
256,192,39675,1,8
256,192,39843,1,0
256,192,40011,1,0
256,192,40180,1,0
256,192,40348,1,8
256,192,40516,1,8
256,192,40685,1,0
256,192,40853,1,8
256,192,41021,1,0
256,192,41190,1,8
256,192,41358,1,8
256,192,41526,1,0
256,192,41694,1,8
256,192,41862,1,0
256,192,42031,1,8
256,192,42199,1,8
256,192,42368,1,4
256,192,42704,1,12
256,192,43041,1,4
256,192,43378,1,4
256,192,43714,1,0
256,192,43882,1,8
256,192,44051,1,8
256,192,44219,1,0
256,192,44387,1,8
256,192,44556,1,8
256,192,44724,1,0
256,192,44892,1,0
256,192,45060,1,8
256,192,45397,1,0
256,192,45565,1,0
256,192,45902,1,0
256,192,46070,1,8
256,192,46407,1,4
256,192,46744,1,0
256,192,46912,1,0
256,192,47248,1,0
256,192,47417,1,8
256,192,47585,1,8
256,192,47753,1,0
256,192,48090,1,0
256,192,48258,1,0
256,192,48595,1,0
256,192,48763,1,8
256,192,48931,1,8
256,192,49100,1,4
256,192,49268,1,8
256,192,49437,1,8
256,192,49605,1,0
256,192,49773,1,8
256,192,49942,1,8
256,192,50110,1,0
256,192,50278,1,0
256,192,50446,1,8
256,192,50614,1,0
256,192,50783,1,0
256,192,50951,1,0
256,192,51119,1,8
256,192,51288,1,0
256,192,51456,1,8
256,192,51624,1,8
256,192,51793,1,4
256,192,52298,1,4
256,192,52802,1,4
256,192,53139,12,0,54149
256,192,54485,5,4
256,192,54654,1,0
256,192,54822,1,8
256,192,55159,1,0
256,192,55327,1,8
256,192,55664,1,0
256,192,55832,1,8
256,192,56168,1,0
256,192,56337,1,8
256,192,56673,1,8
256,192,56842,1,8
256,192,57010,1,8
256,192,57178,1,4
256,192,57347,1,0
256,192,57515,1,8
256,192,57852,1,0
256,192,58020,1,8
256,192,58356,1,0
256,192,58525,1,8
256,192,58861,1,0
256,192,59030,1,8
256,192,59366,1,8
256,192,59535,1,8
256,192,59703,1,8
256,192,59871,1,4
256,192,60039,1,0
256,192,60208,1,8
256,192,60544,1,0
256,192,60713,1,8
256,192,61049,1,0
256,192,61218,1,8
256,192,61554,1,0
256,192,61722,1,8
256,192,62059,1,0
256,192,62227,1,8
256,192,62396,1,0
256,192,62564,1,4
256,192,63237,1,4
256,192,63910,1,4
256,192,64584,1,4
256,192,64920,1,12
256,192,65257,1,4
256,192,65425,1,0
256,192,65593,1,8
256,192,65762,1,0
256,192,65930,1,0
256,192,66098,1,8
256,192,66435,1,0
256,192,66603,1,8
256,192,66772,1,0
256,192,66940,1,0
256,192,67108,1,8
256,192,67445,1,0
256,192,67613,1,8
256,192,67781,1,0
256,192,67950,1,4
256,192,68118,1,0
256,192,68286,1,8
256,192,68455,1,0
256,192,68623,1,0
256,192,68791,1,8
256,192,69128,1,0
256,192,69296,1,8
256,192,69464,1,0
256,192,69633,1,0
256,192,69801,1,0
256,192,69969,1,0
256,192,70138,1,0
256,192,70306,1,0
256,192,70474,1,0
256,192,70643,1,12
256,192,71147,1,8
256,192,71652,1,8
256,192,72157,1,8
256,192,72326,1,0
256,192,72494,1,0
256,192,72662,1,8
256,192,72830,1,0
256,192,72999,1,8
256,192,73167,1,8
256,192,73335,1,8
256,192,73840,1,8
256,192,74345,1,8
256,192,74682,1,0
256,192,75018,1,12
256,192,75355,1,4
256,192,75692,1,4
256,192,76028,1,12
256,192,76197,12,0,78721
