osu file format v9

[General]
AudioFilename: 10-Fighting.mp3
AudioLeadIn: 2000
PreviewTime: 629
Countdown: 0
SampleSet: Soft
StackLeniency: 0.7
Mode: 0
LetterboxInBreaks: 1

[Editor]
DistanceSpacing: 0.8
BeatDivisor: 2
GridSize: 8

[Metadata]
Title:Those Who Fight
Artist:Nobuo Uematsu
Creator:Sushi
Version:Normal
Source:Final Fantasy VII
Tags:battle theme ff7 Eirene

[Difficulty]
HPDrainRate:3
CircleSize:3
OverallDifficulty:3
ApproachRate:5
SliderMultiplier:1.2
SliderTickRate:2

[Events]
//Background and Video events
0,0,"Final-fantasy-VII-final-fantasy-vii---158644_1024_768.jpg"
//Break Periods
//Storyboard Layer 0 (Background)
//Storyboard Layer 1 (Fail)
//Storyboard Layer 2 (Pass)
//Storyboard Layer 3 (Foreground)
//Storyboard Sound Samples
//Background Colour Transformations
3,100,163,162,255

[TimingPoints]
629,336.605890603086,4,2,1,100,1,0
18721,-100,4,1,1,30,0,0
18889,-100,4,1,1,40,0,0
19058,-100,4,1,1,50,0,0
19394,-100,4,2,1,100,0,0
32185,-100,4,1,1,30,0,0
32354,-100,4,1,1,40,0,0
32522,-100,4,1,1,50,0,0
32774,-100,4,2,1,100,0,0
54570,-133.333333333333,4,2,1,75,0,0
62480,-133.333333333333,4,2,2,50,0,0
65089,-100,4,2,1,75,0,0
69464,-100,4,1,1,25,0,0
69801,-100,4,1,1,35,0,0
70222,-100,4,1,1,45,0,0
70558,-100,4,2,1,100,0,0
76365,-100,4,2,1,90,0,0
76701,-100,4,2,1,80,0,0
77038,-100,4,2,1,70,0,0
77375,-100,4,2,1,60,0,0
77711,-100,4,2,1,50,0,0
78048,-100,4,2,1,40,0,0
78384,-100,4,2,1,30,0,0
78721,-100,4,2,1,20,0,0

[Colours]
Combo1 : 0,0,128
Combo2 : 0,128,0
Combo3 : 0,0,255
Combo4 : 0,255,0

[HitObjects]
256,296,629,2,0,B|312:336|392:304|384:232,2,180,4|2|2
256,104,2312,1,0
160,80,2648,1,2
64,104,2985,1,2
112,184,3321,6,0,B|128:248|200:280|256:248,2,180,0|0|2
256,56,5004,1,2
256,152,5341,1,0
256,248,5678,1,0
336,304,6014,6,0,B|288:352|224:352|176:304,2,180,4|2|2
416,128,7697,5,0
328,80,8034,1,2
304,176,8370,1,2
224,120,8707,6,0,B|152:64|48:64,2,180,0|0|2
256,312,10390,1,0
256,312,10727,1,0
256,312,11063,1,2
176,256,11400,6,0,B|104:200|104:96,3,180,4|0|2|0
256,168,13420,1,0
256,168,13756,1,2
336,256,14093,6,0,B|408:200|408:96,3,180,0|0|2|0
256,168,16112,1,2
256,168,16448,1,2
176,96,16786,6,0,B|216:48|296:48|336:96,3,180,0|0|2|2
256,240,18805,2,0,B|256:304,2,60
256,128,19478,5,4
168,96,19815,1,2
80,128,20152,1,0
48,216,20488,1,0
88,304,20825,1,2
176,336,21161,6,0,B|320:336|320:336|376:336|376:272|376:272|376:136,1,360
368,56,22508,2,2,B|224:56|224:56|168:56|168:120|168:120|168:256,1,360,2|2
288,160,24023,2,0,B|288:296,1,120,2|2
288,280,24528,1,0
384,280,24864,6,0,B|456:288|488:208|448:152,1,180
400,16,25874,2,0,B|328:8|296:88|336:144,1,180,2|0
256,264,26884,1,0
200,344,27220,1,2
128,280,27557,6,0,B|56:288|24:208|64:152,1,180
112,16,28567,2,0,B|184:8|216:88|176:144,1,180,2|0
256,264,29577,1,2
312,344,29913,1,2
352,256,30250,6,0,B|368:152|320:72,1,180
186,81,31260,2,0,B|144:152|160:256,1,180,2|2
256,144,32269,2,0,B|256:72,2,60
256,240,32943,5,4
304,320,33279,1,0
400,336,33616,1,2
472,272,33952,1,2
456,176,34289,1,0
392,104,34626,6,0,B|328:32|200:24|104:96|104:176,1,360
128,264,35972,2,2,B|192:336|320:344|416:272|416:192,1,360,2|2
288,128,37487,2,0,B|160:128,1,120,2|2
168,128,37992,1,0
88,184,38328,5,0
24,256,38665,1,2
56,344,39002,1,0
152,360,39338,1,0
216,288,39675,1,2
256,200,40011,6,0,B|264:104|448:96|480:240|424:304|376:304,1,360
280,304,41358,2,2,B|160:304|24:256,1,240,2|2
24,168,42368,5,0
56,80,42704,1,2
144,48,43041,1,2
232,80,43377,1,0
256,224,43882,6,0,B|256:296|336:328|392:296,1,180,2|0
456,232,44724,1,0
456,136,45060,2,0,B|456:56|392:32|328:64,2,180,2|0|2
368,168,46407,6,0,B|168:168,1,180,4|0
64,248,47417,1,0
64,248,47753,2,0,B|248:248,1,180,2|2
368,328,48763,1,2
368,328,49100,1,4
272,328,49436,6,0,B|152:328,1,120,0|2
72,280,50110,1,0
64,184,50446,2,0,B|48:120|96:64,1,120,2|0
144,152,51119,2,0,B|160:216|112:272,1,120,0|2
256,192,51793,12,4,54485
256,48,55159,6,0,B|440:48,1,179.999994635582,0|2
400,184,56505,1,0
328,184,56842,1,0
256,184,57178,6,0,B|152:184|80:144,2,179.999994635582,4|0|2
368,280,59198,1,0
304,312,59535,1,2
240,336,59871,6,0,B|144:360|64:304,2,179.999994635582,4|0|2
192,200,61891,1,2
256,160,62227,1,2
320,200,62564,5,2
256,328,63237,1,8
192,200,63910,1,2
184,56,64584,1,8
256,40,64920,1,2
328,56,65257,5,4
408,104,65593,2,0,B|472:160|456:224,1,120,2|0
458,207,66098,1,2
336,288,66603,2,0,B|296:336|216:336|176:288,2,180,2|2|0
256,232,67950,5,4
256,136,68286,2,0,B|248:72|184:48,1,120,2|0
184,48,68791,1,2
72,136,69296,1,2
72,232,69633,5,0
72,232,69969,1,0
72,232,70306,1,0
168,232,70643,6,0,B|232:232|288:272|288:344,2,180,4|2|2
256,64,72326,1,0
208,144,72662,1,2
304,144,72999,1,2
256,224,73335,6,0,B|256:296|328:328|384:296,2,180,0|0|2
160,56,75018,5,2
256,56,75355,1,0
352,56,75692,1,0
256,192,76028,12,4,78721
