osu file format v9

[General]
AudioFilename: 10-Fighting.mp3
AudioLeadIn: 2000
PreviewTime: 629
Countdown: 0
SampleSet: Soft
StackLeniency: 0.7
Mode: 0
LetterboxInBreaks: 1

[Editor]
DistanceSpacing: 0.7
BeatDivisor: 2
GridSize: 8

[Metadata]
Title:Those Who Fight
Artist:Nobuo Uematsu
Creator:Sushi
Version:Easy
Source:Final Fantasy VII
Tags:battle theme ff7 Eirene

[Difficulty]
HPDrainRate:2
CircleSize:3
OverallDifficulty:1
ApproachRate:3
SliderMultiplier:0.9
SliderTickRate:1

[Events]
//Background and Video events
0,0,"Final-fantasy-VII-final-fantasy-vii---158644_1024_768.jpg"
//Break Periods
//Storyboard Layer 0 (Background)
//Storyboard Layer 1 (Fail)
//Storyboard Layer 2 (Pass)
//Storyboard Layer 3 (Foreground)
//Storyboard Sound Samples
//Background Colour Transformations
3,100,163,162,255

[TimingPoints]
629,336.605890603086,4,2,1,100,1,0
18721,-100,4,1,1,30,0,0
19394,-100,4,2,1,100,0,0
32185,-100,4,1,1,30,0,0
32774,-100,4,2,1,100,0,0
54570,-133.333333333333,4,2,1,75,0,0
62480,-133.333333333333,4,2,2,50,0,0
65089,-100,4,2,1,75,0,0
69464,-100,4,1,1,25,0,0
69801,-100,4,1,1,35,0,0
70222,-100,4,1,1,45,0,0
70558,-100,4,2,1,100,0,0
76365,-100,4,2,1,90,0,0
76701,-100,4,2,1,80,0,0
77038,-100,4,2,1,70,0,0
77375,-100,4,2,1,60,0,0
77711,-100,4,2,1,50,0,0
78048,-100,4,2,1,40,0,0
78384,-100,4,2,1,30,0,0
78721,-100,4,2,1,20,0,0

[Colours]
Combo1 : 0,0,128
Combo2 : 0,128,0
Combo3 : 0,0,255
Combo4 : 0,255,0

[HitObjects]
48,192,629,2,0,B|48:288|120:344|240:344,1,270,4|2
256,224,2312,1,0
256,224,2648,1,2
216,104,3321,6,0,B|264:88|335:94|397:151|390:222|377:258,1,270,0|2
256,280,5004,1,2
256,280,5341,1,0
256,280,5678,1,0
256,280,6014,6,0,B|120:280|72:160|116:85,1,270,4|2
232,144,7697,1,0
232,144,8034,1,2
336,80,8707,6,0,B|424:80|480:144|488:224|448:280,1,270,0|2
328,264,10390,2,0,B|208:264,2,90,0|0|2
320,200,11400,6,0,B|320:128|296:56,4,135,4|0|0|2|0
192,184,14093,6,0,B|192:256|216:328,4,135,0|0|0|2|0
256,192,16786,12,0,18805
256,40,19478,6,0,B|408:40,2,135,4|0|2
256,168,21161,1,0
256,232,21498,1,2
256,296,21835,1,0
256,360,22171,1,0
192,360,22508,6,0,B|16:360|16:192,2,270,0|2|0
256,360,24864,6,0,B|392:360,4,135,0|0|2|0|2
256,232,27557,6,0,B|120:232,4,135,0|0|2|0|2
256,192,30250,12,0,32269
408,192,32943,6,0,B|456:128|456:64,2,135,4|0|2
280,176,34626,1,0
224,144,34962,1,2
168,176,35299,1,0
112,144,35636,1,0
56,176,35972,6,0,B|0:216|-16:280|0:336|48:376|104:376,2,270,2|2|2
112,152,38328,6,0,B|176:136|248:136,2,135,0|0|2
168,264,40011,1,0
224,296,40347,1,2
280,264,40684,1,0
336,296,41021,1,0
392,264,41358,6,0,B|448:224|464:160|448:104|400:64|344:64,2,270,2|2|2
264,272,44051,5,0
200,272,44387,1,2
136,272,44724,1,0
72,272,45060,2,0,B|8:272|8:216|8:160|72:160,1,180,2|0
160,72,46407,6,0,B|296:72,2,135,4|0|2
112,120,47753,2,0,B|112:256,2,135,0|0|2
80,64,49100,5,4
144,64,49436,1,2
184,112,49773,1,0
248,112,50110,1,0
312,112,50446,2,0,B|464:112|464:224|464:304,1,270,2|0
256,192,51793,12,4,54485
168,112,55832,5,0
208,80,56168,1,2
256,64,56505,1,0
304,80,56842,1,0
344,112,57178,1,4
344,272,58525,5,0
304,304,58861,1,2
256,320,59198,1,0
208,304,59535,1,0
168,272,59871,1,4
256,104,61218,5,0
256,152,61554,1,2
256,200,61891,1,0
256,248,62227,1,0
256,296,62564,6,0,B|192:336|112:312,3,134.999995976687,2|8|2|8
176,200,65257,1,4
248,40,66603,5,0
312,64,66940,1,2
376,40,67276,1,0
440,64,67613,1,0
504,40,67950,1,0
264,136,69296,5,0
200,112,69633,1,2
136,136,69969,1,0
72,112,70306,1,0
8,136,70643,6,0,B|8:232|80:288|200:288,1,270,4|2
256,176,72326,1,0
256,176,72662,1,2
216,56,73335,6,0,B|264:40|335:46|397:103|390:174|377:210,1,270,0|2
256,176,75018,1,2
256,176,75355,1,0
256,176,75692,1,0
256,192,76028,12,0,78721
