osu file format v4

[General]
AudioFilename: 212 The Road to Gibral.mp3
AudioLeadIn: 0
AudioHash: 9a095ed505812c8d65e85dcea21bcec8
PreviewTime: -1
SampleSet: Normal

[Metadata]
Title:The Road to Jibral
Artist:Nobuo Uematsu
Creator:ruemaster
Version:

[Difficulty]
HPDrainRate:5
CircleSize:5
OverallDifficulty:5
SliderMultiplier: 1.4
SliderTickRate: 1

[Events]
3,0,163,162,255

[TimingPoints]
874,521.75258608358,4,1,0

[HitObjects]
32,32,1499,1,0,
128,32,1917,1,0,
128,128,2439,1,0,
64,224,2961,1,0,
160,288,3482,1,0,
320,32,4004,5,0,
416,32,4526,1,0,
416,128,5048,1,0,
320,192,5569,1,0,
416,288,6091,1,0,
320,288,6613,1,0,
96,288,7135,1,0,
32,160,7656,5,0,
96,64,8178,1,0,
192,64,8700,1,0,
288,64,9222,1,0,
384,64,9743,1,0,
448,128,10265,5,0,
448,224,10787,1,0,
448,320,11309,1,0,
288,224,11830,1,0,
128,128,12352,1,0,
32,32,12874,1,0,
192,32,13396,5,0,
320,32,13917,1,2,
384,96,14439,1,0,
288,160,14961,1,0,
192,256,15483,1,0,
64,320,16004,1,0,
64,160,16526,1,0,
64,32,17048,1,0,
160,96,17570,1,0,
32,224,18091,5,0,
32,320,18613,1,0,
128,320,19135,1,0,
224,320,19657,1,0,
64,224,20178,1,0,
192,224,20700,1,0,
64,128,21222,1,0,
192,128,21744,1,0,
64,32,22265,5,0,
192,32,22787,1,0,
288,32,23309,1,0,
384,128,23831,1,0,
384,224,24352,1,0,
384,288,24874,1,0,
128,288,25396,6,0,B|128:288|256:32|352:32,1,280
96,64,26961,1,0,
96,288,27483,1,0,
96,160,28005,1,0,
32,256,28526,1,0,
128,320,29048,1,0,
224,224,29570,1,0,
128,96,30092,1,0,
64,224,30613,1,0,
128,352,31135,5,2,
224,352,31657,1,0,
320,288,32179,1,0,
384,192,32700,1,0,
416,96,33222,1,0,
288,96,33744,1,0,
188,147,34266,1,0,
256,192,34787,12,0,35309
64,64,35831,1,0,
128,160,36353,1,0,
352,256,36874,1,0,
448,256,37396,1,0,
446,227,37918,1,0,
444,191,38440,1,0,
444,191,38961,1,0,
444,157,39483,1,0,
444,157,40005,1,0,
381,64,40527,5,0,
309,150,41048,1,0,
230,69,41570,1,0,
158,154,42092,1,0,
85,69,42614,1,0,
158,154,43135,1,0,
158,265,43657,1,0,
246,324,44179,1,2,
340,253,44701,1,2,
427,256,45222,1,2,
437,134,45744,5,2,
416,32,46266,1,2,
320,32,46788,1,2,
224,32,47309,1,2,
128,32,47831,1,2,
256,192,48353,1,2,
384,288,48875,1,2,
256,288,49396,1,2,
160,256,49918,1,2,
160,128,50440,5,2,
224,32,50962,1,2,
256,128,51484,1,2,
288,32,52005,1,2,
320,128,52527,1,2,
352,32,53049,1,2,
384,128,53571,1,2,
384,224,54092,5,2,
384,320,54614,1,2,
256,320,55136,1,2,
160,256,55658,1,2,
160,160,56179,1,2,
160,32,56701,1,2,
256,32,57223,1,2,
320,128,57745,1,2,
320,224,58266,1,0,
320,320,58788,1,0,
224,352,59310,5,0,
320,352,59832,1,0,
224,288,60353,1,0,
320,288,60875,1,0,
224,224,61397,1,0,
320,224,61919,1,0,
224,160,62440,1,0,
320,160,62962,1,0,
393,244,63484,5,2,
