osu file format v6

[General]
AudioFilename: The Dreadful Fight.mp3
AudioLeadIn: 0
PreviewTime: -1
Countdown: 1
SampleSet: Normal
StackLeniency: 0.7
Mode: 0
LetterboxInBreaks: 1

[Editor]
Bookmarks: 67588
DistanceSpacing: 0.800000011920929
BeatDivisor: 2
GridSize: 32

[Metadata]
Title:The Dreadful Fight
Artist:Nobuo Uematsu
Creator:Cecilthemos
Version:Hard
Source:
Tags:

[Difficulty]
HPDrainRate:6
CircleSize:5
OverallDifficulty:6
SliderMultiplier:1.4
SliderTickRate:4

[Events]
//Background and Video events
0,0,"Dreadfulfight.png"
//Break Periods
2,37543,43387
2,64143,69824
2,106007,116515
2,147182,148572
//Storyboard Layer 0 (Background)
//Storyboard Layer 1 (Fail)
//Storyboard Layer 2 (Pass)
//Storyboard Layer 3 (Foreground)
//Storyboard Sound Samples
//Background Colour Transformations
3,48,163,162,255

[TimingPoints]
25,356.0825,4,1,0,100,1,0
7146,354.6825,4,1,0,100,1,0
12465,355.182499999999,3,1,0,100,1,0
21699,357.882499999999,4,1,0,100,1,0
33150,356.882499999998,3,1,0,100,1,0
38806,351.9825,4,1,0,100,1,0
50072,363.683086053415,4,1,0,100,1,0
57344,362.583086053415,3,1,0,100,1,0
62374,348.883086053416,4,1,0,100,1,0
65165,362.536363636363,4,1,0,100,1,0
73887,348.877776485638,3,1,0,100,1,0
77444,348.877776485638,4,1,0,100,1,0
80235,355.177776485638,4,1,0,100,1,0
106161,356.377776485638,4,1,0,100,1,0
117555,356.077776485638,4,1,0,100,1,0
123232,353.677776485638,4,1,0,100,1,0
134555,360.577776485638,4,1,0,100,1,0
143204,360.377776485638,3,1,0,100,1,0
146807,351.877776485638,4,1,0,100,1,0
149622,360.377776485638,4,1,0,100,1,0
161874,348.877776485638,4,1,0,100,1,0
164665,356.737764350452,4,1,0,100,1,0

[HitObjects]
480,32,12465,1,0
320,32,12820,1,2
0,320,13530,1,0
192,320,13885,1,2
512,320,14596,1,0
320,320,14951,1,2
0,32,15661,1,0
192,32,16016,1,0
288,128,16372,2,4,C|320:128,4,35
288,224,17082,6,0,C|416:320,2,140
224,224,18147,2,0,C|96:320,2,140
288,160,19213,2,2,C|416:64,2,140
224,160,20279,2,4,C|96:64,2,140
64,64,21699,5,0
288,64,22235,1,0
288,64,22414,1,2
320,256,22951,2,4,C|352:288,2,35
256,192,23488,1,0
192,128,23846,1,2
32,320,24383,5,0
32,320,24562,1,0
128,224,25098,2,2,C|192:160,1,70
64,96,25814,1,0
64,96,25993,1,0
192,96,26351,1,2
320,96,26709,1,2
416,224,27246,5,0
416,224,27425,2,4,C|256:224,1,140
192,224,27961,1,0
192,224,28140,2,4,C|32:224,1,140
64,128,28677,1,0
64,128,28856,2,4,C|224:128,1,140
288,128,29393,1,0
288,128,29572,1,0
480,96,30019,5,0
480,96,30198,2,0,C|320:96,1,140
224,96,30735,1,0
224,96,30914,2,0,C|64:96,1,140
64,224,31451,1,0
64,224,31630,2,0,B|224:352|396:222|320:64|96:32,1,560
96,128,33239,5,0
160,96,33417,1,0
224,128,33596,1,0
288,96,33774,1,0
320,160,33952,1,0
288,224,34131,1,0
224,192,34309,1,0
160,224,34488,1,0
96,192,35915,5,0
160,224,36094,1,0
224,192,36272,1,0
288,224,36451,1,0
320,160,36629,1,0
288,96,36808,1,0
224,128,36986,1,0
160,96,37164,1,0
96,128,37343,1,0
0,352,44437,6,2,C|512:352,1,490
0,32,47077,6,2,C|512:32,1,490
480,128,48661,1,0
352,256,49013,1,2
224,128,49365,1,2
64,256,49717,1,6
0,352,50072,5,0
64,352,50253,1,0
128,352,50435,1,2
128,256,50799,5,0
64,256,50981,2,4,C|-32:256,1,70
0,128,51526,1,0
64,128,51708,2,2,C|160:128,3,70
192,128,52435,1,2
192,128,52617,1,4
255,128,52799,1,2
320,128,52981,1,4
480,64,53345,5,0
416,64,53526,1,0
352,64,53708,2,2,C|256:64,2,70
480,160,54436,5,0
416,160,54618,1,0
352,160,54799,2,2,C|256:160,1,70
224,160,55163,1,4
160,160,55345,1,2
96,160,55527,1,4
96,320,55890,5,0
160,288,56072,1,0
224,256,56254,1,4
288,224,56436,2,2,C|352:192,2,70
224,256,56981,1,4
160,288,57163,1,4
96,320,57345,1,2
96,160,57706,5,2
256,160,58069,1,0
320,160,58250,1,0
384,160,58431,2,0,C|416:160,2,70
288,64,59066,2,2,C|192:64,1,70
288,192,59610,2,2,C|192:192,1,70
287,319,60154,2,4,C|191:319,1,70
64,320,60697,5,0
64,256,60879,1,0
64,192,61060,1,0
64,128,61241,1,0
128,128,61423,1,0
192,128,61604,1,0
256,128,61785,1,0
320,128,61966,1,0
416,192,62374,5,0
416,192,62548,1,0
288,192,62897,2,0,C|352:192,1,70
288,192,63420,2,2,C|192:192,1,70
160,192,63769,1,4
160,192,63943,1,4
224,160,70874,5,0
288,160,71056,1,0
288,224,71237,1,2
224,224,71418,1,2
160,224,71600,2,2,C|128:224,2,70
224,224,72143,1,0
288,224,72325,1,0
288,224,72687,1,4
512,224,73050,5,0
448,224,73231,2,0,C|384:224,3,70
352,96,74148,1,0
352,96,74323,1,0
224,160,74671,1,0
160,160,74846,1,0
288,256,75195,1,0
352,256,75369,1,0
320,384,75718,5,0
256,384,75892,1,0
256,320,76067,1,0
256,256,76241,1,0
256,192,76416,1,0
256,128,76590,1,0
256,64,76765,1,0
256,0,76939,1,0
192,0,77113,1,0
192,64,77375,5,0
192,64,77531,1,0
64,192,77880,1,0
128,192,78054,1,0
256,224,78403,1,2
256,224,78577,1,2
256,224,78752,1,4
256,224,78926,1,4
256,192,80235,12,0,84496
32,64,85917,5,2
416,64,86628,1,2
32,320,87338,1,2
416,320,88048,1,2
320,256,88759,5,0
320,192,88937,1,0
320,128,89114,1,0
256,128,89292,1,0
256,192,89469,2,2,C|256:224,1,70
192,256,89825,1,4
192,192,90002,1,4
192,128,90180,1,4
160,32,91600,5,0
256,64,91955,1,0
288,32,92133,1,0
320,32,92311,1,0
384,96,92666,1,0
384,128,92843,1,0
384,160,93021,1,2
288,128,93376,1,2
352,192,94086,5,0
256,192,94442,1,0
224,160,94619,1,0
192,192,94797,1,0
256,256,95152,1,0
288,288,95330,1,0
320,256,95507,1,4
384,320,95862,1,4
416,352,96573,6,2,C|384:320,2,35
391,327,96928,2,4,C|384:160,1,140
49,115,97993,2,2,C|216:108,1,140
457,182,99059,2,2,C|335:70,1,140
51,336,100124,2,2,C|44:169,1,140
128,288,100835,2,4,C|192:288,4,35
320,256,101545,6,2,C|313:89,1,140
32,256,102611,2,2,C|25:89,1,140
224,64,103676,2,4,C|391:71,1,140
256,352,104742,2,4,C|249:185,1,140
256,160,105452,1,2
256,160,105541,1,2
256,160,105630,1,2
256,160,105719,1,2
256,160,105807,1,4
64,160,117565,5,0
128,224,117733,1,0
192,160,117911,1,0
192,96,118089,1,0
256,32,118267,1,0
320,96,118445,1,0
320,160,118623,1,0
384,224,118801,1,0
448,160,118979,1,0
448,96,120403,5,0
384,32,120581,1,0
320,96,120759,1,0
320,160,120937,1,0
256,224,121115,1,0
192,160,121293,1,0
192,96,121471,1,0
128,32,121649,1,0
64,96,121827,1,0
256,192,123252,12,2,124293
256,192,124469,12,2,125707
256,192,125884,12,2,127122
256,192,127299,12,2,128537
256,192,128890,12,2,130128
256,192,130305,12,2,131366
256,192,131543,12,4,133842
256,96,134549,5,0
224,128,134735,1,0
192,160,134915,1,2
256,256,135276,1,0
288,224,135456,1,0
320,192,135636,1,2
256,96,135997,5,2
224,128,136177,1,0
192,160,136357,1,0
160,192,136538,1,2
192,224,136718,1,0
224,256,136898,1,0
256,288,137079,1,2
288,256,137259,1,0
320,224,137439,1,4
320,96,137800,6,4,C|288:96,3,70
192,96,138521,1,2
128,256,138881,1,0
64,288,139062,1,2
0,320,139242,2,4,C|0:256,1,70
64,192,139603,2,0,C|64:96,1,70
128,64,139963,2,0,C|160:64,1,70
256,128,140324,2,0,C|256:160,1,70
320,256,140684,2,0,C|352:256,1,70
448,192,141045,2,0,C|448:160,1,70
416,32,141405,2,0,C|384:64,1,70
288,96,141766,1,2
288,96,142127,1,2
192,160,142487,6,2,C|128:160,1,70
128,224,142848,2,2,C|160:224,1,70
256,288,143204,1,0
384,224,143564,1,0
384,224,143744,1,0
256,128,144104,1,2
256,128,144285,1,2
128,192,144645,1,4
128,192,144825,1,4
256,352,145186,5,0
192,320,145366,1,0
160,256,145546,1,0
160,192,145726,1,0
192,128,145906,1,0
256,96,146087,1,2
192,128,146267,1,2
160,192,146447,1,2
160,256,146627,1,2
256,256,146807,1,4
256,256,146982,1,4
128,352,149622,5,0
192,320,149802,1,2
256,288,149982,1,2
96,288,150342,1,0
160,256,150522,1,2
224,224,150703,1,2
64,224,151063,1,0
128,192,151243,1,2
192,160,151423,1,2
256,128,151604,2,4,C|320:96,2,70
320,160,152144,1,0
384,192,152324,1,0
448,224,152505,1,2
352,352,152865,6,4,C|192:256,3,140
160,224,154126,2,0,C|160:160,1,70
32,224,154667,1,2
32,160,154847,1,2
32,96,155027,1,0
96,32,155388,5,0
128,96,155568,1,0
160,32,155748,1,0
192,96,155928,1,0
224,32,156108,1,0
256,96,156288,1,0
288,32,156469,1,0
320,96,156649,1,0
352,32,156829,1,0
416,96,157189,1,0
384,192,157550,5,0
320,160,157730,1,0
320,224,157910,1,0
256,192,158090,1,0
256,128,158271,1,0
224,224,158631,5,0
160,192,158811,1,0
288,224,159172,1,0
352,192,159352,1,0
224,96,159712,1,0
160,128,159892,1,0
352,128,160253,1,0
288,96,160433,2,2,C|256:64,6,70
96,64,161874,5,0
160,64,162048,1,0
352,64,162397,1,2
416,64,162571,1,2
160,160,162920,1,2
224,160,163095,1,2
288,160,163269,1,4
352,160,163443,1,4
256,192,164665,12,4,168945
0,32,170372,5,0
256,32,170729,1,2
256,256,171086,1,0
96,96,171443,1,2
352,96,171799,1,0
352,320,172156,1,2
288,128,172513,1,0
96,192,172869,1,2
256,192,173226,12,4,176080
