osu file format v5

[General]
AudioFilename: SSBB Main theme.mp3
AudioLeadIn: 0
PreviewTime: -1
Countdown: 1
SampleSet: Soft
StackLeniency: 0.7
Mode: 0
LetterboxInBreaks: 1

[Metadata]
Title:Super Smash Bros. Brawl - Main Theme
Artist:Nobuo Uematsu
Creator:flyboy87
Version:Normal
Source:
Tags:

[Difficulty]
HPDrainRate:5
CircleSize:5
OverallDifficulty:5
SliderMultiplier:1.4
SliderTickRate:1

[Events]
//Background and Video events
1,900,"t_ssbb_cinintro_jp_gt.avi"
0,0,"brawl.png"
//Break Periods
2,30377,31423
2,63942,66608
2,81627,82581
2,96780,98579
//Storyboard Layer 0 (Background)
//Storyboard Layer 1 (Failing)
//Storyboard Layer 2 (Passing)
//Storyboard Layer 3 (Foreground)
//Storyboard Sound Samples
//Background Colour Transformations
3,100,163,162,255

[TimingPoints]
5379,399.973335110993,4,1,1,100,1,0
30777,-100,4,2,1,100,0,0
32623,816.326530612245,4,2,1,100,1,0
39016,796.812749003984,4,2,1,100,1,0
45191,-100,4,1,1,100,0,0
45416,398.406374501992,4,1,1,100,1,1
51718,398.406374501992,4,1,1,100,1,1
54977,398.406374501992,4,1,1,100,1,1
67627,-100,4,2,1,100,0,0
67808,808.516372456542,4,2,1,100,1,0
74202,802.782981000803,4,2,1,100,1,0
83434,-100,4,1,1,100,0,0
83781,399.973335110993,4,1,1,100,1,1
96580,399.973335110993,4,1,1,100,1,0
99779,399.973335110993,4,1,1,100,1,1
112778,-100,4,2,1,100,0,0
115977,-100,4,1,1,100,0,0

[HitObjects]
56,56,3779,1,0
192,56,4179,1,0
328,56,4579,1,4
192,296,5379,1,4
48,56,6178,6,0,L|48:208,1,140
48,264,6778,1,8
48,336,6978,1,8
184,336,7378,5,0
256,336,7578,1,2
328,336,7778,1,0
256,216,8178,1,0
256,72,8578,1,4
40,248,9378,5,0
112,248,9578,1,8
112,248,9778,1,0
8,344,10178,2,0,L|480:32,1,560,0|4
264,40,12378,5,0
192,40,12578,1,0
120,40,12778,1,0
48,40,12978,1,8
120,40,13178,1,0
120,112,13378,1,4
256,352,14178,5,8
256,208,14578,1,8
256,136,14778,1,0
256,64,14978,1,4
112,64,15378,6,4,L|200:64,1,70
184,136,15778,1,2
184,272,16178,2,2,L|88:272,1,70
112,204,16578,2,0,L|112:52,1,140,0|4
248,64,17378,1,0
384,64,17778,1,0
384,64,18178,1,4
256,312,18978,5,2
184,232,19378,1,0
184,160,19578,1,0
184,88,19778,2,4,L|240:136|296:88|344:136|408:80,1,280,4|0
296,192,20977,1,4
200,296,21377,1,4
40,64,22177,5,0
112,64,22377,1,0
184,64,22577,2,0,L|288:64,1,70
256,192,22977,12,4,24577
200,40,25377,5,0
200,112,25577,1,0
272,112,25777,1,0
272,40,25977,1,0
344,40,26177,2,0,L|344:320,1,280
224,248,27377,5,8
224,176,27577,2,2,L|224:80,1,70
360,64,28177,6,0,L|360:224,1,140
216,200,28977,1,0
144,200,29177,1,0
72,200,29377,1,8
352,200,30177,1,8
96,72,32623,6,2,L|96:240,1,140
168,216,33847,1,2
240,216,34255,1,2
312,216,34663,1,0
384,216,35071,1,2
384,72,35888,5,0
336,120,36296,2,2,L|264:192,1,70
144,168,37520,1,2
40,72,38337,1,2
168,72,39016,6,0,L|328:72,1,140
304,144,40211,1,2
304,216,40609,1,0
232,216,41008,1,0
160,216,41406,1,4
224,336,42203,6,4,L|168:336|144:312,1,70,0|0
256,192,43000,12,4,45416
72,288,46212,5,0
208,288,46611,2,0,B|296:296|360:224,1,140
432,136,47408,1,8
432,136,47806,1,4
152,184,48603,5,2
392,328,49400,1,0
248,328,49798,1,0
104,328,50196,1,0
104,256,50396,2,0,B|104:160,1,70
104,48,50993,1,4
384,48,51718,6,8,B|176:240,1,280
320,224,52913,1,0
456,224,53311,1,0
392,112,53710,1,0
248,112,54108,2,0,B|152:224,1,140
88,112,54977,1,4
256,344,55774,1,4
256,64,56571,5,2
256,344,57368,1,0
256,192,58165,12,4,61352
72,104,62149,5,2
208,104,62547,1,0
344,104,62945,2,0,B|464:192,1,140
312,184,63742,1,4
48,192,67808,6,0,B|224:192,1,140
256,192,69020,1,2
328,192,69425,2,0,B|488:192,1,140
472,120,70637,1,2
472,48,71042,2,0,L|328:48,1,140
264,48,72254,1,0
192,48,72659,2,2,B|96:48,2,70
272,160,74202,5,0
392,224,75004,2,0,B|392:128,1,70
392,80,75807,1,2
248,80,76610,2,0,B|192:144,1,70
160,192,77413,1,4
16,184,78215,6,0,B|72:120,1,70
96,72,79018,2,8,B|192:72,1,70,0|0
240,72,79821,1,2
376,72,80624,1,0
376,136,81025,1,2
376,200,81427,1,4
56,48,83781,6,8,B|312:208,1,280
296,336,84980,1,0
152,336,85380,1,0
152,336,85780,1,8
152,192,86180,1,4
392,48,86980,6,2,B|176:240,1,280
96,120,88180,1,8
232,120,88580,1,8
472,264,89380,2,0,B|472:112,2,140,0|0|4
256,80,90980,5,8
256,216,91380,1,0
168,320,91780,2,0,B|168:168,1,140
168,40,92580,2,2,B|168:200,1,140
256,192,93380,12,0,96580
64,80,99779,6,0,B|368:80,1,280
480,80,100978,1,8
384,184,101378,1,0
288,288,101778,1,0
192,184,102178,1,2
96,80,102578,1,2
232,80,102978,2,0,L|272:136|320:80|360:136|400:80,1,280
256,40,105378,5,4
256,320,106178,1,4
256,192,106278,12,4,108178
120,80,108578,5,4
400,88,109378,1,4
256,192,109478,12,4,111378
392,56,111778,5,4
112,56,112578,5,0
112,192,112978,1,0
112,264,113178,1,0
112,336,113378,1,0
184,336,113578,1,0
256,336,113778,5,2
392,336,114178,2,0,L|464:288|392:264|464:224|392:200|464:160|392:136|464:88|480:72,1,560,0|4
320,88,116177,1,0
248,88,116377,1,0
176,88,116577,1,4
