osu file format v9

[General]
AudioFilename: IRMK.mp3
AudioLeadIn: 2007
PreviewTime: 45271
Countdown: 1
SampleSet: Soft
StackLeniency: 0.7
Mode: 0
LetterboxInBreaks: 1

[Editor]
Bookmarks: 75105
DistanceSpacing: 1
BeatDivisor: 3
GridSize: 16

[Metadata]
Title:Rose of May (Loss of Me)
Artist:Nobuo Uematsu
Creator:ErufenRito
Version:Normal
Source:Final Fantasy IX
Tags:FF9 FFIX Mukku

[Difficulty]
HPDrainRate:5
CircleSize:4
OverallDifficulty:5
ApproachRate:5
SliderMultiplier:2.4
SliderTickRate:3

[Events]
//Background and Video events
0,0,"Great Lady Beatrix.jpg"
//Break Periods
//Storyboard Layer 0 (Background)
//Storyboard Layer 1 (Fail)
//Storyboard Layer 2 (Pass)
//Storyboard Layer 3 (Foreground)
//Storyboard Sound Samples
//Background Colour Transformations
3,100,163,162,255

[TimingPoints]
348,923.076923076923,4,2,2,30,1,0
138809,-100,4,2,2,25,0,0
140655,-100,4,2,2,20,0,0
142501,-100,4,2,2,15,0,0
144347,-100,4,2,2,10,0,0
146194,-100,4,2,2,5,0,0
148040,-100,4,2,2,0,0,0

[HitObjects]
280,24,348,1,8
216,72,655,1,0
152,120,963,1,0
88,168,1271,2,0,L|16:224,6,80,2|0|0|2|0|0|2
232,352,4040,5,8
296,304,4347,1,0
360,256,4655,1,0
424,208,4963,2,0,L|496:152,6,80,10|0|0|2|0|0|2
184,208,7732,5,8
112,248,8040,1,0
184,288,8347,1,0
112,328,8655,2,0,L|32:328,6,80,10|0|0|2|0|0|2
328,216,11424,5,8
400,176,11732,1,0
328,136,12040,1,0
400,96,12347,2,0,L|480:96,6,80,10|0|0|2|0|0|2
136,88,16040,5,8
216,88,16347,1,0
296,88,16655,1,0
376,88,16963,1,8
448,232,17578,5,0
368,232,17886,2,0,L|272:232,1,80,8|0
288,312,18501,2,0,L|200:312,1,80,0|8
64,232,19424,5,0
144,232,19732,2,0,L|240:232,1,80,8|0
224,152,20347,2,0,L|312:152,1,80,0|8
256,288,21271,5,0
216,216,21578,2,0,L|136:216,3,80,8|0|0|8
96,144,22809,1,0
64,72,23117,1,2
144,72,23424,2,0,L|232:72,3,80,8|0|0|8
384,72,24963,5,0
320,112,25271,2,0,B|280:96|232:112,1,80,8|0
160,112,25886,1,0
96,160,26194,2,8,B|64:240,1,80,8|0
96,304,26809,1,2
176,328,27117,2,0,L|272:304,1,80,8|0
312,256,27732,1,0
296,176,28040,6,0,B|232:112,1,80,8|0
160,112,28655,1,2
160,192,28963,2,0,L|160:288,3,80,8|0|0|8
112,48,30809,5,8
184,16,31117,1,0
256,48,31424,1,0
328,16,31732,1,8
472,88,32347,5,0
400,120,32655,1,8
328,88,32963,1,0
256,120,33271,1,0
184,88,33578,1,8
40,160,34194,5,0
112,192,34501,1,8
184,160,34809,1,0
256,192,35117,1,0
328,160,35424,1,8
472,232,36040,5,0
400,264,36347,1,8
328,232,36655,1,0
256,264,36963,1,0
184,232,37271,1,8
112,264,37578,1,0
40,232,37886,1,2
112,192,38194,6,0,L|112:104,1,80,8|0
192,112,38809,2,0,L|254:49,1,80,0|8
248,56,39732,5,0
328,80,40040,1,8
408,56,40347,1,0
408,56,40655,1,0
472,104,40963,1,8
432,176,41271,1,0
432,176,41578,1,2
456,256,41886,5,8
384,288,42194,1,0
384,288,42501,1,0
320,336,42809,1,8
240,312,43117,1,0
240,312,43424,1,2
224,232,43732,6,0,L|144:168,1,80,8|0
192,104,44347,2,0,L|112:40,1,80,0|10
48,56,44963,1,0
48,56,45271,1,2
48,56,45578,1,4
256,192,45886,12,4,47424
256,192,47732,12,4,49271
256,192,50194,5,4
256,192,51117,1,4
256,192,52040,1,2
56,296,52963,5,8
56,296,53271,2,0,B|56:192,1,80,0|0
136,208,53886,2,0,B|136:120,1,80,8|0
216,128,54501,2,0,B|216:40,1,80,0|8
296,48,55117,2,0,B|296:136,1,80,0|0
376,128,55732,2,0,B|376:224,1,80,8|0
456,216,56347,2,0,B|456:312,1,80,0|8
376,296,56963,6,0,B|272:296,1,80,0|0
216,296,57578,2,0,B|112:296,3,80,2|2|2|2
64,256,58809,1,4
24,184,59117,1,2
64,112,59424,1,4
136,72,59732,1,2
208,112,60040,1,4
248,184,60347,5,2
248,184,61271,1,2
400,136,61886,1,2
464,88,62194,1,2
400,232,62809,1,2
464,280,63117,1,2
336,184,63732,1,2
336,184,64040,5,6
144,328,64963,1,4
112,88,65886,1,4
336,184,66809,1,2
448,280,67732,5,2
376,320,68040,1,0
296,336,68347,1,0
216,336,68655,1,2
136,320,68963,1,0
64,280,69271,1,2
16,216,69578,1,2
64,152,69886,1,0
136,112,70194,1,2
216,88,70501,1,2
256,192,70809,12,4,73271
440,64,75117,5,8
365,93,75424,1,0
289,119,75732,2,0,B|201:151,1,80,0|8
58,108,76655,5,0
102,174,76963,1,8
148,238,77271,1,0
192,304,77578,2,0,B|249:386,1,80,0|8
213,211,78501,5,0
286,178,78809,1,8
360,147,79117,1,0
433,116,79424,2,0,B|523:76,1,80,0|8
480,240,80347,5,0
409,201,80655,1,8
339,161,80963,1,0
270,119,81271,2,0,B|169:58,1,80,0|8
126,106,81886,5,0
84,174,82194,1,2
110,249,82501,1,8
173,297,82809,1,0
182,217,83117,2,0,B|235:219|252:282,1,80,0|8
384,336,84040,5,0
449,290,84347,1,8
448,209,84655,1,0
370,189,84963,2,0,B|379:141|421:122,1,80,0|8
487,94,85578,5,0
427,40,85886,1,2
348,54,86194,1,8
289,108,86501,1,0
243,42,86809,2,0,B|195:58|203:128,1,80,0|8
122,113,87424,5,0
162,181,87732,1,2
240,198,88040,1,8
319,187,88347,1,0
361,119,88655,2,0,B|402:152|395:193,1,80,0|8
336,336,89886,6,0,B|376:328|424:336,3,80,8|0|0|8
176,288,91424,5,0
176,288,91732,2,0,B|136:280|88:288,3,80,8|0|0|8
336,240,93271,5,0
336,240,93578,2,0,B|376:232|424:240,3,80,8|0|0|8
176,192,95117,5,0
176,192,95424,2,0,B|136:184|88:192,3,80,8|0|0|8
32,240,96655,5,0
32,320,96963,1,2
96,368,97271,2,0,B|136:360|184:368,3,80,8|0|0|8
376,240,98809,5,0
376,240,99117,2,0,B|416:232|464:240,2,80,8|0|0
272,184,100040,2,0,B|232:176|184:184,2,80,8|0|0
376,128,100963,2,0,B|416:120|464:128,2,80,8|0|0
272,72,101886,2,0,B|232:64|184:72,2,80,8|0|0
376,16,102809,2,0,B|416:8|464:16,2,80,8|0|0
296,16,103732,5,10
216,16,104040,1,0
136,16,104347,1,2
56,16,104655,5,8
56,96,104963,1,0
56,16,105271,1,0
112,72,105578,1,8
56,16,105886,1,0
136,16,106194,1,0
56,16,106501,5,8
112,72,106809,1,0
176,120,107117,1,0
240,168,107424,1,8
296,224,107732,1,0
360,280,108040,1,0
416,336,108347,5,8
416,336,108655,1,0
416,336,108963,1,0
456,264,109271,5,8
456,264,109578,1,0
456,264,109886,1,0
376,264,110194,5,8
376,264,110501,1,0
376,264,110809,1,0
416,336,111117,5,2
288,136,112040,5,8
216,104,112347,1,0
280,56,112655,1,0
352,88,112963,1,8
360,168,113271,1,0
296,216,113578,1,0
224,184,113886,5,8
288,136,114194,1,0
216,104,114501,1,0
152,152,114809,1,8
160,232,115117,1,0
232,264,115424,1,0
296,216,115732,5,8
224,184,116040,1,0
288,136,116347,1,0
360,168,116655,1,8
368,248,116963,1,0
304,296,117271,1,0
232,264,117578,5,2
296,217,117886,1,4
216,179,118194,1,2
142,240,118501,1,4
97,146,118809,1,2
177,69,119117,1,4
290,107,119424,1,8
256,192,119732,12,8,121271
256,192,121578,12,8,123117
256,192,124040,5,8
256,192,124963,1,8
256,192,125886,1,2
256,192,126809,5,2
256,192,127732,1,2
416,192,128347,5,0
480,136,128655,1,2
304,104,129271,5,0
360,48,129578,1,2
224,176,130194,5,0
160,224,130501,1,2
96,176,130809,1,2
160,128,131117,1,0
224,176,131424,1,2
288,128,131732,1,2
224,80,132040,1,0
224,0,132347,1,2
256,192,132655,12,8,134194
496,80,135117,5,8
256,80,136040,1,8
376,288,136963,1,8
136,288,137886,1,8
16,80,138809,1,8
256,80,139732,1,8
256,320,140655,1,8
376,112,141578,5,8
296,112,141886,1,0
216,112,142194,1,0
136,112,142501,1,8
160,272,143117,5,0
160,272,143424,2,8,B|280:304|412:246,2,240
88,240,145578,1,0
64,160,145886,1,0
144,176,146194,2,8,B|211:70|348:24,2,240
