osu file format v9

[General]
AudioFilename: IRMK.mp3
AudioLeadIn: 2007
PreviewTime: 45271
Countdown: 1
SampleSet: Soft
StackLeniency: 0.7
Mode: 0
LetterboxInBreaks: 1

[Editor]
Bookmarks: 75105
DistanceSpacing: 0.8
BeatDivisor: 3
GridSize: 8

[Metadata]
Title:Rose of May (Loss of Me)
Artist:Nobuo Uematsu
Creator:ErufenRito
Version:Easy
Source:Final Fantasy IX
Tags:FF9 FFIX Mukku

[Difficulty]
HPDrainRate:4
CircleSize:3
OverallDifficulty:4
ApproachRate:4
SliderMultiplier:1.8
SliderTickRate:3

[Events]
//Background and Video events
0,0,"Great Lady Beatrix.jpg"
//Break Periods
//Storyboard Layer 0 (Background)
//Storyboard Layer 1 (Fail)
//Storyboard Layer 2 (Pass)
//Storyboard Layer 3 (Foreground)
//Storyboard Sound Samples
//Background Colour Transformations
3,100,163,162,255

[TimingPoints]
348,923.076923076923,4,2,2,30,1,0
138809,-100,4,2,2,25,0,0
140655,-100,4,2,2,20,0,0
142501,-100,4,2,2,15,0,0
144347,-100,4,2,2,10,0,0
146194,-100,4,2,2,5,0,0
148040,-100,4,2,2,0,0,0

[HitObjects]
136,88,348,1,8
280,88,1271,2,0,L|344:88,6,60,10|0|0|2|0|0|2
392,176,4040,5,8
248,176,4963,2,0,L|176:176,6,60,10|0|0|2|0|0|2
128,264,7732,6,0,L|208:264,9,60,8|0|0|10|0|0|2|0|0|2
328,264,11424,6,0,L|408:264,9,60,8|0|0|10|0|0|2|0|0|2
112,168,16040,6,8,L|48:224|56:288|64:336,1,180,8|8
152,352,17578,1,0
152,352,17886,2,0,L|216:296|208:232|200:184,1,180,8|8
296,200,19424,5,0
296,200,19732,2,0,L|232:144|240:80|248:32,1,180,8|8
336,16,21271,1,0
336,16,21578,2,0,L|400:72|392:136|384:184,3,180,8|8|8|8
400,312,25271,5,8
256,312,26194,1,8
112,312,27117,1,8
256,192,27424,12,4,29886
400,56,30809,6,0,L|312:56,3,60,8|0|0|8
296,144,32347,1,0
296,144,32655,2,0,L|384:144,3,60,8|0|0|8
312,232,34194,5,0
312,232,34501,2,0,L|224:232,3,60,8|0|0|8
208,320,36040,1,0
208,320,36347,2,0,L|296:320,3,60,8|0|0|8
312,320,37578,1,0
360,320,37886,1,2
408,320,38194,6,0,L|496:320,3,60,8|0|0|8
464,224,39732,1,0
464,224,40040,2,0,L|464:160|416:104|352:104,5,180,8|8|8|8|8|10
328,104,44963,1,0
280,104,45271,1,2
232,104,45578,5,2
120,192,46501,1,2
192,128,47117,5,0
192,176,47424,1,2
280,208,48040,1,0
280,256,48347,1,2
368,296,48963,1,0
368,344,49271,5,2
504,224,50194,1,2
408,184,50809,5,0
408,136,51117,1,2
320,104,51732,1,0
320,56,52040,1,2
320,216,52963,5,2
176,216,53886,1,2
104,151,54501,5,0
70,117,54809,1,2
88,216,55424,1,0
40,216,55732,1,2
104,279,56347,1,0
71,313,56655,1,2
176,216,57578,6,0,L|248:216,8,60,2|0|0|2|2|4|2|4|4
128,216,60347,5,2
224,112,61271,1,2
328,96,61886,6,0,L|400:96,1,60,0|2
352,184,62809,2,0,L|273:185,1,60,0|2
248,272,63732,1,0
248,272,64040,2,0,L|448:272,3,180,6|6|6|6
440,120,67732,5,2
312,56,68655,1,2
240,120,69271,1,0
240,168,69578,1,2
160,120,70194,1,0
160,72,70501,1,2
256,192,71117,12,4,73271
338,74,75117,5,8
255,192,76040,1,2
173,309,76963,1,8
255,191,77886,1,2
138,110,78809,5,8
254,191,79732,1,2
373,274,80655,1,8
256,191,81578,1,2
112,192,82501,6,8,L|112:264|136:296|216:296,1,180
296,296,84040,1,0
296,296,84347,2,8,L|368:296|400:272|400:192,2,180
248,296,86501,5,2
200,296,86809,1,0
152,296,87117,2,8,L|152:224|176:192|256:192,1,180
288,192,88347,1,2
336,192,88655,1,0
384,192,88963,1,12
72,176,89886,6,0,L|104:104,1,60,8|0
144,160,90501,2,0,L|216:192,1,60,0|8
160,296,91424,5,0
160,296,91732,2,0,L|128:368,1,60,8|0
88,312,92347,2,0,L|16:280,1,60,0|8
128,216,93271,5,0
128,216,93578,2,0,L|160:144,1,60,8|0
200,200,94194,2,0,L|272:232,1,60,0|8
352,152,95117,5,0
352,152,95424,2,0,L|320:224,1,60,8|0
280,168,96040,2,0,L|208:136,1,60,0|8
168,120,96655,1,0
112,96,96963,1,2
112,96,97271,6,0,L|144:24,1,60,8|0
184,80,97886,2,0,L|256:112,1,60,0|8
333,119,98809,5,0
381,151,99117,2,0,L|453:151,2,60,8|0|0
333,183,100040,2,0,L|261:183,2,60,8|0|0
381,215,100963,6,0,L|453:215,2,60,8|0|0
333,247,101886,2,0,L|261:247,2,60,8|0|0
381,279,102809,2,0,L|453:279,2,60,8|0|0
333,311,103732,6,0,L|261:311,2,60,10|0|2
397,311,104655,1,4
256,192,104963,12,4,108347
256,192,109271,5,4
256,192,110194,1,4
256,192,111117,1,2
368,288,112040,5,2
368,288,112963,1,2
256,248,113578,1,2
256,248,113886,1,2
144,288,114501,1,2
144,288,114809,1,2
256,328,115424,1,2
256,328,115732,1,2
264,120,116655,6,0,L|264:40|248:24|160:24,1,180,2|2
120,24,117886,2,4,L|40:24,4,60,4|2|4|2|4
120,72,119424,5,8
256,192,119732,12,8,123117
80,256,124040,5,8
256,72,124963,1,8
432,256,125886,1,2
256,256,126809,5,2
120,144,127732,1,2
208,112,128347,5,0
248,73,128655,1,2
208,184,129271,5,0
247,224,129578,1,2
256,192,130194,12,4,132348
256,192,132655,12,8,134194
304,160,135117,5,8
304,160,136040,1,8
288,240,136963,1,8
288,240,137886,1,8
208,224,138809,1,8
208,224,139732,1,8
224,144,140655,1,8
224,144,141578,6,0,B|223:28|347:12,1,180,8|8
304,160,143424,2,0,B|419:159|435:283,1,180,8|8
288,240,145271,2,0,B|288:355|164:371,1,180,8|8
208,224,147117,2,0,B|92:224|76:100,1,180,8|8
