osu file format v9

[General]
AudioFilename: 17 - Path of Repentance.mp3
AudioLeadIn: 2007
PreviewTime: 64077
Countdown: 0
SampleSet: Soft
StackLeniency: 0.7
Mode: 0
LetterboxInBreaks: 1

[Editor]
DistanceSpacing: 0.5
BeatDivisor: 4
GridSize: 4

[Metadata]
Title:Path of Repentance
Artist:Nobuo Uematsu
Creator:Entrail
Version:Bahamut
Source:Final Fantasy X
Tags:ffx via purifico

[Difficulty]
HPDrainRate:7
CircleSize:5
OverallDifficulty:7
ApproachRate:7
SliderMultiplier:1.8
SliderTickRate:2

[Events]
//Background and Video events
0,0,"background_valefor.jpg"
//Break Periods
2,60122,63177
//Storyboard Layer 0 (Background)
//Storyboard Layer 1 (Fail)
//Storyboard Layer 2 (Pass)
//Storyboard Layer 3 (Foreground)
//Storyboard Sound Samples
//Background Colour Transformations
3,100,163,162,255

[TimingPoints]
385,461.538461538462,3,2,1,40,1,0

[Colours]
Combo1 : 239,140,50
Combo2 : 49,126,203
Combo3 : 167,3,3
Combo4 : 111,75,151

[HitObjects]
104,152,385,1,2
128,112,615,1,0
168,96,846,1,0
216,104,1077,1,2
240,144,1308,1,0
240,192,1538,1,0
216,232,1769,1,2
360,304,2231,1,0
408,168,2692,1,2
256,80,3154,6,0,B|160:80|160:80,2,90,4|0|0
296,104,3846,1,2
304,152,4077,1,0
304,200,4308,1,0
296,240,4538,1,2
128,272,5000,1,0
128,88,5461,1,2
312,64,5923,5,4
356,76,6154,1,0
384,112,6385,1,0
372,156,6615,1,2
340,188,6846,1,0
352,232,7077,1,0
384,264,7308,2,0,B|304:352|211:246,1,180,2|0
176,188,8231,1,2
120,264,8692,5,2
88,232,8923,1,0
56,200,9154,1,0
88,168,9385,1,2
120,136,9615,1,0
152,104,9846,1,0
184,72,10077,1,2
328,56,10538,2,0,B|448:80|400:224,1,180,0|4
360,288,11461,6,0,B|264:288,1,90,2|0
224,288,11923,1,0
176,288,12154,2,0,B|70:288,1,90,2|0
84,240,12615,1,0
84,192,12846,1,2
216,48,13308,1,4
408,104,13769,1,4
272,168,14231,5,4
240,136,14461,1,0
200,116,14692,1,0
156,120,14923,1,2
116,140,15154,1,0
88,176,15385,1,0
80,220,15615,1,2
152,336,16077,1,0
196,200,16538,1,0
314,287,17000,6,4,B|400:256|424:192|400:128|312:96,1,270,2|2
144,80,18385,1,2
368,272,18846,1,0
144,272,19308,1,0
256,192,19769,6,0,B|320:128,2,90,2|0|0
256,192,20461,2,0,B|192:256,2,90,2|0|0
320,192,21154,1,2
440,192,21615,1,0
440,40,22077,1,2
256,40,22538,6,0,B|184:104,1,90,2|0
188,100,23000,1,0
200,152,23231,2,0,B|272:216,1,90,2|0
268,212,23693,1,0
256,264,23923,2,0,B|184:328,1,90,2|0
188,324,24385,1,0
72,192,24846,1,4
168,64,25308,6,0,B|232:136|232:136,2,90,6|0|0
114,117,26000,2,0,B|176:184|176:184,2,90,2|0|0
59,172,26692,2,0,B|126:242|126:242,2,90,2|0|0
120,304,27615,1,0
296,248,28077,6,0,B|392:248,1,90,4|0
386,248,28538,1,0
368,160,28769,2,0,B|464:160,1,90,2|0
458,160,29231,1,0
456,48,29461,1,2
176,48,29923,1,0
176,320,30385,1,0
256,192,30846,6,0,B|320:128,2,90,4|0|0
216,152,31538,2,0,B|152:88,2,90,2|0|0
176,192,32231,2,0,B|112:256,2,90,2|0|2
344,112,33154,1,0
208,248,33615,5,2
240,264,33846,1,0
280,264,34077,1,0
320,256,34308,1,2
352,224,34538,2,4,B|376:112|232:48|160:128,1,270
152,288,35923,1,0
288,128,36385,5,2
248,104,36616,1,0
200,104,36847,1,0
160,128,37078,1,2
144,168,37308,2,4,B|136:280|228:339|328:272,1,270
360,256,38231,1,0
384,216,38461,1,0
392,176,38692,1,0
368,136,38923,1,0
336,104,39154,6,0,B|288:48|208:80|192:136,1,180,2|0
176,184,39846,2,0,B|152:248|200:320|264:312,1,180,0|0
304,312,40538,2,0,B|372:314|424:256|392:176,1,180,2|0
360,80,41461,1,0
176,80,41923,1,2
128,192,42385,5,0
128,192,42500,1,0
128,192,42615,1,2
376,192,43077,5,0
376,192,43192,1,0
376,192,43307,1,2
128,192,43769,5,0
128,192,43885,1,0
128,192,43999,1,0
176,240,44231,1,0
232,280,44461,1,0
296,304,44692,6,0,B|296:120|296:120,1,180,4|0
296,48,45385,2,0,B|200:48,2,90
360,48,46077,1,2
408,192,46538,1,0
256,296,47000,1,0
96,192,47461,1,0
160,72,47923,5,0
160,72,48038,1,0
160,72,48154,2,0,B|256:24|344:72|344:72,1,180,0|0
336,128,48846,1,2
336,264,49308,1,0
336,264,49423,1,0
336,264,49538,2,0,B|240:312|152:264|152:264,1,180,0|0
152,144,50231,5,4
192,104,50461,1,0
240,120,50692,1,0
256,168,50923,1,2
224,208,51153,1,0
176,192,51384,1,0
136,172,51615,2,0,B|88:220|96:284|168:316,1,180,2|0
300,312,52538,1,0
392,192,53000,1,4
168,192,53461,5,0
168,192,53577,1,0
168,192,53692,1,0
224,144,53923,2,0,B|296:80|296:80,2,90,2|0|2
176,288,54846,1,0
176,288,54962,1,0
176,288,55077,1,0
232,240,55308,2,2,B|304:176|304:176,2,90,4|0|4
176,208,56000,5,0
176,152,56231,1,0
208,112,56462,1,0
256,112,56692,1,0
288,152,56923,1,0
288,208,57154,1,2
400,288,57615,1,4
112,288,58077,1,4
400,288,58538,2,4,B|400:88|256:32|112:88|112:288,1,540,4|0
256,176,64077,6,0,B|352:176,2,90,2|0|0
256,232,64769,2,0,B|256:328|256:328,2,90,2|0|0
160,160,65461,2,0,B|96:96,1,90,2|0
160,160,65923,2,0,B|96:224,1,90,0|0
160,160,66385,2,0,B|224:224,1,90,0|0
312,304,66846,6,0,B|312:208|312:208,2,90,2|0|0
208,248,67538,2,0,B|112:248|112:248,2,90,2|0|0
296,152,68231,2,0,B|336:136|344:96|304:64,1,90,2|0
216,152,68692,2,0,B|176:136|168:96|208:64,1,90,2|0
256,192,69154,2,0,B|256:296,1,90,0|0
128,176,69615,6,0,B|200:144|232:200,1,90,4|0
256,192,70077,1,0
312,208,70308,2,0,B|384:240|408:192,1,90,2|0
440,184,70769,1,0
432,136,71000,2,0,B|400:24|280:56,1,180,2|0
256,168,71923,1,0
160,48,72385,6,0,B|112:72|112:128,1,90,2|0
112,168,72847,1,0
112,216,73077,2,0,B|107:274|167:285,1,90,2|0
200,304,73539,1,0
344,304,73769,1,2
264,208,74231,1,0
184,112,74692,1,0
184,112,75154,5,4
240,128,75385,1,0
296,144,75615,1,0
339,184,75846,1,2
296,224,76077,1,0
240,232,76307,1,0
184,240,76538,2,0,B|184:144,1,90,2|0
264,152,77000,2,0,B|264:248,1,90
344,240,77461,2,0,B|344:144,1,90
288,104,77923,5,2
208,104,78154,1,0
288,104,78385,1,0
208,104,78615,1,2
120,108,78846,2,4,B|160:196|48:188|128:284,1,180,4|0
144,312,79538,2,0,B|256:320|320:224|296:104,1,270,4|0
300,136,80461,1,0
300,136,80692,6,0,B|292:60|380:-4|460:60|456:140,1,270,2|0
380,140,81615,2,0,B|380:224|380:224|312:292,1,180,4|0
312,292,82308,2,0,B|216:292|216:292,3,90,4|0|0|0
220,248,83231,1,0
136,168,83461,6,0,B|136:72|136:72,2,90,2|0|0
136,216,84154,2,0,B|136:312|136:312,2,90,2|0|0
136,168,84846,1,2
256,72,85308,1,0
256,312,85769,1,0
384,192,86231,5,2
384,192,86346,1,0
384,192,86461,2,0,B|344:216|296:192,1,90,0|0
224,184,86923,1,2
224,184,87038,1,0
224,184,87153,2,0,B|184:160|136:184,1,90,0|0
224,56,87615,1,2
224,184,88077,1,0
224,56,88538,1,0
96,120,89000,6,0,B|192:120,1,90,4|0
96,120,89461,1,0
176,168,89692,2,0,B|272:168,1,90,2|0
176,168,90154,1,0
256,216,90385,2,0,B|352:216,1,90,2|0
256,216,90846,1,0
424,216,91308,1,0
294,242,91769,6,0,B|277:276|221:273|210:220,1,90,4|0
256,192,92231,1,0
218,142,92461,2,0,B|235:108|291:111|302:164,1,90,2|0
292,140,92923,1,0
256,192,93154,1,2
136,280,93615,1,0
376,104,94077,1,0
352,256,94538,5,4
320,224,94769,1,0
288,192,95000,1,0
160,256,95231,1,2
192,224,95462,1,0
224,192,95693,1,0
216,148,95923,2,0,B|188:100|256:48|324:100|296:148,1,180
256,288,96846,1,0
256,96,97308,5,2
224,64,97538,1,0
192,96,97769,1,0
96,176,98231,6,0,B|62:255|84:323|154:354|235:301,1,270,4|4
368,104,99385,1,0
328,72,99615,1,0
96,216,100077,1,2
136,248,100308,1,0
184,264,100538,1,2
456,192,101000,6,0,B|489:112|467:44|398:14|317:67,1,270,4|4
280,88,101923,1,2
240,64,102154,1,0
200,88,102385,1,0
160,64,102615,1,0
112,144,102846,5,2
384,256,103308,1,0
384,256,103423,1,0
384,256,103538,1,2
112,144,104000,5,0
112,144,104115,1,0
112,144,104231,1,2
112,288,104692,1,0
392,88,105154,1,0
256,192,105615,1,4
112,152,106077,5,0
152,184,106308,1,0
200,200,106538,1,0
248,184,106769,1,0
280,144,107000,1,2
280,96,107231,1,0
280,144,107461,1,0
312,184,107692,1,2
320,232,107923,1,0
288,272,108154,1,0
240,272,108385,1,4
88,104,108846,6,0,B|89:52|160:64,1,90,0|2
368,64,109538,2,0,B|432:56|434:107,1,90,0|2
256,278,110231,1,2
256,278,110346,1,0
256,278,110461,1,0
200,280,110692,2,0,B|200:232|256:188|312:232|312:280,1,180,2|0
192,136,111615,5,2
192,136,111731,1,0
192,136,111846,2,0,B|216:64|296:64|320:136,1,180,0|0
384,136,112538,1,4
320,248,113000,1,2
320,248,113116,1,0
320,248,113231,2,0,B|296:320|216:320|192:248,1,180,0|0
120,200,113923,5,4
160,160,114154,1,0
216,160,114385,1,0
256,120,114615,1,2
216,160,114846,1,0
160,160,115077,1,0
120,120,115308,1,2
304,64,115769,1,2
400,288,116231,1,0
128,288,116692,1,4
120,112,117154,5,2
136,128,117269,1,0
152,144,117385,1,0
192,104,117615,1,0
152,64,117846,1,0
192,104,118077,1,2
392,272,118538,5,2
376,256,118653,1,0
360,240,118769,1,0
320,280,118999,1,2
360,320,119230,1,0
320,280,119461,1,2
144,160,119923,6,0,C|144:224,2,45,2|0|0
256,112,120385,1,0
368,160,120615,2,0,C|368:216,2,45,2|0|0
256,208,121077,1,0
144,160,121308,1,2
200,160,121538,1,0
256,160,121769,2,0,B|328:160,3,45
300,160,122231,1,4
