osu file format v5

[General]
AudioFilename: Rammstein - Final fantasy X.mp3
AudioLeadIn: 0
PreviewTime: -1
Countdown: 1
SampleSet: Normal
StackLeniency: 0.7
Mode: 0
LetterboxInBreaks: 1

[Metadata]
Title:Other World Final Fantasy X
Artist:Nobuo Uematsu
Creator:pepe159
Version:Insane
Source:
Tags:

[Difficulty]
HPDrainRate:6
CircleSize:6
OverallDifficulty:7
SliderMultiplier:2.2
SliderTickRate:2

[Events]
//Background and Video events
//Break Periods
2,23728,28326
2,72271,84920
2,130536,143146
//Storyboard Layer 0 (Background)
//Storyboard Layer 1 (Failing)
//Storyboard Layer 2 (Passing)
//Storyboard Layer 3 (Foreground)
//Storyboard Sound Samples
//Background Colour Transformations
3,100,163,162,255

[TimingPoints]
120,427.046263345196,4,1,0,100,1
13765,433.996383363472,4,1,0,100,1
24180,422.535211267606,4,1,0,100,1
29226,428.418421992146,4,1,0,100,1
42832,428.418421992146,4,2,0,100,0
42939,428.418421992146,4,2,0,100,0
56220,428.418421992146,4,1,0,100,0

[HitObjects]
224,96,1828,1,0
320,96,2041,1,0
160,256,2628,2,4,C|448:32,1,357.5
448,96,3536,5,0
352,96,3749,1,0
96,32,4390,2,4,C|480:256,1,440
448,64,5671,1,2
256,64,6098,1,2
320,96,6312,5,0
288,96,6418,1,0
256,96,6525,1,0
224,96,6579,1,0
192,96,6685,1,0
96,96,6952,1,4
128,160,7166,1,4
352,32,7806,2,0,B|128:288,1,330
224,320,8660,5,2
288,256,8874,1,2
160,32,9515,2,0,B|480:192,1,330
448,160,10369,1,4
352,160,10582,1,4
224,160,10902,5,0
256,160,11009,1,0
288,160,11116,1,0
320,160,11223,1,0
352,160,11329,2,8,C|64:160,1,275
256,192,12077,12,0,13358
64,32,13785,5,0
128,32,13981,1,0
128,128,14198,2,6,C|256:128,1,110
320,128,14632,1,0
224,128,14849,1,0
288,192,15066,2,6,C|160:192,1,110
96,192,15500,1,0
192,192,15717,1,0
288,192,15934,6,6,C|288:64,3,110
448,96,17019,1,0
448,256,17453,1,0
352,256,17670,1,0
352,160,17887,2,6,C|416:256,1,110
416,160,18321,5,0
320,160,18538,1,0
416,160,18755,2,6,C|416:32,1,110
320,64,19189,1,0
320,160,19406,1,0
320,256,19623,2,6,C|320:128,3,110
128,96,20708,5,0
224,96,20925,1,0
224,192,21142,2,6,C|96:192,1,110
192,256,21576,1,0
192,352,21793,1,0
96,352,22010,2,6,C|96:224,1,110
96,160,22444,1,0
192,160,22661,1,0
288,160,22878,2,6,C|416:160,3,110
352,96,29226,5,8
352,256,29654,1,0
288,192,29868,1,0
224,256,30082,1,8
256,160,30511,1,0
352,128,30725,1,0
448,160,30939,2,4,C|224:64,1,220
64,64,31796,5,8
160,64,32010,1,8
320,64,32439,1,2
352,224,32867,1,0
384,128,33081,1,0
288,128,33295,1,0
384,128,33510,1,8
224,224,33938,1,0
224,128,34152,1,0
32,128,34581,1,8
128,128,34848,5,0
288,128,35223,2,0,B|192:128,1,82.5
192,128,36080,1,0
96,128,36294,1,0
192,128,36509,1,2
288,128,36723,1,0
352,128,36883,1,0
448,128,37151,1,0
352,128,37365,1,2
256,128,37580,1,0
320,192,37794,2,0,B|96:192,1,220
96,192,38651,1,0
96,192,38865,1,2
256,192,39293,5,0
416,192,39722,1,0
416,96,39936,1,0
416,192,40150,1,0
416,288,40364,1,8
224,288,40793,1,0
128,288,41007,1,0
128,192,41221,1,0
128,96,41435,1,8
224,96,41650,5,4
384,96,42078,2,4,C|384:320,1,220
288,160,42935,2,0,C|192:32|480:32,1,440
320,160,43899,1,8
320,128,44006,1,8
288,96,44113,1,8
256,96,44220,1,8
224,128,44327,1,8
192,160,44434,1,8
160,160,44541,1,8
128,160,44649,5,4
256,160,44970,2,0,C|128:160,1,110
352,160,45720,1,2
352,96,46255,1,0
256,96,46469,1,0
352,96,46684,1,0
160,96,47112,1,4
480,32,47969,5,0
480,192,48397,1,0
288,192,48826,1,0
192,192,49040,1,4
288,192,49254,1,0
288,224,49790,1,0
160,224,50111,1,0
288,224,50539,1,0
288,64,51503,5,0
288,192,51825,1,0
64,192,52360,1,0
160,192,52574,1,4
416,160,53217,1,0
224,160,53645,1,0
384,160,54074,1,4
480,352,54931,5,0
288,352,55359,1,0
96,352,55787,1,4
160,96,56644,1,2
256,128,56858,1,2
192,192,57073,1,2
288,224,57287,1,2
224,288,57501,1,2
320,320,57715,1,2
416,192,58358,5,0
224,192,58786,1,4
384,192,59215,1,0
192,192,59643,1,4
192,32,60072,1,0
192,192,60500,1,4
320,256,60875,1,2
320,192,61036,1,2
320,128,61571,1,2
128,128,62000,5,0
224,128,62214,2,0,C|224:256,1,110
224,160,62642,1,4
96,288,63071,1,0
192,288,63285,1,0
192,96,63713,1,2
288,128,63927,5,4
448,32,64356,1,4
384,96,64570,1,4
160,224,65213,5,0
256,224,65427,1,0
352,224,65641,1,4
256,128,65962,1,0
128,128,66284,1,0
192,64,66498,1,4
192,224,66926,1,0
128,64,67355,1,0
288,64,67783,2,4,C|160:64,1,110
320,288,68426,5,4
128,288,68854,1,0
128,192,69068,1,0
192,224,69283,1,0
256,160,69497,1,4
64,160,69925,1,0
128,128,70139,1,0
320,128,70621,1,4
384,128,70782,5,0
384,288,71211,1,0
384,288,71425,2,0,C|448:256|384:224|448:192|352:128,1,330
128,128,85027,5,8
160,128,85134,1,8
192,128,85241,1,8
160,128,85348,1,8
128,128,85455,1,8
256,96,85777,5,0
32,224,86419,1,0
96,256,86634,1,0
96,160,86848,1,4
320,192,87383,1,2
416,288,87705,1,0
384,192,87919,1,0
320,256,88133,1,4
352,224,89097,1,0
256,192,89311,1,0
224,192,89954,5,0
320,192,90168,1,0
128,192,90436,2,4,C|288:192,1,137.5
288,192,91025,1,0
384,192,91239,1,0
288,96,91560,1,2
192,192,91882,1,2
64,64,92792,5,0
128,64,92953,1,0
320,160,93488,1,0
288,192,93595,1,0
224,64,93917,1,4
352,64,94238,1,0
352,192,94559,1,0
256,96,94881,1,0
128,160,95202,1,2
192,160,95363,1,2
416,32,95952,5,0
416,160,96273,1,0
160,160,96916,1,0
224,192,97130,1,0
192,256,97344,1,4
352,96,97880,1,0
416,128,98094,1,0
448,288,98522,1,4
128,64,99486,5,4
448,64,100236,1,4
128,224,101200,1,4
480,192,102057,1,4
160,32,102913,1,4
352,320,103770,1,4
64,128,104627,1,4
448,224,105484,1,4
192,96,106341,1,4
288,96,106555,1,2
288,192,106769,1,4
384,192,106983,5,4
384,96,107198,1,2
288,96,107412,1,4
288,192,107626,1,4
192,192,107840,1,2
288,192,108054,1,4
288,96,108269,1,4
384,96,108483,1,2
384,192,108697,1,4
384,288,108911,5,4
384,192,109126,1,2
384,96,109340,1,4
288,96,109554,1,4
288,192,109768,1,2
288,288,109982,1,4
192,288,110197,5,4
288,288,110411,1,2
288,192,110625,1,4
288,96,110839,1,4
384,96,111053,1,2
384,192,111268,1,4
480,192,111482,5,4
384,192,111696,1,2
384,96,111910,1,4
288,96,112124,1,4
288,192,112339,1,2
288,192,113142,5,0
96,192,113624,1,0
256,192,114052,1,0
416,192,114481,1,0
288,96,114856,1,0
384,96,115123,1,8
384,128,115230,1,8
352,160,115338,1,8
224,224,115712,5,0
224,160,116409,1,0
320,160,117158,1,0
64,256,117801,1,8
192,192,118551,5,0
448,192,119193,1,0
288,160,119622,1,0
96,160,120050,1,8
352,256,120693,1,8
96,256,121335,1,8
320,128,121978,5,0
64,32,122621,1,0
192,64,122996,1,0
128,224,123370,5,8
416,96,124120,1,8
160,192,124763,1,8
416,192,125405,5,0
224,96,125941,1,0
384,224,126423,1,0
192,224,126905,1,8
416,96,127548,1,8
256,320,128190,1,8
352,320,128833,1,0
192,160,129368,1,0
384,160,129850,1,0
192,160,130332,1,0
480,192,144042,5,4
128,192,144845,1,4
480,192,145755,1,0
288,192,146184,1,0
96,192,146612,1,2
192,192,146826,1,2
32,192,147683,5,0
128,192,147897,1,0
224,192,148112,1,0
224,192,148326,1,2
384,192,148754,1,0
384,192,148968,1,2
192,192,149397,1,2
192,96,149611,5,0
352,96,150039,1,0
448,96,150254,1,0
480,192,150789,1,0
384,192,151057,1,0
480,192,151271,1,8
224,192,151753,5,0
288,192,151967,1,0
192,192,152182,1,8
352,192,152610,1,0
160,192,153038,1,0
352,192,153467,1,0
352,288,153681,1,8
160,288,154109,5,0
160,96,154538,1,0
256,96,154752,1,0
352,96,154966,1,0
256,96,155181,1,8
416,96,155609,1,12
416,192,155823,1,12
416,352,156252,1,0
352,352,156412,5,10
160,352,156894,1,10
160,320,157108,1,10
64,128,157644,1,0
256,32,158179,5,0
384,128,158608,1,2
288,288,159036,1,0
384,128,159465,1,2
224,32,159893,1,2
96,160,160322,1,2
192,160,160536,1,2
352,160,160964,1,0
256,288,161393,5,0
320,224,161607,1,0
256,160,161821,1,0
320,96,162035,1,2
128,96,162464,1,2
192,160,162678,1,2
320,288,163106,1,2
416,256,163320,5,8
416,64,163749,1,8
352,128,163963,1,8
96,128,164606,1,4
192,64,165034,1,0
64,192,165463,1,4
192,288,165891,1,0
320,192,166319,1,4
192,64,166748,1,4
352,64,167176,1,4
416,96,167390,1,4
384,256,167819,5,2
160,224,168354,1,0
224,224,168515,1,0
288,160,168729,1,0
224,96,168943,1,2
384,64,169318,1,2
384,160,169533,1,2
160,160,169961,1,2
256,160,170175,1,4
320,320,170604,1,4
224,320,170818,1,4
