osu file format v5

[General]
AudioFilename: 16-OneWingedAngel.mp3
AudioLeadIn: 2000
PreviewTime: 68222
Countdown: 1
SampleSet: Normal
StackLeniency: 0.7
Mode: 0
LetterboxInBreaks: 0
EditorBookmarks: 27540,60388,68846,100793,117265,144969,184528,217224
EditorDistanceSpacing: 0.800000011920929

[Metadata]
Title:One Winged Angel
Artist:Nobuo Uematsu
Creator:kingcobra52
Version:Normal
Source:Final Fantasy VII
Tags:sephiroth ffvii ff7

[Difficulty]
HPDrainRate:6
CircleSize:5
OverallDifficulty:6
SliderMultiplier:1.8
SliderTickRate:2

[Events]
//Background and Video events
0,0,"Sephiroth.jpg"
Video,0,"Sephiroth_One_Winged_Angel.avi"
//Break Periods
2,24273,27017
2,49482,60212
2,129847,144571
2,173525,184005
//Storyboard Layer 0 (Background)
//Storyboard Layer 1 (Fail)
//Storyboard Layer 2 (Pass)
//Storyboard Layer 3 (Foreground)
//Storyboard Sound Samples
//Background Colour Transformations
3,100,163,162,255

[TimingPoints]
114,499.168053244592,4,1,0,70,1,0
49282,499.168053244592,4,1,0,70,1,0
68874,-100,4,2,0,69,0,0
76861,-100,4,1,0,71,0,0
77984,-100,4,2,0,70,0,0
80979,-100,4,1,0,70,0,0
82102,-100,4,2,0,71,0,0
84847,-100,4,2,0,70,0,0
92834,-100,4,1,0,71,0,0
94331,-100,4,2,0,70,0,0
97077,-100,4,1,0,70,0,0
98325,-100,4,2,0,72,0,0
124781,-100,4,1,0,70,0,0
125904,-100,4,2,0,70,0,0
129024,-100,4,1,0,71,0,0
201153,-100,4,2,0,70,0,0
233100,-100,4,1,0,70,0,0

[Colours]
Combo1 : 58,58,58
Combo2 : 232,101,4
Combo3 : 168,159,160
Combo4 : 149,2,2

[HitObjects]
48,64,114,1,0
192,64,613,1,4
336,64,1112,1,0
480,64,1611,1,4
480,208,2110,1,0
336,208,2609,1,4
192,208,3109,1,0
48,208,3608,1,4
256,192,4107,12,4,8100
40,192,8599,5,0
120,72,9099,1,4
256,16,9598,1,0
400,40,10097,1,4
480,160,10596,1,0
456,304,11095,1,4
328,376,11594,1,0
184,376,12094,6,0,B|16:272,1,180,0|4
24,208,12842,1,0
24,136,13092,2,0,B|184:32,1,180,0|4
248,32,13841,1,0
319,32,14090,2,0,B|464:72|488:256|360:312,1,360
296,304,15338,1,0
240,256,15588,1,4
168,280,15837,1,0
104,248,16087,5,0
32,120,16586,1,4
136,16,17085,1,0
200,144,17584,1,4
272,144,17834,6,0,B|384:144,1,90
432,144,18333,1,0
432,288,18832,2,0,B|296:328|176:224,1,270
120,184,19831,1,0
144,120,20080,1,4
200,72,20330,1,0
272,56,20579,1,4
272,200,21079,2,4,B|488:200,2,180
272,272,22326,6,0,B|272:376,1,90
192,360,22826,2,0,B|192:264,1,90
120,272,23325,2,2,B|72:248|88:192,1,90
120,136,23824,2,2,B|144:88|200:104,1,90,2|2
80,56,28067,5,0
224,56,28566,2,0,B|296:56,3,60
288,200,29564,2,0,B|216:200,3,60
232,344,30563,2,4,B|304:344,3,60
400,248,31561,5,2
400,248,31727,1,2
400,248,31894,1,2
400,248,32060,1,2
400,104,32559,1,2
400,104,32726,1,2
400,104,32892,1,2
400,104,33059,1,2
256,104,33558,5,2
256,104,33724,1,2
256,104,33891,1,2
256,104,34057,1,2
256,248,34556,1,2
256,248,34722,1,2
256,248,34889,1,2
256,248,35055,1,2
112,240,35554,5,0
112,192,35721,1,0
112,144,35887,1,0
112,96,36054,5,4
112,24,36303,2,0,B|40:24,2,45
256,24,37052,1,0
400,24,37551,1,4
448,80,37801,5,0
400,136,38050,1,0
344,184,38300,1,0
400,224,38549,2,4,B|496:288,1,90
424,328,39049,1,0
352,328,39298,1,0
280,328,39548,1,4
208,328,39797,1,0
136,328,40047,6,4,B|32:200|144:64,1,270
176,24,41045,1,0
224,80,41295,1,0
272,24,41544,1,4
320,80,41794,2,4,B|480:56|560:168|496:296|320:280,1,450
248,280,43292,1,0
192,232,43541,1,0
136,280,43791,2,2,B|40:280,3,90
48,352,44789,2,2,B|144:352,1,90
256,192,45288,12,4,49282
256,192,61262,12,4,68250
88,200,69248,6,0,B|40:96|160:48,1,180
288,48,70247,1,0
360,48,70496,1,0
432,48,70746,1,0
360,168,71245,6,4,B|432:232,1,90
480,272,71744,1,4
376,376,72243,2,4,B|296:296,1,90
264,256,72742,1,4
176,136,73242,6,0,B|120:56|0:120,1,180
64,248,74240,1,0
96,312,74489,1,0
160,336,74739,1,0
304,320,75238,6,4,B|384:264,1,90
432,224,75737,1,4
312,144,76237,2,4,B|392:88,1,90
440,48,76736,1,4
256,120,77235,5,0
256,192,77484,1,0
256,264,77734,1,4
256,192,78233,12,4,80729
256,264,81228,5,0
256,192,81477,1,0
256,120,81727,1,4
256,192,82227,12,4,84722
88,184,85222,6,0,B|40:288|160:336,1,180
288,336,86221,1,0
360,336,86470,1,0
432,336,86720,1,0
360,216,87219,6,4,B|432:152,1,90
480,112,87718,1,4
376,8,88217,2,4,B|309:68,1,90,4|4
256,112,88716,1,4
176,248,89216,6,0,B|120:328|0:264,1,180
64,136,90214,1,0
96,72,90463,1,0
160,48,90713,1,0
304,64,91212,6,4,B|384:120,1,90
440,152,91711,1,4
320,232,92210,2,4,B|400:288,1,90
456,320,92710,1,4
184,192,93209,5,0
256,192,93458,1,0
328,192,93708,1,4
72,48,94706,6,0,B|160:8|248:48,1,180,0|0
392,56,95704,1,0
448,96,95954,1,0
472,160,96203,2,0,B|464:256|344:288,1,180
328,192,97202,5,0
256,192,97451,1,0
184,192,97701,1,4
72,336,98699,6,0,B|160:376|248:336,1,180
392,328,99697,1,0
448,288,99947,1,0
472,224,100196,2,0,B|464:128|344:96,1,180
64,304,101195,5,0
176,216,101694,1,0
296,136,102193,2,4,B|360:208,1,90
400,256,102692,1,4
488,144,103192,2,2,B|496:48|376:8,1,180
312,8,103940,1,0
240,8,104190,2,2,B|136:0|112:120,1,180
96,176,104939,1,0
112,248,105188,5,2
232,336,105687,1,0
360,264,106187,1,0
416,224,106436,2,4,B|488:160,1,90
400,40,107185,2,2,B|392:136|288:168,1,180
216,168,107934,1,0
216,240,108183,2,2,B|112:248|64:136,1,180
80,80,108932,1,0
136,40,109182,5,2
136,184,109681,1,0
136,328,110180,1,4
208,328,110430,1,0
280,328,110679,1,4
384,224,111178,2,0,B|496:224,1,90
432,160,111678,2,0,B|336:160,1,90
304,96,112177,2,2,B|400:96,1,90
352,32,112676,2,2,B|248:32,1,90
192,32,113175,5,2
72,112,113674,1,0
192,184,114173,1,4
192,184,114423,1,0
192,184,114673,1,4
256,192,115172,12,4,117168
256,192,117668,5,0
200,56,118167,1,0
256,8,118416,1,0
312,56,118666,1,0
344,192,119165,6,4,L|376:152|424:168,1,90
480,192,119664,1,4
344,240,120163,2,4,L|312:280|264:264,1,90
208,240,120662,1,4
256,104,121162,6,0,B|72:104,1,180
80,248,122160,1,0
152,248,122409,1,0
224,248,122659,1,0
336,336,123158,6,4,B|336:240,1,90
336,176,123657,1,4
400,48,124157,2,4,B|400:152,1,90
400,208,124656,1,4
256,192,125155,5,0
216,256,125404,1,0
296,256,125654,1,4
344,120,126153,6,0,B|440:120,1,90,0|4
400,56,126653,2,0,B|280:56,1,90,0|4
240,56,127152,2,0,B|176:136,1,90,0|4
112,112,127651,2,0,B|176:32,1,90,0|4
96,24,128150,2,0,B|32:104,1,90,0|4
40,168,128649,2,0,B|80:200|136:192,1,90,0|4
256,192,129148,5,0
296,128,129398,1,0
216,128,129647,1,4
72,80,145621,6,0,B|112:40|152:80,1,90
200,128,146120,2,0,B|240:168|280:128,1,90,0|0
336,88,146619,1,0
392,40,146869,1,0
464,48,147118,1,4
503,104,147368,2,4,B|504:184|416:208|392:152|320:192|344:280,1,270
288,320,148366,1,0
216,320,148616,2,0,L|216:216,1,90
216,230,149115,1,0
96,152,149614,6,2,B|152:80,1,90
224,80,150113,2,2,L|280:160,1,90
344,152,150613,2,0,L|424:64,1,90
404,85,151112,1,0
456,216,151611,5,2
432,280,151861,1,2
368,320,152110,1,2
288,248,152484,1,2
208,320,152859,1,2
144,280,153108,2,2,B|0:208|72:40,1,270
136,24,154107,2,2,B|192:-24|272:0,1,135
360,48,154856,1,2
416,88,155105,2,2,B|464:128|416:232|336:200,3,180
256,312,157102,5,4
184,312,157351,1,0
112,312,157601,1,0
40,312,157851,1,0
40,240,158100,2,4,B|232:240,1,180,4|4
288,240,158849,1,0
360,240,159098,5,4
328,176,159348,1,0
256,176,159598,1,0
288,112,159847,1,0
360,112,160097,2,2,B|416:32,1,90
472,72,160596,2,2,B|408:160,1,90
440,216,161095,5,4
400,280,161345,1,0
336,320,161594,1,0
264,336,161844,1,0
192,328,162093,2,4,B|88:320|64:216,1,180
56,144,162842,1,0
96,80,163092,6,4,B|192:40,1,90
216,104,163591,2,0,B|320:56,1,90
368,64,164090,2,2,B|440:64,4,45
368,136,164839,1,2
368,208,165088,6,4,B|280:280,1,90
232,296,165588,2,0,B|144:248,1,90
88,216,166087,2,4,B|32:184,2,45
136,160,166586,1,0
184,104,166836,1,0
224,48,167085,6,4,B|256:0,2,45
264,104,167584,1,0
336,104,167834,1,4
408,104,168083,2,2,B|512:104,1,90
496,176,168583,2,2,B|400:176,1,90
256,192,169082,12,4,172576
216,192,173075,5,4
296,192,173325,1,4
56,72,185055,5,0
96,128,185305,2,0,B|160:200,1,90
224,200,185804,5,0
296,200,186054,2,0,B|368:280,1,90
424,256,186553,5,0
424,184,186802,2,0,B|344:104,1,90
304,72,187301,5,0
232,72,187551,2,0,B|128:72,1,90
144,144,188050,5,4
216,144,188300,2,0,B|328:144,1,90
304,216,188799,5,4
232,216,189049,2,0,B|136:216,1,90
104,280,189548,6,0,B|112:336|176:344,1,90
232,336,190047,1,0
280,280,190296,1,0
320,336,190546,1,0
368,280,190796,1,0
416,335,191045,2,0,B|488:264|408:168,1,180
256,192,191794,12,4,193541
256,192,194040,5,4
256,336,194539,1,4
320,264,194872,1,4
384,336,195205,1,4
448,264,195538,2,4,B|512:184|456:80,1,180
392,96,196286,1,0
320,96,196536,2,0,B|320:48|264:24,1,90
200,40,197035,2,2,B|136:64,2,45
232,104,197534,5,4
120,192,198034,1,4
232,280,198533,1,4
272,192,198866,1,4
368,192,199198,1,4
320,272,199531,2,4,L|368:344|440:272,1,180
480,224,200280,1,0
480,152,200529,2,2,B|480:96,4,45
336,152,201528,6,0,L|336:48,5,90
336,62,203025,1,0
192,64,203524,2,0,L|192:184,5,90
192,154,205022,1,0
192,296,205521,5,0
264,296,205771,1,0
336,296,206020,1,0
264,296,206270,1,0
192,296,206519,1,0
264,296,206769,1,2
336,296,207019,1,2
336,152,207518,5,0
264,152,207767,1,0
192,152,208017,1,0
264,152,208267,1,0
336,152,208516,1,0
264,152,208766,1,2
192,152,209015,1,2
136,288,209514,6,0,B|168:240|224:272,3,90
279,296,210513,2,0,B|326:323|358:275,2,90
280,152,211511,6,0,B|248:104|192:136,3,90
144,176,212509,2,0,B|98:203|66:155,2,90
64,296,213508,6,0,B|160:296,1,90
224,296,214007,1,0
296,296,214257,2,0,B|296:248,2,45
368,296,214756,1,2
440,296,215005,1,2
440,152,215504,6,0,B|320:152,1,90
280,152,216004,1,0
208,152,216253,2,0,B|208:104,2,45
136,152,216752,1,2
64,152,217002,1,2
160,255,217501,6,0,B|56:256|24:368,1,180
8,215,218499,2,0,B|109:244|109:348,1,180
239,280,219498,2,0,B|239:176|127:144,1,180
279,151,220496,2,0,B|251:252|146:252,1,180
272,328,221494,6,0,B|464:328,1,180
456,256,222243,1,0
456,184,222493,2,0,B|264:184,1,180
272,112,223242,1,0
272,40,223491,2,2,B|464:40,1,180
448,112,224240,1,0
448,184,224489,2,2,B|256:184,1,180
152,264,225488,5,0
104,208,225737,1,0
152,152,225987,1,2
200,208,226237,1,0
152,264,226486,1,0
200,320,226736,1,2
248,264,226985,1,2
376,320,227484,5,0
328,264,227734,1,0
376,216,227984,1,2
424,264,228233,1,0
376,320,228483,1,0
424,376,228732,1,2
472,320,228982,1,2
256,192,229481,12,4,232975
256,160,233475,5,4
216,224,233724,1,4
296,224,233974,1,4
