osu file format v6

[General]
AudioFilename: 16-OneWingedAngel.mp3
AudioLeadIn: 2000
PreviewTime: 68222
Countdown: 1
SampleSet: Normal
StackLeniency: 0.7
Mode: 0
LetterboxInBreaks: 0

[Editor]
Bookmarks: 27540,60638,68846,100793,117265,144969,184528,217224
DistanceSpacing: 0.800000011920929
BeatDivisor: 6
GridSize: 8

[Metadata]
Title:One Winged Angel
Artist:Nobuo Uematsu
Creator:kingcobra52
Version:Hard
Source:Final Fantasy VII
Tags:sephiroth ffvii ff7

[Difficulty]
HPDrainRate:6
CircleSize:5
OverallDifficulty:7
SliderMultiplier:2.4
SliderTickRate:2

[Events]
//Background and Video events
0,0,"sh.jpg"
Video,0,"Sephiroth_One_Winged_Angel.avi"
//Break Periods
2,24273,27167
2,49482,60362
2,129847,144721
2,173525,184155
//Storyboard Layer 0 (Background)
//Storyboard Layer 1 (Fail)
//Storyboard Layer 2 (Pass)
//Storyboard Layer 3 (Foreground)
//Storyboard Sound Samples
//Background Colour Transformations
3,100,163,162,255

[TimingPoints]
114,499.168053244592,4,1,0,70,1,0
49282,499.168053244592,4,1,0,70,1,0
68874,-100,4,2,0,69,0,0
76861,-100,4,1,0,71,0,0
77984,-100,4,2,0,70,0,0
80979,-100,4,1,0,70,0,0
82102,-100,4,2,0,71,0,0
84847,-100,4,2,0,70,0,0
92834,-100,4,1,0,71,0,0
94331,-100,4,2,0,70,0,0
97077,-100,4,1,0,70,0,0
98325,-100,4,2,0,72,0,0
124781,-100,4,1,0,70,0,0
125904,-100,4,2,0,70,0,0
129024,-100,4,1,0,71,0,0
201153,-100,4,2,0,70,0,0
233100,-100,4,1,0,70,0,0

[Colours]
Combo1 : 63,63,63
Combo2 : 232,101,4
Combo3 : 168,159,160
Combo4 : 149,2,2

[HitObjects]
256,192,114,1,0
64,192,613,1,4
256,192,1112,1,0
256,0,1611,1,4
256,192,2110,1,0
448,192,2609,1,4
256,192,3109,1,0
256,376,3608,1,4
256,208,4107,12,4,8100
40,192,8599,5,0
144,32,9099,1,4
336,8,9598,1,0
480,136,10097,1,4
456,328,10596,1,0
272,376,11095,1,4
88,328,11594,1,0
32,144,12094,6,0,B|136:56,1,120
216,64,12593,1,4
256,32,12717,1,0
288,64,12842,1,0
296,160,13092,2,0,B|192:248,1,120,0|0
208,336,13591,1,4
248,368,13716,1,0
288,336,13841,1,0
484,261,14090,6,0,B|445:308|368:296,1,120,0|0
288,248,14589,1,0
320,216,14714,1,0
336,168,14839,1,0
288,80,15089,2,0,B|224:32,1,60
232,88,15338,2,0,B|168:40,1,60
176,96,15588,2,0,B|112:48,1,60
128,104,15837,2,0,B|64:56,1,60
40,40,16087,5,0
24,232,16586,1,4
168,360,17085,1,0
360,344,17584,1,4
440,288,17834,5,0
416,248,17959,1,0
440,208,18084,1,0
440,112,18333,2,0,B|448:48|368:16,1,120
198,14,18832,2,0,B|225:73|296:72,1,120
265,266,19331,2,0,B|336:232|304:168,1,120
208,176,19831,1,0
120,136,20080,1,4
144,232,20330,1,0
56,200,20579,1,4
418,312,21079,2,4,B|360:352|296:304,2,120
456,224,21827,1,0
456,128,22077,1,0
400,48,22326,5,0
360,24,22451,1,0
320,48,22576,1,0
320,144,22826,1,0
280,168,22950,1,0
240,144,23075,1,0
168,208,23325,2,2,B|128:272,2,60
82,340,23824,2,2,B|120:280,2,60
72,56,28067,5,0
264,56,28566,2,0,B|368:56,3,80
128,192,29564,2,0,B|216:192,3,80
352,368,30563,2,4,B|248:368,3,80
424,248,31561,5,2
424,184,31727,1,2
360,184,31894,1,2
360,120,32060,1,2
216,248,32559,1,2
216,184,32726,1,2
280,184,32892,1,2
280,120,33059,1,2
96,64,33558,5,2
56,112,33724,1,2
96,160,33891,1,2
56,208,34057,1,2
184,64,34556,1,2
224,112,34722,1,2
184,160,34889,1,2
224,208,35055,1,2
360,344,35554,5,0
312,296,35721,1,0
264,344,35887,1,0
216,296,36054,5,4
136,344,36303,1,0
104,304,36428,1,0
80,264,36553,1,0
80,168,36802,2,0,B|152:136,1,60
176,128,37052,1,0
264,96,37302,2,0,B|336:64,1,60
360,56,37551,1,4
456,56,37801,5,0
480,96,37925,1,0
480,144,38050,1,0
392,184,38300,1,0
480,224,38549,2,4,B|352:288,1,120
288,320,39049,1,0
192,320,39298,1,0
144,320,39423,1,0
96,320,39548,1,4
192,320,39797,1,0
96,320,40047,6,4,B|-8:216|88:96,1,240
168,64,40796,1,0
264,64,41045,1,0
216,144,41295,1,0
312,144,41544,1,4
207,312,41794,6,4,B|280:376|368:344|368:224,1,240
456,192,42543,1,0
456,96,42792,1,0
376,32,43042,1,0
376,128,43292,1,0
376,224,43541,1,0
160,224,43791,6,2,B|296:224,2,120
160,320,44539,2,2,B|288:320,1,120
280,224,45039,1,2
256,208,45288,12,4,49282
256,208,61262,12,4,63258
256,208,63321,12,4,65255
256,208,65317,12,4,67252
256,208,67314,12,4,68250
64,208,69248,6,0,B|64:80|232:48,1,240
376,160,70247,1,0
456,216,70496,1,0
376,160,70746,1,0
107,312,71245,6,4,B|208:248,1,120
296,200,71744,1,4
208,152,71994,1,0
160,136,72118,1,0
120,160,72243,2,4,B|48:160|32:80,1,120
128,56,72742,1,4
508,187,73242,6,0,B|423:73|295:144,1,240
456,248,74240,1,0
392,320,74489,1,0
456,248,74739,1,0
75,75,75238,6,4,B|152:168,1,120
232,120,75737,1,4
312,72,75987,1,0
344,40,76112,1,0
376,72,76237,2,4,B|456:176,1,120
504,240,76736,1,4
256,192,77235,5,0
120,296,77484,1,0
392,296,77734,1,4
256,208,78233,12,4,80729
256,192,81228,5,0
120,88,81477,1,0
392,88,81727,1,4
256,208,82227,12,4,84722
64,176,85222,6,0,B|64:304|232:336,1,240
376,224,86221,1,0
456,168,86470,1,0
376,224,86720,1,0
107,72,87219,6,4,B|208:136,1,120
296,184,87718,1,4
208,232,87968,1,0
160,248,88092,1,0
120,224,88217,2,4,B|48:224|32:304,1,120
128,328,88716,1,4
508,197,89216,6,0,B|423:311|295:240,1,240
456,136,90214,1,0
392,64,90463,1,0
456,136,90713,1,0
75,309,91212,6,4,B|152:216,1,120
232,264,91711,1,4
312,312,91961,1,0
344,344,92086,1,0
376,312,92211,2,4,B|456:208,1,120
504,144,92710,1,4
256,192,93209,5,0
120,88,93458,1,0
120,296,93708,1,4
400,32,94706,6,0,B|472:88,1,80
464,144,95039,1,0
464,208,95205,2,0,B|456:312|288:312|304:192,1,240
256,136,95954,1,0
208,216,96203,2,0,B|200:320|32:320|48:200,1,240
40,136,96952,1,0
256,192,97202,5,0
392,88,97451,1,0
392,296,97701,1,4
112,32,98699,6,0,B|40:88,1,80
48,144,99032,1,0
48,208,99198,2,0,B|56:312|224:312|208:192,1,240
256,136,99947,1,0
304,216,100196,2,0,B|312:320|464:312|464:200,1,240
64,304,101195,5,0
232,208,101694,2,0,B|152:96,1,120
255,128,102193,2,4,B|324:226,1,120
384,304,102692,1,4
472,184,103067,1,0
488,136,103192,2,2,B|504:72|432:40,1,120
336,32,103691,1,0
240,32,103940,1,0
200,56,104065,1,0
160,80,104190,2,2,B|240:176,1,120,2|2
128,184,104689,1,2
56,248,104939,1,0
88,280,105064,1,0
56,248,105188,5,2
348,328,105687,2,0,B|248:264,1,120
304,184,106187,1,0
384,232,106436,2,0,B|448:128,1,120
312,72,107060,1,0
264,72,107185,2,2,B|264:152|184:144,1,120
168,48,107684,1,0
88,96,107934,1,0
56,128,108059,1,0
8,144,108183,2,2,B|33:216|102:191,1,120
176,136,108682,1,0
264,176,108932,1,0
296,144,109057,1,0
264,176,109182,5,2
96,272,109681,2,0,B|208:352,1,120
288,344,110180,1,4
384,344,110430,1,0
480,344,110679,1,4
480,200,111054,1,0
480,152,111179,2,2,B|384:56,1,120
296,64,111678,1,0
200,64,111927,1,0
152,64,112052,1,0
112,96,112177,2,2,B|24:-8,1,120
24,120,112676,1,2
88,184,112926,1,0
120,216,113051,1,0
88,184,113175,5,2
361,212,113674,2,0,B|256:271,1,120
256,176,114173,1,4
208,96,114423,1,0
304,96,114673,1,4
256,208,115172,12,4,117168
256,192,117668,5,0
416,88,118167,1,0
336,144,118416,1,0
256,192,118666,1,0
24,335,119165,6,4,B|137:264,1,120,4|4
56,200,119664,1,4
128,136,119914,1,0
168,104,120038,1,0
216,104,120163,2,4,B|232:40|168:0,1,120
128,136,120662,1,4
490,291,121162,6,0,B|365:361|280:247,1,240
424,120,122160,1,0
352,48,122409,1,0
280,120,122659,1,0
29,292,123158,6,4,B|128:224,1,120
208,168,123657,1,4
112,168,123907,1,0
64,168,124032,1,0
15,167,124157,2,4,B|100:252,1,120
88,104,124656,1,4
256,192,125155,5,0
88,192,125404,1,0
424,192,125654,1,4
256,280,126153,5,0
160,280,126403,1,4
208,200,126653,1,0
112,200,126902,1,4
160,120,127152,1,0
64,120,127401,1,4
112,32,127651,1,0
16,32,127900,1,4
112,32,128150,1,0
208,32,128400,2,4,B|336:32,1,120
424,32,128899,1,4
256,192,129148,5,0
256,24,129397,1,0
256,360,129647,1,4
72,80,145621,6,0,B|128:32|184:80,1,120
357,137,146120,2,0,B|304:184|248:144,1,120,0|0
176,200,146619,1,0
152,288,146869,1,0
240,256,147118,1,4
224,352,147368,2,4,B|288:368|344:328,1,120
416,280,147867,1,0
480,208,148117,1,4
416,280,148366,1,0
376,248,148491,1,0
336,216,148616,2,0,L|336:96,1,120
336,312,149115,1,0
81,274,149614,6,2,B|176:200,1,120
336,54,150113,2,2,L|247:135,1,120
216,168,150488,1,0
176,136,150613,2,0,L|72:40,1,120
176,136,151112,1,0
360,192,151611,5,2
440,248,151861,1,2
360,304,152110,1,2
120,224,152484,1,2
304,48,152859,1,2
136,71,153108,2,2,B|264:136|192:288,1,240
112,320,153857,1,0
40,248,154107,2,2,B|-16:160|64:80,1,180
192,24,154856,5,2
288,24,155105,2,2,B|424:24,1,120
408,120,155604,1,0
408,216,155854,1,0
360,216,155979,1,0
312,216,156103,2,2,B|184:216,1,120
192,312,156603,1,2
288,312,156852,1,2
384,312,157102,5,4
472,272,157351,1,0
384,224,157601,1,0
472,184,157851,1,0
384,136,158100,1,4
424,112,158225,1,4
464,88,158350,1,4
384,32,158599,2,0,B|280:96,1,120
200,144,159098,5,4
200,192,159223,1,0
200,240,159348,1,0
200,144,159598,1,0
200,240,159847,1,0
280,192,160097,2,2,B|416:192,1,120
497,27,160596,2,2,B|399:96,1,120
400,192,161095,5,4
360,280,161345,1,0
280,336,161594,1,0
184,336,161844,1,0
104,288,162093,1,4
96,240,162218,1,4
56,208,162343,1,4
136,152,162593,2,0,B|200:184|192:256,1,120
136,80,163092,5,4
168,48,163217,1,4
200,16,163341,1,4
248,96,163591,2,0,B|344:0,1,120
484,16,164090,2,2,B|424:16,4,60
488,112,164839,1,2
488,208,165088,6,4,B|384:272,1,120
186,209,165588,2,4,B|288:271,1,120
336,192,166087,1,4
336,144,166212,1,4
336,96,166336,1,4
120,96,166586,2,0,B|240:96,1,120,0|0
240,192,167085,5,4
240,240,167210,1,4
240,288,167335,1,4
240,192,167584,1,0
240,96,167834,1,4
320,144,168083,2,2,B|448:216,1,120
424,104,168583,2,2,B|352:216,1,120
256,208,169082,12,4,172576
128,192,173075,5,4
384,192,173325,1,4
56,48,185055,5,0
144,80,185305,1,0
232,112,185554,1,0
56,120,185804,5,0
144,152,186054,1,0
232,184,186303,1,0
56,192,186553,5,0
144,224,186803,1,0
232,256,187052,1,0
56,264,187301,5,0
144,296,187551,1,0
232,328,187800,1,0
320,296,188050,5,4
408,264,188300,2,0,B|488:368,1,120
408,264,188799,5,4
320,224,189049,1,0
360,192,189173,1,0
400,160,189298,1,0
400,64,189548,5,0
360,32,189673,1,0
320,64,189797,1,0
224,64,190047,1,0
160,136,190296,1,0
224,208,190546,1,0
288,136,190796,1,0
224,208,191045,2,0,B|224:344|56:336,1,240
256,208,191794,12,4,193541
256,192,194040,5,4
104,312,194539,1,4
104,72,194872,1,4
408,72,195205,1,4
407,311,195538,2,4,B|368:183|216:199,1,240
136,144,196286,1,0
168,104,196411,1,0
216,96,196536,2,0,B|232:32|312:24,1,120
460,24,197035,2,2,B|400:24,1,60
352,24,197285,1,2
456,120,197534,5,4
192,328,198034,1,4
32,32,198533,1,4
256,32,198866,1,4
416,192,199198,1,4
105,171,199531,2,4,L|137:219|192:191,1,120
280,152,200030,1,0
296,248,200280,1,0
392,248,200529,2,2,B|392:184,1,60
432,216,200779,2,2,B|432:144,1,60
432,104,201029,1,2
104,192,201528,6,0,L|104:64,5,120,0|0|0|0|0|0
104,72,203025,1,4
440,192,203524,2,0,L|440:72,5,120
440,72,205022,1,4
160,256,205521,5,0
304,344,205771,1,0
448,256,206020,1,0
304,344,206270,1,0
160,256,206519,1,0
304,344,206769,1,2
448,256,207019,1,2
160,128,207518,5,0
304,40,207768,1,0
448,128,208017,1,0
304,40,208267,1,0
160,128,208516,1,0
304,40,208766,1,2
448,128,209016,1,2
112,128,209514,6,0,B|144:80|232:112,3,120
376,184,210513,2,0,B|441:216|497:152,2,120,0|0|4
112,256,211511,6,0,B|144:304|232:272,3,120
376,200,212510,2,0,B|441:168|497:232,2,120,0|0|4
56,304,213508,6,0,B|184:304,1,120
344,304,214007,1,0
192,232,214257,2,0,B|128:232,2,60
360,232,214756,1,2
208,168,215005,1,2
456,80,215504,6,0,B|328:80,1,120
168,80,216003,1,0
320,152,216253,2,0,B|384:152,2,60
152,152,216752,1,2
304,216,217001,1,2
7,351,217501,6,0,B|34:213|178:213,1,240
504,32,218499,2,0,B|478:171|334:171,1,240
7,32,219498,6,0,B|34:171|178:171,1,240
504,351,220496,2,0,B|478:213|334:213,1,240
0,168,221494,6,0,B|208:32,1,240
128,192,222243,1,0
48,336,222493,2,0,B|256:192,1,240
208,360,223242,1,0
512,216,223491,6,0,B|304:352,1,240
384,192,224240,1,0
464,48,224490,2,0,B|256:192,1,240
304,24,225239,1,0
160,112,225488,5,0
16,200,225737,1,0
160,288,225987,1,2
16,200,226237,1,0
160,112,226486,1,0
160,288,226736,1,2
16,200,226985,1,2
352,112,227484,5,0
496,200,227733,1,0
352,288,227983,1,2
496,200,228233,1,0
352,112,228482,1,0
352,288,228732,1,2
496,200,228981,1,2
256,208,229481,12,4,232975
256,104,233475,5,4
168,248,233724,1,4
336,248,233974,1,4
