osu file format v5

[General]
AudioFilename: 16-OneWingedAngel.mp3
AudioLeadIn: 2000
PreviewTime: 68222
Countdown: 1
SampleSet: Normal
StackLeniency: 0.7
Mode: 0
LetterboxInBreaks: 0

[Editor]
Bookmarks: 27540,60263,68846,100793,117265,144969,184528,217224
DistanceSpacing: 0.800000011920929
BeatDivisor: 4
GridSize: 8

[Metadata]
Title:One Winged Angel
Artist:Nobuo Uematsu
Creator:kingcobra52
Version:Easy
Source:Final Fantasy VII
Tags:sephiroth ffvii ff7

[Difficulty]
HPDrainRate:4
CircleSize:4
OverallDifficulty:4
SliderMultiplier:1.4
SliderTickRate:2

[Events]
//Background and Video events
0,0,"Sephiroth.jpg"
Video,0,"Sephiroth_One_Winged_Angel.avi"
//Break Periods
2,24274,26747
2,49482,59942
2,129848,144301
//Storyboard Layer 0 (Background)
//Storyboard Layer 1 (Fail)
//Storyboard Layer 2 (Pass)
//Storyboard Layer 3 (Foreground)
//Storyboard Sound Samples
//Background Colour Transformations
3,100,163,162,255

[TimingPoints]
114,499.168053244592,4,1,0,70,1,0
49282,499.168053244592,4,1,0,70,1,0
68874,-100,4,2,0,69,0,0
76861,-100,4,1,0,71,0,0
77984,-100,4,2,0,70,0,0
80979,-100,4,1,0,70,0,0
82102,-100,4,2,0,71,0,0
84847,-100,4,2,0,70,0,0
92834,-100,4,1,0,71,0,0
94331,-100,4,2,0,70,0,0
97077,-100,4,1,0,70,0,0
98325,-100,4,2,0,72,0,0
124781,-100,4,1,0,70,0,0
125904,-100,4,2,0,70,0,0
129024,-100,4,1,0,71,0,0
201153,-100,4,2,0,70,0,0
233100,-100,4,1,0,70,0,0

[Colours]
Combo1 : 54,54,54
Combo2 : 232,101,4
Combo3 : 168,159,160
Combo4 : 149,2,2

[HitObjects]
80,64,114,1,0
192,64,613,1,4
304,64,1112,1,0
416,64,1611,1,4
416,176,2110,1,0
304,176,2609,1,4
192,176,3109,1,0
80,176,3608,1,4
256,192,4107,12,4,8100
40,192,8599,5,0
104,96,9099,1,4
200,40,9598,1,0
312,32,10097,1,4
416,72,10596,1,0
480,160,11095,1,4
480,272,11594,1,0
384,320,12094,6,0,B|216:320,1,140,0|4
152,256,13092,2,0,B|304:256,1,140,0|4
384,192,14090,2,0,B|352:96|232:24|104:40|24:104,1,420
56,208,16087,5,0
120,296,16586,1,4
192,208,17085,1,0
264,296,17584,1,4
336,208,18084,5,0
336,208,18333,1,0
448,208,18832,2,0,B|480:88|336:32,1,210
248,40,20080,1,4
136,40,20579,1,4
136,152,21079,2,4,B|440:152,2,280
136,264,23574,5,2
136,376,24074,1,2
72,56,28067,5,0
184,56,28566,2,0,B|336:56,1,140
328,168,29564,2,0,B|168:168,1,140
192,280,30563,2,4,B|344:280,1,140
408,192,31561,6,2,B|408:136,3,46.6666666666667
304,192,32559,2,4,B|304:128,3,46.6666666666667
200,192,33558,2,2,B|200:120,3,46.6666666666667
96,192,34556,2,4,B|96:120,3,46.6666666666667
256,296,36054,5,4
256,240,36303,1,0
256,184,36553,1,4
256,72,37052,1,0
144,72,37551,1,4
56,144,38050,5,0
56,256,38549,1,4
144,328,39049,1,0
256,328,39548,1,4
368,328,40047,6,4,B|472:200|360:64,1,280
256,72,41544,1,4
256,128,41794,2,4,B|112:104|16:216|128:344|256:328,1,420
360,312,43791,2,2,B|432:272,5,70
256,192,45288,12,4,49282
256,192,61262,12,4,68250
88,192,69248,6,0,B|48:120|128:72,1,140
232,72,70247,1,0
288,72,70496,1,0
344,72,70746,1,0
344,184,71245,6,4,B|448:288,1,140
352,352,72243,2,4,B|248:248,1,140
183,168,73242,6,0,B|138:92|64:136,1,140
64,240,74240,1,0
88,288,74489,1,0
136,312,74739,1,0
248,312,75238,6,4,B|368:232,1,140
360,120,76237,2,4,B|240:24,1,140
256,144,77235,5,0
256,200,77484,1,0
256,256,77734,1,4
256,192,78233,12,4,80729
256,240,81228,5,0
256,184,81477,1,0
256,128,81727,1,4
256,16,82227,6,0,B|96:16,4,140
88,192,85222,6,0,B|48:264|128:312,1,140
232,312,86220,1,0
288,312,86470,1,0
344,312,86719,1,0
344,200,87218,6,4,B|448:96,1,140
352,32,88217,2,4,B|248:136,1,140
183,216,89215,6,0,B|138:292|56:248,1,140
64,144,90213,1,0
88,96,90463,1,0
136,72,90712,1,0
248,72,91212,6,4,B|368:152,1,140
360,264,92210,2,4,B|240:360,1,140
256,240,93208,5,0
256,184,93458,1,0
256,128,93707,1,4
48,208,94706,6,0,B|88:280|136:200|176:248,1,140
176,128,95704,1,0
175,16,96203,2,0,B|215:87|263:7|298:49,1,140
256,144,97202,5,0
256,200,97452,1,0
256,256,97701,1,4
440,128,98699,6,0,B|488:200|432:264,3,140,0|4|0|4
64,304,101195,5,0
152,232,101694,1,0
240,160,102193,2,4,B|352:256,1,140
440,192,103192,2,2,B|448:112|352:72,1,140
264,48,104190,2,2,B|184:40|144:136,1,140
64,80,105188,5,0
152,152,105687,1,0
240,224,106187,2,4,B|352:128,1,140
440,192,107185,2,2,B|448:272|352:312,1,140
264,336,108183,2,2,B|184:344|144:248,1,140
48,216,109182,5,0
144,160,109681,1,0
48,96,110180,1,4
96,64,110430,1,0
144,32,110679,1,4
256,32,111178,2,2,B|333:64|325:144,1,140
320,256,112177,2,2,B|240:248|200:344,1,140
104,280,113175,5,0
104,168,113674,1,0
104,56,114173,1,4
104,56,114423,1,0
104,56,114673,1,4
256,192,115172,12,4,117168
256,192,117668,5,0
208,296,118167,1,0
256,320,118416,1,0
304,296,118666,1,0
400,240,119165,6,4,L|472:264|456:192,1,140
400,104,120163,2,4,L|472:80|456:152,1,140
352,176,121162,6,0,B|208:176,1,140
96,176,122160,1,0
96,176,122410,1,0
96,176,122659,1,0
96,288,123158,6,4,B|224:352,1,140
336,352,124157,2,4,B|480:272,1,140
456,168,125155,5,0
456,112,125405,1,0
456,56,125654,1,4
288,48,126403,5,2
176,72,126902,1,2
96,152,127401,1,2
88,264,127900,1,4
160,352,128400,1,4
224,192,129148,5,0
256,144,129398,1,0
288,192,129648,1,4
72,80,145621,6,0,B|136:32|216:88,1,140
288,152,146619,1,0
376,216,147118,1,4
416,256,147368,2,4,B|416:320|384:352|320:368|248:352|296:248|232:232|136:240|176:352|128:384|48:376|8:288,1,490
24,200,149614,6,2,B|24:120,3,70
288,48,151611,2,2,B|448:48,1,140
432,128,152484,1,2
432,208,152859,1,2
432,264,153108,2,2,B|352:376|168:336,3,280
48,152,157102,5,4
128,72,157601,1,0
200,152,158100,1,4
280,72,158599,1,0
360,152,159098,1,4
440,72,159598,1,0
512,152,160097,2,2,B|456:216,1,70
432,248,160596,2,2,B|376:312,1,70
352,344,161095,5,4
240,344,161594,1,0
128,344,162093,1,4
128,232,162593,1,0
240,232,163092,1,4
352,232,163591,1,0
352,120,164090,2,2,B|432:120,4,70
240,120,165588,5,0
152,48,166087,1,4
64,120,166586,1,0
64,232,167085,1,4
152,304,167584,1,0
240,232,168083,2,2,B|328:232,1,70
304,176,168583,2,2,B|216:176,1,70
256,192,169082,12,4,172576
256,192,173075,5,4
256,192,173325,1,4
