osu file format v9

[General]
AudioFilename: 09 - You Are Not Alone.mp3
AudioLeadIn: 0
PreviewTime: 67882
Countdown: 0
SampleSet: Soft
StackLeniency: 0.7
Mode: 0
LetterboxInBreaks: 1

[Editor]
DistanceSpacing: 1.1
BeatDivisor: 4
GridSize: 4

[Metadata]
Title:Not Alone
Artist:Nobuo Uematsu
Creator:Giorgos
Version:Hard
Source:Final Fantasy IX
Tags:ffix ff9 squareenix squaresoft Louis Cyphre Lucifer

[Difficulty]
HPDrainRate:6
CircleSize:4
OverallDifficulty:6
ApproachRate:7
SliderMultiplier:1.6
SliderTickRate:1

[Events]
//Background and Video events
0,0,"Zidane.jpg"
//Break Periods
//Storyboard Layer 0 (Background)
//Storyboard Layer 1 (Fail)
//Storyboard Layer 2 (Pass)
//Storyboard Layer 3 (Foreground)
//Storyboard Sound Samples
//Background Colour Transformations
3,100,163,162,255

[TimingPoints]
14087,428.571428571429,4,2,2,65,1,0
41515,-100,4,2,1,65,0,0
43132,-100,4,2,1,35,0,0
43347,-100,4,2,1,65,0,0
46561,-100,4,2,1,35,0,0
46775,-100,4,2,1,65,0,0
49989,-100,4,2,1,35,0,0
50204,-100,4,2,1,65,0,0
53418,-100,4,2,1,35,0,0
53632,-100,4,2,1,65,0,0
56847,-100,4,2,1,35,0,0
57061,-100,4,2,1,65,0,0
60275,-100,4,2,1,35,0,0
60489,-100,4,2,1,65,0,0
63704,-100,4,2,1,35,0,0
63918,-100,4,2,1,65,0,0
67132,-100,4,2,1,35,0,0
67347,-100,4,2,1,65,0,0
123918,-100,4,2,0,50,0,0

[Colours]
Combo1 : 255,255,0
Combo2 : 255,128,255
Combo3 : 143,38,183
Combo4 : 0,128,255
Combo5 : 255,0,0

[HitObjects]
256,80,14087,1,2
180,240,14515,2,0,B|252:296|328:240,1,160,0|2
256,80,15372,1,0
80,80,15801,2,0,B|80:240,2,160,2|0|2
244,144,17086,1,0
400,60,17515,5,2
400,236,17944,1,2
244,144,18372,2,0,B|164:144,2,80,2|2|2
100,244,19229,1,0
276,244,19658,2,0,B|356:204|356:284|440:244,1,160,0|2
364,84,20515,1,0
224,192,20944,5,2
80,92,21372,2,0,B|152:44|231:92,1,160,0|2
388,172,22229,2,0,B|309:219|237:171,1,160,0|2
60,172,23087,1,0
216,256,23515,6,0,B|288:324|356:256,2,160,2|0|2
288,96,24801,1,0
136,188,25229,1,2
180,264,25444,1,2
224,188,25658,1,2
180,16,26087,1,2
256,192,26301,12,0,27372
128,40,27801,6,0,B|4:180|128:348,1,320,0|2
224,188,29087,1,0
340,56,29515,1,2
452,192,29944,1,2
340,328,30372,1,2
336,152,30801,6,0,B|262:116|262:196|182:156,1,160,0|2
96,312,31658,1,0
272,312,32087,2,0,B|272:232,2,80,2|0|0
200,152,32944,2,0,B|256:152|268:112|268:112|284:152|348:152,2,160,2|0|2
84,284,34229,1,0
236,192,34658,6,0,B|160:124|236:56,1,160,2|0
412,56,35515,2,0,B|487:123|411:191,1,160,2|0
236,192,36372,1,2
236,192,36801,1,0
296,28,37229,6,0,B|252:26|236:66|236:66|224:26|168:26,1,160,2|0
236,192,38087,2,0,B|236:352,1,160,2|0
396,280,38944,2,0,B|444:216,2,80,2|0|0
336,112,39801,1,2
256,192,40015,12,0,41087
404,68,41515,6,0,B|228:68|400:268|192:268,1,320,2|0
140,104,42801,1,0
316,104,43229,1,8
172,204,43658,2,0,B|220:204|240:164|240:164|264:204|312:204,1,160,2|2
240,368,44515,1,0
404,300,44944,6,0,B|404:140,1,160,2|0
228,136,45801,2,0,B|144:136,2,80,2|0|2
392,72,46658,1,8
384,248,47087,2,0,B|310:212|310:292|230:252,1,160,2|0
256,80,47944,1,0
216,256,48372,6,0,B|288:324|356:256,1,160,2|0
216,152,49229,2,0,B|288:84|356:152,1,160,2|0
212,252,50087,1,8
216,76,50515,1,0
344,196,50944,5,2
476,312,51372,1,0
300,312,51801,2,0,B|140:312,1,160,2|0
168,140,52658,1,2
224,208,52872,1,2
284,144,53087,1,2
224,308,53515,1,8
256,192,53729,12,0,54801
88,64,55229,6,0,B|228:52|116:140|296:196|236:52|404:160,1,320,2|0
380,320,56515,1,0
252,200,56944,1,8
220,372,57372,2,0,B|368:296,1,160,2|0
364,124,58229,1,0
228,236,58658,6,0,B|85:309,1,160,2|0
148,144,59515,2,0,B|320:144,2,160,2|0|8
156,320,60801,2,0,B|224:252|296:320,1,160,2|0
224,160,61658,1,0
392,104,62087,6,0,B|312:104|396:220|316:220,1,160,2|0
184,104,62944,2,0,B|260:103|176:219|256:219,1,160,2|0
288,48,63801,1,8
392,188,64229,1,0
304,340,64658,5,2
212,188,65087,1,0
128,340,65515,1,2
280,252,65944,1,0
280,76,66372,2,0,B|280:184,2,80,2|0|2
280,252,67229,1,8
256,192,67444,12,0,68944
256,60,69372,6,0,B|256:144,1,80
184,192,69801,2,0,B|256:244|332:192,1,160,8|0
256,352,70658,1,0
400,248,71087,2,0,B|400:152,1,80
324,120,71515,2,0,B|400:68|472:120,1,160,8|0
380,268,72372,1,0
204,268,72801,5,0
28,268,73229,1,8
60,96,73658,2,0,B|100:96|120:140|120:140|140:96|184:96,1,160,0|0
360,88,74515,2,0,B|436:152|364:232,1,160,0|8
260,88,75372,2,0,B|100:88,1,160,0|0
100,264,76229,5,0
256,348,76658,1,8
256,172,77087,1,0
408,264,77515,1,0
336,104,77944,1,0
160,104,78372,2,0,B|340:104|152:284|388:284,1,320,8|0
256,192,79444,12,0,82229
256,112,82658,5,0
140,244,83087,2,0,B|200:192,2,80,0|0|8
308,192,83944,2,0,B|368:244,2,80
256,360,84801,1,0
256,184,85229,6,0,B|256:16,1,160,8|0
100,108,86087,1,0
36,272,86515,2,0,B|68:272|100:224|100:224|136:272|172:272,1,160,0|8
32,148,87372,2,0,B|100:68|168:148,1,160
36,264,88229,2,0,B|100:344|172:264,1,160,0|0
256,112,89087,6,0,B|320:180|256:256,1,160,8|0
432,252,89944,2,0,B|368:176|432:108,1,160,0|8
312,236,90801,2,0,B|312:120,2,80
224,84,91658,1,0
104,212,92087,2,0,B|40:280|96:356,1,160,8|0
256,192,92944,12,0,95515
188,196,95944,2,0,B|240:196|256:236|256:236|272:196|336:196,1,160
256,32,96801,2,0,B|256:132,2,80,0|0|8
256,208,97658,2,0,B|316:208|316:244|316:276|316:304|228:304,1,160
436,296,98515,6,0,B|436:192,2,80,0|0|8
284,208,99372,2,0,B|224:208|224:244|224:276|224:304|312:304,1,160
356,144,100229,1,0
204,56,100658,5,8
204,232,101087,2,0,B|288:232|208:332|312:332,1,160
440,220,101944,2,0,B|358:220|438:120|343:120,1,160,0|0
168,120,102801,1,8
312,220,103229,6,0,B|168:126|228:270|48:214|160:126|20:138,1,320,0|8
172,48,104515,1,0
292,180,104944,1,0
468,180,105372,2,0,B|468:268,2,80,0|0|8
292,180,106229,2,0,B|204:180,2,80,0|0|8
256,192,106872,12,0,109658
152,88,110087,6,0,B|100:88|100:140|100:200|152:200,1,160
284,312,110944,2,0,B|336:312|336:260|336:200|284:200,1,160,8|0
416,80,111801,1,0
296,208,112229,2,0,B|224:268,2,80,0|0|8
204,60,113087,2,0,B|272:144,2,80,0|0|0
232,236,113944,5,0
300,184,114158,1,0
368,128,114372,1,8
196,160,114801,2,0,B|332:56,1,160
392,224,115658,2,0,B|256:312,1,160,0|0
80,320,116515,6,0,B|20:252|84:172,1,160,8|0
256,192,117372,1,0
400,88,117801,1,8
396,264,118229,6,0,B|312:264,2,80,0|0|0
316,108,119087,2,0,B|400:108,2,80,0|0|8
160,192,119944,2,0,B|60:192,2,80,0|0|0
256,192,120587,12,0,123801
472,60,124229,6,0,B|296:60|468:260|260:260,1,320,2|0
280,84,125515,1,0
280,260,125944,2,0,B|88:260|260:60|84:60,1,320,2|0
256,120,127229,5,0
104,212,127658,2,0,B|244:200|132:288|312:344|252:200|420:308,1,320,2|0
428,120,128944,1,0
436,296,129372,2,0,B|293:388|353:244|173:300|285:388|148:377,1,320,2|0
256,236,130658,5,0
108,332,131087,2,0,B|-5:179|118:39,1,320,2|0
256,148,132372,1,0
400,44,132801,2,0,B|524:184|400:352,1,320,2|0
256,252,134087,5,0
108,156,134515,2,0,B|200:184|256:120|256:120|312:184|416:152,1,320,2|0
256,56,135801,1,0
108,152,136229,2,0,B|200:124|256:188|256:188|312:124|416:156,1,320,2|0
256,256,137515,1,0
