osu file format v9

[General]
AudioFilename: 09 - You Are Not Alone.mp3
AudioLeadIn: 0
PreviewTime: 67882
Countdown: 0
SampleSet: Soft
StackLeniency: 0.7
Mode: 0
LetterboxInBreaks: 1

[Editor]
DistanceSpacing: 1
BeatDivisor: 4
GridSize: 4

[Metadata]
Title:Not Alone
Artist:Nobuo Uematsu
Creator:Giorgos
Version:Easy
Source:Final Fantasy IX
Tags:ffix ff9 squareenix squaresoft Louis Cyphre Lucifer

[Difficulty]
HPDrainRate:3
CircleSize:3
OverallDifficulty:3
ApproachRate:3
SliderMultiplier:0.9
SliderTickRate:1

[Events]
//Background and Video events
0,0,"Zidane.jpg"
//Break Periods
//Storyboard Layer 0 (Background)
//Storyboard Layer 1 (Fail)
//Storyboard Layer 2 (Pass)
//Storyboard Layer 3 (Foreground)
//Storyboard Sound Samples
//Background Colour Transformations
3,100,163,162,255

[TimingPoints]
14087,428.571428571429,4,2,2,65,1,0
43132,-100,4,2,1,35,0,0
43347,-100,4,2,1,65,0,0
46561,-100,4,2,1,35,0,0
46775,-100,4,2,1,65,0,0
49989,-100,4,2,1,35,0,0
50204,-100,4,2,1,65,0,0
53418,-100,4,2,1,35,0,0
53632,-100,4,2,1,65,0,0
56847,-100,4,2,1,35,0,0
57061,-100,4,2,1,65,0,0
60275,-100,4,2,1,35,0,0
60489,-100,4,2,1,65,0,0
63704,-100,4,2,1,35,0,0
63918,-100,4,2,1,65,0,0
67132,-100,4,2,1,35,0,0
67347,-100,4,2,1,65,0,0
68097,-100,4,2,2,45,0,0
123918,-100,4,2,0,50,0,0

[Colours]
Combo1 : 255,255,0
Combo2 : 255,128,255
Combo3 : 143,38,183
Combo4 : 0,128,255
Combo5 : 255,0,0

[HitObjects]
112,104,14087,2,0,B|41:182|110:267,1,180,0|2
288,268,15801,2,0,B|376:268,2,90,0|0|2
448,184,17515,5,0
332,48,18372,1,2
276,212,19229,2,0,B|188:212,2,90,0|0|2
256,32,20944,5,0
212,108,21372,2,0,B|212:200,1,90
302,197,22229,2,0,B|302:105,1,90,0|2
124,136,23515,1,0
304,136,24372,2,0,B|344:136|368:80|368:80|388:136|432:136,1,180,0|2
368,304,26087,1,0
256,100,27801,6,0,B|300:132|300:176|304:220|260:260,1,180,0|2
176,100,29515,2,0,B|134:137|138:181|138:225|182:257,1,180,0|2
292,112,31229,5,0
464,60,32087,1,2
408,128,32515,1,0
468,192,32944,2,0,B|425:191|405:247|405:247|385:191|341:191,1,180,0|2
284,20,34658,5,0
118,92,35515,2,0,B|60:112|60:160|60:216|116:232,1,180,2|0
236,100,37229,2,0,B|236:188,2,90,2|0|0
208,280,38944,2,0,B|272:280,2,45,2|0|0
232,192,39801,1,0
256,192,40015,12,0,41515
256,192,43229,1,8
218,273,43658,2,0,B|254:321|294:273,1,90
124,196,44944,2,0,B|224:196|276:116|276:116|328:196|432:196,1,360,0|8
276,288,47515,1,0
136,176,48372,5,0
196,108,48801,1,0
252,176,49229,1,0
196,244,49658,2,0,B|196:336,1,90,0|8
352,240,50944,6,0,B|408:240|424:180|408:124|352:124,1,180,0|0
284,184,52229,1,0
216,240,52658,2,0,B|160:240|144:180|160:124|216:124,1,180,0|8
116,340,55229,5,0
52,172,56087,2,0,B|90:171|88:127|109:51|136:127|141:172|179:171,1,180,0|8
116,340,57801,1,0
224,196,58658,5,0
332,340,59515,1,0
332,160,60372,1,8
280,232,60801,1,0
228,160,61229,1,0
408,160,62087,6,0,B|312:160,3,90,0|0|0|0
364,236,63801,1,8
200,164,64658,2,0,B|136:164|104:212|136:256|200:256,1,180,0|0
288,256,65944,2,0,B|288:346,1,90
380,348,66801,2,0,B|380:248,1,90,0|8
76,60,68944,6,0,B|292:60|80:276|296:276,1,360
468,280,71515,1,8
292,275,72372,2,0,B|80:276|292:60|76:60,1,360
76,236,74944,1,0
256,236,75801,5,0
108,136,76658,1,8
184,88,77087,1,0
260,140,77515,1,0
112,244,78372,2,8,B|120:296|184:292|244:296|256:242,1,180,8|0
256,192,79444,12,0,80944
256,192,82658,6,0,B|196:124,2,90,0|0|8
348,192,83944,1,0
300,268,84372,1,0
196,124,85229,2,0,B|136:192,2,90,8|0|0
376,144,86944,5,8
324,216,87372,1,0
232,216,87801,1,0
144,216,88229,1,0
88,148,88658,1,0
168,308,89515,6,0,B|212:308|232:364|232:364|252:308|296:308,1,180,0|8
232,240,90801,2,0,B|232:188,2,45
256,192,92087,12,0,94658
256,192,96372,5,0
100,104,97229,2,0,B|100:300,1,180,8|0
256,192,98944,1,8
412,104,99801,2,0,B|412:300,1,180,0|8
256,196,101515,6,0,B|256:288,2,90
380,68,103229,1,0
252,196,104087,1,8
184,136,104515,1,0
252,76,104944,1,0
432,72,105801,2,8,B|512:144|440:240,1,180,8|0
256,192,106872,12,0,109229
256,188,110944,5,8
256,100,111372,1,0
332,144,111801,1,0
256,308,112658,2,0,B|256:216,2,90,8|0|0
400,200,114372,5,8
348,128,114800,1,0
256,128,115229,1,0
168,128,115657,1,0
112,196,116087,1,0
196,356,116944,6,0,B|240:356|260:300|260:300|280:356|324:356,1,180,0|8
412,352,118229,2,0,B|412:292,2,45
320,196,119515,2,0,B|277:195|257:251|257:251|237:195|193:195,1,180,8|0
260,28,121229,1,8
108,124,122087,2,0,B|207:124|259:204|259:204|311:124|413:124,1,360,0|2
256,192,124015,12,0,130658
204,156,132372,6,0,B|336:156|264:296|412:296,1,270,0|2
412,204,134087,2,0,B|264:204|336:344|204:344,1,270,0|2
136,284,135801,2,0,B|273:280|285:76|409:73,1,360,0|2
