osu file format v4

[General]
AudioFilename: FF VII- J-E-N-O-V-A.mp3
AudioLeadIn: 0
AudioHash: ca4932d9ebc34501c4911c6cee35f546
PreviewTime: -1
SampleSet: Normal
EditorBookmarks: 5975,37950,49057,75983

[Metadata]
Title:J-E-N-O-V-A
Artist:Nobuo Uematsu
Creator:Sinistro
Version:Insane

[Difficulty]
HPDrainRate:7
CircleSize:6
OverallDifficulty:7
SliderMultiplier: 1.4
SliderTickRate: 1

[Events]
0,0,"FFVIIAC-Jenova.jpg"
2,38140,48148
3,0,163,162,255

[TimingPoints]
590,336.578651685392,4,1,0

[HitObjects]
32,32,5975,1,0
128,32,6311,1,0
224,32,6648,5,0
320,32,6984,1,0
416,96,7321,5,0
367,129,7489,1,0
320,160,7658,2,0,C|320:160|198:81,1,140
159,120,8163,1,0
116,155,8331,1,0
74,192,8499,1,0
32,224,8667,6,2,C|32:224|80:288,2,70
256,160,9677,5,0
256,224,9845,2,0,B|256:224|320:352,1,140
384,352,10350,1,0
480,352,10687,1,0
480,256,11023,1,4
480,144,11360,6,0,B|480:144|352:80,1,140
256,112,12033,2,0,B|256:112|111:112,1,140
64,160,12706,6,0,B|64:160|192:224,1,140
242,223,13211,1,2
295,223,13379,2,0,B|295:223|440:223,1,140
366,222,13884,1,2
367,163,14053,2,0,B|367:163|367:310,1,140
318,86,15062,5,0
318,142,15231,1,0
286,246,15567,1,0
229,245,15736,1,0
189,140,16072,1,0
231,36,16409,1,4
288,65,16745,6,0,B|288:65|384:65|384:161|384:257|480:257,1,280
465,353,17755,1,0
402,352,18092,6,0,B|402:352|306:352|306:256|306:160|210:160,1,280
176,160,18933,1,0
112,160,19101,1,2
96,224,19270,1,0
162,225,19438,6,0,B|162:225|258:225|258:129|258:33|354:33,1,280
397,32,20448,1,0
400,96,20784,6,0,B|400:96|314:97|337:242|295:287|208:288,1,280
256,336,21626,1,0
208,352,21794,1,2
160,352,21962,1,0
112,322,22131,6,0,B|112:322|65:291|65:257,1,70
65,214,22467,1,2
64,128,22804,6,0,B|64:128|95:81|129:81,1,70
193,78,23140,1,2
286,81,23477,6,0,B|286:81|333:112|333:146,1,70
334,207,23813,1,2
333,274,24150,6,0,B|333:274|302:321|268:321,1,70
207,321,24487,1,4
345,353,24823,6,2,B|345:353|374:256|341:160|259:192|169:225|143:131|166:33,1,420
254,38,26001,1,0
345,31,26169,6,2,B|345:31|374:128|341:224|259:192|169:159|143:253|166:351,1,420
276,351,27516,6,0,B|276:351|425:351,1,140
450,244,28189,1,0
395,291,28357,1,2
337,241,28526,1,0
274,147,28862,6,0,B|274:147|423:147,1,140
470,143,29367,1,0
442,94,29535,1,0
397,60,29704,1,2
345,38,29872,1,0
290,37,30040,1,0
222,37,30208,6,0,B|222:37|73:37,1,140
41,141,30882,1,0
96,96,31050,1,2
153,141,31218,1,0
227,238,31555,6,0,B|227:238|78:238,1,140
30,241,32060,1,0
58,290,32228,1,0
103,324,32396,1,2
155,346,32564,1,0
210,347,32733,1,0
256,320,32901,6,2,C|256:320|480:320,1,210
480,192,34247,5,0
416,192,34416,1,0
352,192,34584,1,0
288,192,34752,1,0
320,144,34921,1,0
384,144,35089,1,0
352,96,35257,1,0
352,32,35425,1,0
288,32,35594,6,2,B|288:32|224:160,1,140
168,160,36099,1,0
111,160,36267,6,0,B|111:160|47:32,1,140
108,36,36772,1,2
160,36,36940,6,0,B|160:36|224:164,1,140
277,160,37445,1,2
334,160,37613,6,4,B|334:160|398:32,1,140
96,192,49057,6,0,B|96:192|129:132|160:107|224:107|224:160|256:192|288:224|288:278|352:278|385:258|421:174,1,420
352,192,50235,1,0
414,192,50403,6,0,B|414:192|383:132|352:107|288:107|288:160|256:192|224:224|224:278|160:278|127:258|91:174,1,420
160,192,51581,1,0
99,190,51749,1,2
256,192,52086,5,0
176,112,52423,1,0
64,112,52759,1,0
65,224,53096,6,2,C|65:224|65:371,1,140
158,301,53769,1,0
254,244,54106,1,0
334,196,54442,2,2,B|334:196|319:78|399:78|481:78|463:202,1,280
400,160,55284,1,0
400,224,55452,1,0
400,288,55620,1,0
464,253,55788,2,2,B|464:253|479:371|399:371|317:371|335:247,1,280
167,257,57135,6,2,B|167:257|49:272|49:192|49:110|173:128,1,280
208,160,57976,1,0
255,194,58144,1,0
304,224,58313,1,0
344,261,58481,2,2,B|344:261|462:276|462:196|462:114|338:132,1,280
257,110,59827,6,4,B|257:110|252:291|253:343|238:367|176:367|127:354|109:329|119:243,1,420
166,205,61005,1,2
117,137,61174,6,4,B|117:137|245:137|204:29|97:22|55:5|7:113|40:219|117:233|181:201|181:201,1,420
222,200,62352,1,2
277,192,62520,6,4,B|277:192|260:7|308:8|394:200|385:247|440:242|449:113|436:63,1,420
382,80,63698,1,2
325,86,63866,6,4,B|325:86|292:11|240:-5|173:17|147:110|147:175|260:199|300:174|322:119|325:79,1,420
356,127,65044,1,2
377,177,65213,6,4,B|377:177|291:355|254:365|211:358|133:168,1,420
195,191,66391,1,2
241,138,66559,6,4,B|241:138|145:123|107:171|108:232|155:287|223:266|300:267|271:165|198:89|309:246,1,420
256,192,68074,12,0,69925
209,33,70598,1,0
304,81,70934,1,0
208,129,71271,1,0
304,176,71608,1,0
209,258,71944,5,2
169,223,72112,1,0
128,192,72281,1,0
84,222,72449,1,0
48,257,72617,1,2
89,289,72786,1,0
129,320,72954,1,4
256,320,73290,5,0
256,320,73627,1,2
256,192,73964,5,0
257,193,74132,1,0
257,193,74300,1,2
256,64,74637,5,0
256,64,74805,1,0
256,64,74973,1,2
256,64,75142,1,0
256,128,75310,5,0
224,192,75478,1,0
288,192,75647,1,6
