osu file format v6

[General]
AudioFilename: Final Fantasy - Battle Theme Original (V, VI, VII, VIII, IX, X).mp3
AudioLeadIn: 2945
PreviewTime: 330085
Countdown: 1
SampleSet: Soft
StackLeniency: 0.7
Mode: 0
LetterboxInBreaks: 1
StoryFireInFront: 0

[Editor]
Bookmarks: 63975,100890,119514,219384,220102,222617,336176,433379
DistanceSpacing: 0.800000011920929
BeatDivisor: 8
GridSize: 16

[Metadata]
Title:Final Fantasy Battle Theme
Artist:Nobuo Uematsu
Creator:eiuolfyd
Version:X
Source:
Tags:

[Difficulty]
HPDrainRate:4
CircleSize:3
OverallDifficulty:9
SliderMultiplier:1.4
SliderTickRate:2

[Events]
//Background and Video events
0,0,"Final Fantasy Marathon.jpg"
//Break Periods
//Storyboard Layer 0 (Background)
//Storyboard Layer 1 (Fail)
//Storyboard Layer 2 (Pass)
//Storyboard Layer 3 (Foreground)
//Storyboard Sound Samples
//Background Colour Transformations
3,100,0,0,0

[TimingPoints]
336175.863809309,472.44094488189,4,2,1,40,1,0
377042,-50,4,2,1,40,0,0
379108,472.44094488189,4,2,1,40,1,0
379167,-50,4,2,1,40,0,1
379640,-100,4,2,1,40,0,0
399363,472.44094488189,4,2,1,40,1,0
401843,625,4,2,1,40,1,0
406921,472.44094488189,4,2,1,40,1,0
409440,631.578947368421,4,2,1,40,1,0
414492,310.077519379845,4,2,1,40,1,0
419530,472.44094488189,4,2,1,40,1,1
422041,-100,4,2,1,0,0,0
422159,-100,4,2,1,0,0,1
423812,-100,4,2,1,0,0,0
423930,-100,4,2,1,0,0,1
424521,-100,4,2,1,0,0,0
424639,-100,4,2,1,0,0,1
426557,-100,4,2,1,0,0,0
426675,-100,4,2,1,0,0,1
427001,-100,4,2,1,0,0,0
427119,-100,4,2,1,0,0,1
429333,-100,4,2,1,0,0,0
429451,-100,4,2,1,0,0,1
430396,-100,4,2,1,0,0,0
430455,-100,4,2,1,0,0,1
431341,-100,4,2,1,0,0,0
431459,-100,4,2,1,0,0,1
431872,-100,4,2,1,0,0,0
431990,-100,4,2,1,0,0,1
433464,-100,4,2,1,100,0,0

[Colours]
Combo1 : 0,0,255
Combo2 : 255,0,0
Combo3 : 128,0,255
Combo4 : 255,255,0
Combo5 : 0,128,0

[HitObjects]
192,128,336530,6,14,L|160:96,1,35
320,128,337002,6,14,L|352:96,1,35
256,64,337475,5,14
256,320,337770,5,14
0,0,338065,5,14
512,384,338538,5,14
0,0,339010,5,14
512,384,339482,5,14
256,208,339482,12,14,339955
192,256,340309,6,14,L|160:288,1,35
320,256,340782,6,14,L|352:288,1,35
256,320,341195,5,14
256,64,341490,5,14
0,384,341845,5,14
512,0,342317,5,14
0,384,342790,5,14
512,0,343262,5,14
32,64,343734,6,14,L|64:96|128:96,1,105
192,128,344207,6,14,L|224:160|288:160,1,105
283,160,344679,5,14
320,160,345034,5,14
384,160,345329,5,14
448,160,345624,6,14,L|416:192|352:192,1,105
288,224,346097,6,14,L|256:256|192:256,1,105
196,256,346569,5,14
128,256,346864,5,14
64,256,347160,5,14
32,320,347514,6,14,L|64:288|128:288,1,105
192,256,347986,6,14,L|224:224|288:224,1,105
352,192,348459,6,14,L|384:160|448:160,1,105
480,160,349108,5,14
480,224,349404,6,14,L|448:192|384:192,1,105
320,160,349876,6,14,L|288:128|224:128,1,105
160,96,350349,6,14,L|128:64|64:64,1,105
32,64,350998,5,14
192,128,353065,6,14,L|160:96,1,35
320,128,353538,6,14,L|352:96,1,35
256,64,354128,5,14
0,0,354601,5,14
512,384,355073,5,14
0,0,355545,5,14
512,384,356017,5,14
256,208,356017,12,14,356490
192,256,356845,6,14,L|160:288,1,35
320,256,357317,6,14,L|352:288,1,35
256,64,357908,5,14
0,384,358380,5,14
512,0,358853,5,14
0,384,359325,5,14
512,0,359797,5,14
256,208,359797,12,14,360270
192,256,360624,6,14,L|160:288,1,35
320,256,361097,6,14,L|352:288,1,35
256,256,361392,5,14
0,384,361864,5,14
512,0,362337,5,14
0,384,362809,5,14
512,0,363282,5,14
256,208,363577,12,14,363931
192,128,364404,6,14,L|160:96,1,35
320,128,364876,6,14,L|352:96,1,35
256,320,365408,5,14
112,192,365880,5,14
256,192,366175,5,14
416,192,366471,5,14
192,128,368892,6,14,L|160:96,1,35
320,128,369364,6,14,L|352:96,1,35
256,64,369955,5,14
0,0,370427,5,14
400,192,370841,5,14
256,192,371136,5,14
112,192,371431,5,14
192,256,373380,6,14,L|160:288,1,35
272,192,374030,5,0
0,384,374502,5,14
512,0,374975,5,14
0,384,375447,5,14
512,0,375860,5,0
256,208,376274,12,14,376569
256,336,379108,5,14
256,192,379581,5,14
352,192,380053,5,14
160,192,380526,5,14
256,288,380997,5,14
320,256,381293,5,14
352,192,381588,5,14
480,32,384128,5,14
256,32,384601,5,14
192,32,385073,5,14
128,32,385545,5,14
128,224,386017,5,14
256,224,386312,5,14
368,144,386667,5,14
480,352,389206,5,14
256,352,389678,5,14
192,352,390151,5,14
128,352,390623,5,14
128,160,391096,5,14
272,160,391450,5,0
256,208,391686,12,0,393635
32,192,394286,5,14
256,192,394758,5,14
320,192,395230,5,14
384,192,395703,5,14
384,384,396175,5,14
304,336,396529,5,0
256,208,396765,12,0,399364
256,192,399836,5,0
368,320,400307,5,0
144,224,400780,1,0
208,112,401252,1,0
304,112,401548,1,0
368,192,401843,1,0
256,304,402468,5,0
208,256,403093,1,0
144,160,403718,1,0
320,128,404343,1,0
256,192,405033,5,0
448,304,405593,5,0
112,272,406218,5,0
256,192,406923,5,0
368,320,407393,5,0
416,64,407865,5,0
96,64,408338,5,0
256,192,408751,5,0
240,96,409106,5,0
160,192,409440,5,0
400,224,410071,5,0
256,224,410702,5,0
144,240,411334,5,0
288,320,411966,5,0
64,192,412597,5,0
128,192,413229,5,0
192,192,413861,5,0
320,192,414482,5,0
384,192,414802,5,0
448,192,415112,5,0
384,192,415422,5,0
320,192,415732,5,0
256,192,416042,5,0
192,192,416352,5,0
128,192,416662,5,0
64,192,416972,5,0
128,192,417282,5,0
192,192,417592,5,0
256,192,417902,5,0
320,192,418212,5,0
384,192,418523,5,0
384,192,418833,5,0
384,192,419143,5,0
256,208,419530,12,0,429451
