osu file format v6

[General]
AudioFilename: Nobuo Uematsu - Fight Against Culex.mp3
AudioLeadIn: 500
PreviewTime: 64816
Countdown: 0
SampleSet: Normal
StackLeniency: 0.7
Mode: 0
LetterboxInBreaks: 1

[Editor]
Bookmarks: 1198,3968,8122,14527,17817,20586,24741,31146,34435,37205,39975,48284,53823,62133,64903,70442,78751,87061,95370,98140,100909,109219,114758,120298
DistanceSpacing: 0
BeatDivisor: 4
GridSize: 8

[Metadata]
Title:Fight Against Culex
Artist:Nobuo Uematsu
Creator:Gens
Version:Normal
Source:Super Mario RPG, Final Fantasy II/IV
Tags:Boss Bros SMRPG Square Square-Enix

[Difficulty]
HPDrainRate:4
CircleSize:4
OverallDifficulty:6
SliderMultiplier:1.2
SliderTickRate:2

[Events]
//Background and Video events
0,0,"FightAgainstCulexBG.png"
//Break Periods
//Storyboard Layer 0 (Background)
//Storyboard Layer 1 (Fail)
//Storyboard Layer 2 (Pass)
//Storyboard Layer 3 (Foreground)
//Storyboard Sound Samples
//Background Colour Transformations
3,100,62,123,103

[TimingPoints]
1285,346.220427005193,4,1,0,60,1,0
3973,-100,4,1,0,75,0,0
37210,-100,4,1,1,75,0,0
39975,-100,4,1,0,75,0,0
64989,-100,4,1,0,75,0,1
65032,-100,4,1,0,75,0,0
98140,-100,4,1,1,75,0,0
100909,-100,4,1,0,75,0,0
125924,-100,4,1,0,75,0,1
125967,-100,4,1,0,75,0,0

[Colours]
Combo1 : 60,0,140
Combo2 : 5,240,5
Combo3 : 5,5,240
Combo4 : 240,5,5
Combo5 : 255,249,0

[HitObjects]
472,40,1285,6,0,B|472:192|320:192,1,240,4|0
256,104,2323,1,0
185,192,2669,2,0,B|40:192|40:344,1,240,4|0
336,40,4054,5,4
256,88,4400,1,2
176,128,4747,2,6,B|176:328|424:328,1,360,6|2
504,272,6132,2,4,B|504:24,1,240
384,192,8209,5,6
256,192,8555,1,4
320,96,8901,2,0,B|264:56|200:96,1,120,6|6
80,144,9594,6,2,B|80:304|224:304,3,240
432,240,12364,2,2,B|432:80|288:80,3,240
256,192,15133,1,4
316,296,15826,6,0,B|188:296,4,120
440,192,17903,6,0,B|440:112|392:56,1,120,4|0
368,200,18596,2,0,B|368:136|328:88,1,120,4|0
296,208,19288,2,0,B|296:144|240:104,1,120,4|0
224,216,19980,2,0,B|224:160|144:136,1,120,4|0
176,40,20673,5,4
256,88,21019,1,2
336,128,21366,2,6,B|336:328|88:328,1,360,6|2
8,272,22751,2,4,B|8:24,1,240
128,192,24828,5,6
256,192,25174,1,4
192,96,25520,2,0,B|248:56|312:96,1,120,6|6
432,144,26213,6,2,B|432:304|288:304,3,240
80,240,28983,2,2,B|80:80|224:80,3,240
256,192,31752,1,4
200,320,32445,6,0,B|328:320,4,120
72,192,34522,6,0,B|72:112|120:56,1,120,4|0
144,200,35215,2,0,B|144:136|184:88,1,120,4|0
216,208,35907,2,0,B|216:144|272:104,1,120,4|0
288,216,36599,2,0,B|288:160|368:136,1,120,4|2
365,136,37118,1,2
440,136,37291,5,4
440,136,37638,1,8
360,224,37984,1,4
360,224,38331,1,8
376,80,38676,6,2,B|256:40|136:80,1,240,2|4
256,136,39715,1,8
120,192,40061,6,0,B|120:336|216:280|232:336,2,180,4|2|0
200,144,41446,2,0,B|200:0|296:56|312:0,2,180,4|2|0
288,192,42831,6,0,B|200:152|200:240|112:192,2,180,4|2|0
224,272,44216,2,0,B|312:232|312:320|400:272,2,180,4|2|0
256,352,45601,6,0,B|144:352|144:240,2,180,4|2|0
256,352,46986,2,0,B|368:352|368:240,2,180,4|2|0
208,280,48370,6,0,B|160:240|160:168,1,120,0|6
304,280,49063,2,0,B|352:240|352:168,1,120,0|6
360,64,49755,2,2,B|312:32|312:32|256:64|192:32|192:32|136:64,1,240,2|4
256,152,50794,1,2
208,104,51140,6,0,B|160:144|160:216,1,120,0|6
304,104,51833,2,0,B|352:144|352:216,1,120,0|6
360,320,52525,2,2,B|312:352|312:352|256:320|192:352|192:352|136:320,1,240,2|4
256,232,53564,1,2
256,104,53910,5,0
256,104,54083,1,0
256,104,54256,2,0,B|496:104|488:360|248:360,1,480,4|8
256,240,55987,1,2
256,240,56334,1,2
252,359,56680,2,0,B|24:360|16:104|256:104,1,480,4|8
320,272,58757,1,2
192,272,59103,1,2
256,192,59450,1,4
256,192,59536,12,4,61527
376,72,62219,6,0,B|316:56|256:72,1,120,4|8
192,104,62739,1,2
256,192,63085,1,0
256,192,63258,1,2
136,312,63604,6,0,B|196:328|256:312,1,120,4|8
320,280,64124,1,2
256,192,64470,1,0
256,192,64643,1,2
256,64,64989,5,4
360,88,65335,1,2
400,184,65681,2,2,B|288:288|56:288,1,360,6|2
80,208,67066,2,4,B|176:144|320:144,1,240
200,336,69144,5,6
312,336,69490,1,4
256,248,69836,1,6
256,136,70182,1,6
304,40,70529,6,2,B|456:40|456:192,1,240
256,192,71913,2,2,B|112:192|112:32,1,240
304,40,73298,6,2,B|456:40|456:192,1,240
256,192,74682,2,2,B|112:192|112:32,1,240
256,264,76068,1,4
112,264,76761,6,0,B|112:136,4,120
320,373,78838,6,0,B|380:373|380:309|312:309,1,120,4|0
192,312,79530,2,0,B|132:312|132:248|200:248,1,120,4|0
320,248,80223,6,0,B|380:248|380:184|312:184,1,120,4|0
192,184,80915,2,0,B|132:184|132:120|200:120,1,120,4|0
256,64,81608,5,4
152,88,81954,1,2
112,184,82300,2,2,B|224:288|456:288,1,360,6|2
432,208,83685,2,4,B|336:144|192:144,1,240
312,336,85762,5,6
200,336,86108,1,4
256,248,86454,1,6
256,136,86800,1,6
176,64,87147,6,2,B|104:64|104:64|88:64|88:80|88:80|88:128|136:168|48:168|88:216,1,240
336,64,88532,2,2,B|408:64|408:64|424:64|424:80|424:80|424:128|376:168|464:168|424:216,1,240
256,368,89917,2,2,B|16:192|520:192|248:0,2,480,2|2|4
400,264,93379,6,0,B|400:136,4,120
192,371,95456,6,0,B|132:371|132:307|200:307,1,120,4|0
320,312,96148,2,0,B|380:312|380:248|312:248,1,120,4|0
192,248,96841,6,0,B|132:248|132:184|200:184,1,120,4|0
320,184,97533,2,0,B|380:184|380:120|312:120,1,120,4|2
320,120,98053,1,2
256,96,98226,6,0,B|168:184,1,120,4|8
256,96,98919,2,0,B|344:184,1,120,4|8
328,312,99611,2,2,B|312:312|312:312|216:312|216:208|320:208|320:312|200:312|200:312|184:312,1,240,2|4
120,216,100650,1,8
160,104,100996,6,0,B|368:72,2,180,4|2|0
224,168,102381,2,0,B|16:200,2,180,4|2|0
304,96,103766,6,0,B|384:96|384:96|408:96|408:120|408:120|408:208,2,180,4|2|0
224,152,105151,2,0,B|144:152|144:152|120:152|120:176|120:176|120:264,2,180,4|2|0
256,192,106536,12,4,108613
208,272,109305,6,0,B|224:216|144:216|208:136,1,120,0|6
304,272,109998,2,0,B|288:216|368:216|304:136,1,120,0|6
368,48,110690,2,2,B|256:96|128:48,1,240,2|4
256,152,111729,1,2
208,112,112075,6,0,B|224:168|144:168|208:248,1,120,0|6
304,112,112768,2,0,B|288:168|368:168|304:248,1,120,0|6
368,336,113460,2,2,B|256:288|128:336,1,240,2|4
256,232,114499,1,2
256,96,114845,5,0
256,96,115191,2,0,B|320:32|432:32|472:72|472:216|432:256|320:256|256:192,1,480,4|8
152,144,116922,1,2
152,144,117268,1,2
248,96,117615,2,0,B|184:32|72:32|32:72|32:216|72:256|184:256|248:192,1,480,4|8
312,272,119692,5,2
200,272,120038,1,2
256,352,120384,1,4
256,192,120471,12,4,122462
344,48,123154,6,0,B|288:96|288:16|232:56,1,120,4|8
168,88,123673,2,2,B|128:168|168:264,1,180
232,232,124366,1,0
264,160,124539,6,0,B|320:208|320:128|376:168,1,120,4|8
440,200,125058,2,2,B|480:280|440:376,1,180
256,328,125924,1,4
